  0
SECTION
  2
HEADER
  9
$ACADVER
  1
AC1015
  9
$ACADMAINTVER
 70
        6
  9
$DWGCODEPAGE
  3
ANSI_1252
  9
$INSBASE
 10
0.0
 20
0.0
 30
0.0
  9
$EXTMIN
 10
1.000000000E+20
 20
1.000000000E+20
 30
1.000000000E+20
  9
$EXTMAX
 10
-1.000000000E+20
 20
-1.000000000E+20
 30
-1.000000000E+20
  9
$LIMMIN
 10
0.0
 20
0.0
  9
$LIMMAX
 10
0.0
 20
0.0
  9
$ORTHOMODE
 70
        0
  9
$REGENMODE
 70
        1
  9
$FILLMODE
 70
        1
  9
$QTEXTMODE
 70
        0
  9
$MIRRTEXT
 70
        1
  9
$LTSCALE
 40
1.0
  9
$ATTMODE
 70
        1
  9
$TEXTSIZE
 40
0.2
  9
$TRACEWID
 40
0.05
  9
$TEXTSTYLE
  7
Standard
  9
$CLAYER
  8
AS88QU
  9
$CELTYPE
  6
Continuous
  9
$CECOLOR
 62
      256
  9
$CELTSCALE
 40
1.0
  9
$DISPSILH
 70
        0
  9
$DIMSCALE
 40
1.0
  9
$DIMASZ
 40
3.5
  9
$DIMEXO
 40
4.0
  9
$DIMDLI
 40
0.38
  9
$DIMRND
 40
0.0
  9
$DIMDLE
 40
0.0
  9
$DIMEXE
 40
4.0
  9
$DIMTP
 40
0.0
  9
$DIMTM
 40
0.0
  9
$DIMTXT
 40
3.5
  9
$DIMCEN
 40
0.09
  9
$DIMTSZ
 40
0.0
  9
$DIMTOL
 70
        0
  9
$DIMLIM
 70
        0
  9
$DIMTIH
 70
        0
  9
$DIMTOH
 70
        0
  9
$DIMSE1
 70
        0
  9
$DIMSE2
 70
        0
  9
$DIMTAD
 70
        1
  9
$DIMZIN
 70
        0
  9
$DIMBLK
  1

  9
$DIMASO
 70
        1
  9
$DIMSHO
 70
        1
  9
$DIMPOST
  1

  9
$DIMAPOST
  1

  9
$DIMALT
 70
        0
  9
$DIMALTD
 70
        2
  9
$DIMALTF
 40
25.4
  9
$DIMLFAC
 40
1.0
  9
$DIMTOFL
 70
        1
  9
$DIMTVP
 40
0.0
  9
$DIMTIX
 70
        0
  9
$DIMSOXD
 70
        0
  9
$DIMSAH
 70
        0
  9
$DIMBLK1
  1

  9
$DIMBLK2
  1

  9
$DIMSTYLE
  2
Standard
  9
$DIMCLRD
 70
        7
  9
$DIMCLRE
 70
        7
  9
$DIMCLRT
 70
       50
  9
$DIMTFAC
 40
1.0
  9
$DIMGAP
 40
0.09
  9
$DIMJUST
 70
        0
  9
$DIMSD1
 70
        0
  9
$DIMSD2
 70
        0
  9
$DIMTOLJ
 70
        1
  9
$DIMTZIN
 70
        0
  9
$DIMALTZ
 70
        0
  9
$DIMALTTZ
 70
        0
  9
$DIMUPT
 70
        0
  9
$DIMDEC
 70
        2
  9
$DIMTDEC
 70
        4
  9
$DIMALTU
 70
        2
  9
$DIMALTTD
 70
        2
  9
$DIMTXSTY
  7
Standard
  9
$DIMAUNIT
 70
        0
  9
$DIMADEC
 70
        0
  9
$DIMALTRND
 40
0.0
  9
$DIMAZIN
 70
        0
  9
$DIMDSEP
 70
        0
  9
$DIMATFIT
 70
        1
  9
$DIMFRAC
 70
        0
  9
$DIMLDRBLK
  1

  9
$DIMLUNIT
 70
        2
  9
$DIMLWD
 70
        0
  9
$DIMLWE
 70
        0
  9
$DIMTMOVE
 70
        0
  9
$LUNITS
 70
        2
  9
$LUPREC
 70
        2
  9
$SKETCHINC
 40
0.1
  9
$FILLETRAD
 40
0.0
  9
$AUNITS
 70
        0
  9
$AUPREC
 70
        2
  9
$MENU
  1
acad
  9
$ELEVATION
 40
0.0
  9
$PELEVATION
 40
0.0
  9
$THICKNESS
 40
0.0
  9
$LIMCHECK
 70
        0
  9
$CHAMFERA
 40
0.0
  9
$CHAMFERB
 40
0.0
  9
$CHAMFERC
 40
0.0
  9
$CHAMFERD
 40
0.0
  9
$SKPOLY
 70
        0
  9
$TDCREATE
 40
0.000000000
  9
$TDUCREATE
 40
0.000000000
  9
$TDUPDATE
 40
0.000000000
  9
$TDUUPDATE
 40
0.000000000
  9
$TDINDWG
 40
0.0000000000
  9
$TDUSRTIMER
 40
0.0000000000
  9
$USRTIMER
 70
        1
  9
$ANGBASE
 50
0.0
  9
$ANGDIR
 70
        0
  9
$PDMODE
 70
        2
  9
$PDSIZE
 40
-1.0
  9
$PLINEWID
 40
0.0
  9
$SPLFRAME
 70
        0
  9
$SPLINETYPE
 70
        6
  9
$SPLINESEGS
 70
        8
  9
$HANDSEED
  5
5E0
  9
$SURFTAB1
 70
        6
  9
$SURFTAB2
 70
        6
  9
$SURFTYPE
 70
        6
  9
$SURFU
 70
        6
  9
$SURFV
 70
        6
  9
$UCSBASE
  2

  9
$UCSNAME
  2

  9
$UCSORG
 10
0.0
 20
0.0
 30
0.0
  9
$UCSXDIR
 10
1.0
 20
0.0
 30
0.0
  9
$UCSYDIR
 10
0.0
 20
1.0
 30
0.0
  9
$UCSORTHOREF
  2

  9
$UCSORTHOVIEW
 70
        0
  9
$UCSORGTOP
 10
0.0
 20
0.0
 30
0.0
  9
$UCSORGBOTTOM
 10
0.0
 20
0.0
 30
0.0
  9
$UCSORGLEFT
 10
0.0
 20
0.0
 30
0.0
  9
$UCSORGRIGHT
 10
0.0
 20
0.0
 30
0.0
  9
$UCSORGFRONT
 10
0.0
 20
0.0
 30
0.0
  9
$UCSORGBACK
 10
0.0
 20
0.0
 30
0.0
  9
$PUCSBASE
  2

  9
$PUCSNAME
  2

  9
$PUCSORG
 10
0.0
 20
0.0
 30
0.0
  9
$PUCSXDIR
 10
1.0
 20
0.0
 30
0.0
  9
$PUCSYDIR
 10
0.0
 20
1.0
 30
0.0
  9
$PUCSORTHOREF
  2

  9
$PUCSORTHOVIEW
 70
        0
  9
$PUCSORGTOP
 10
0.0
 20
0.0
 30
0.0
  9
$PUCSORGBOTTOM
 10
0.0
 20
0.0
 30
0.0
  9
$PUCSORGLEFT
 10
0.0
 20
0.0
 30
0.0
  9
$PUCSORGRIGHT
 10
0.0
 20
0.0
 30
0.0
  9
$PUCSORGFRONT
 10
0.0
 20
0.0
 30
0.0
  9
$PUCSORGBACK
 10
0.0
 20
0.0
 30
0.0
  9
$USERI1
 70
        0
  9
$USERI2
 70
        0
  9
$USERI3
 70
        0
  9
$USERI4
 70
        0
  9
$USERI5
 70
        0
  9
$USERR1
 40
0.0
  9
$USERR2
 40
0.0
  9
$USERR3
 40
0.0
  9
$USERR4
 40
0.0
  9
$USERR5
 40
0.0
  9
$WORLDVIEW
 70
        1
  9
$SHADEDGE
 70
        3
  9
$SHADEDIF
 70
       70
  9
$TILEMODE
 70
        1
  9
$MAXACTVP
 70
       16
  9
$PINSBASE
 10
0.0
 20
0.0
 30
0.0
  9
$PLIMCHECK
 70
        0
  9
$PEXTMIN
 10
1.000000000E+20
 20
1.000000000E+20
 30
1.000000000E+20
  9
$PEXTMAX
 10
-1.000000000E+20
 20
-1.000000000E+20
 30
-1.000000000E+20
  9
$PLIMMIN
 10
0.0
 20
0.0
  9
$PLIMMAX
 10
12.0
 20
9.0
  9
$UNITMODE
 70
        0
  9
$VISRETAIN
 70
        0
  9
$PLINEGEN
 70
        1
  9
$PSLTSCALE
 70
        0
  9
$TREEDEPTH
 70
     3020
  9
$CMLSTYLE
  2
Standard
  9
$CMLJUST
 70
        0
  9
$CMLSCALE
 40
1.0
  9
$PROXYGRAPHICS
 70
        0
  9
$MEASUREMENT
 70
        1
  9
$CELWEIGHT
370
        0
  9
$ENDCAPS
280
        0
  9
$JOINSTYLE
280
        0
  9
$LWDISPLAY
290
        0
  9
$INSUNITS
 70
        0
  9
$HYPERLINKBASE
  1

  9
$XEDIT
290
        1
  9
$CEPSNTYPE
380
        0
  9
$PSTYLEMODE
290
        1
  9
$FINGERPRINTGUID
  2

  9
$VERSIONGUID
  2

  9
$EXTNAMES
290
        1
  9
$PSVPSCALE
 40
0.0
  0
ENDSEC
  0
SECTION
  2
CLASSES
  0
CLASS
  1
LWPOLYLINE
  2
AcDbPolyline
  3
AutoCAD 2000
 90
        0
280
        0
281
        1
  0
CLASS
  1
IMAGE
  2
AcDbRasterImage
  3
ISM
 90
    32895
280
        0
281
        1
  0
CLASS
  1
OLE2FRAME
  2
AcDbOle2Frame
  3
AutoCAD 2000
 90
    32768
280
        0
281
        1
  0
CLASS
  1
HATCH
  2
AcDbHatch
  3
AutoCAD 2000
 90
    32768
280
        0
281
        1
  0
CLASS
  1
DICTIONARYVAR
  2
AcDbDictionaryVar
  3
AutoCAD 2000
 90
    32768
280
        0
281
        0
  0
CLASS
  1
RASTERVARIABLES
  2
AcDbRasterVariables
  3
ISM
 90
    32768
280
        0
281
        0
  0
CLASS
  1
IMAGEDEF
  2
AcDbRasterImageDef
  3
ISM
 90
    32768
280
        0
281
        0
  0
CLASS
  1
IMAGEDEF_REACTOR
  2
AcDbRasterImageDefReactor
  3
ISM
 90
    32769
280
        0
281
        0
  0
CLASS
  1
IDBUFFER
  2
AcDbIdBuffer
  3
AutoCAD 2000
 90
    32768
280
        0
281
        0
  0
CLASS
  1
SPATIAL_FILTER
  2
AcDbSpatialFilter
  3
AutoCAD 2000
 90
    32768
280
        0
281
        0
  0
CLASS
  1
XRECORD
  2
AcDbXrecord
  3
AutoCAD 2000
 90
    32768
280
        0
281
        0
  0
CLASS
  1
SORTENTSTABLE
  2
AcDbSortentsTable
  3
AutoCAD 2000
 90
    32768
280
        0
281
        0
  0
CLASS
  1
LAYER_INDEX
  2
AcDbLayerIndex
  3
AutoCAD 2000
 90
    32768
280
        0
281
        0
  0
CLASS
  1
SPATIAL_INDEX
  2
AcDbSpatialIndex
  3
AutoCAD 2000
 90
    32768
280
        0
281
        0
  0
CLASS
  1
OBJECT_PTR
  2
CAseDLPNTableRecord
  3
"ASE-LPNTableRecord"
 90
    32769
280
        0
281
        0
  0
CLASS
  1
LAYOUT
  2
AcDbLayout
  3
AutoCAD 2000
 90
        0
280
        0
281
        0
  0
CLASS
  1
PLOTSETTINGS
  2
AcDbPlotSettings
  3
AutoCAD 2000
 90
    32768
280
        0
281
        0
  0
CLASS
  1
ACDBDICTIONARYWDFLT
  2
AcDbDictionaryWithDefault
  3
AutoCAD 2000
 90
        0
280
        0
281
        0
  0
CLASS
  1
ACDBPLACEHOLDER
  2
AcDbPlaceHolder
  3
AutoCAD 2000
 90
        0
280
        0
281
        0
  0
ENDSEC
  0
SECTION
  2
TABLES
  0
TABLE
  2
VPORT
  5
7
100
AcDbSymbolTable
 70
        1
  0
VPORT
  5
15
100
AcDbSymbolTableRecord
100
AcDbViewportTableRecord
  2
*ACTIVE
 70
        0
 10
0.0
 20
0.0
 11
1.0
 21
1.0
 12
6.591288
 22
4.579184
 13
0.0
 23
0.0
 14
1.0
 24
1.0
 15
0.0
 25
0.0
 16
0.0
 26
0.0
 36
1.0
 17
0.0
 27
0.0
 37
0.0
 40
9.158369
 41
0.688564
 42
50.0
 43
0.0
 44
0.0
 50
0.0
 51
0.0
 71
        0
 72
      100
 73
        1
 74
        1
 75
        0
 76
        0
 77
        0
 78
        0
281
        0
 65
        0
110
0.0
120
0.0
130
0.0
111
1.0
121
0.0
131
0.0
112
0.0
122
1.0
132
0.0
345
0
346
0
 79
        0
146
0.0
  0
ENDTAB
  0
TABLE
  2
LTYPE
  5
4
100
AcDbSymbolTable
 70
        6
  0
LTYPE
  5
11
100
AcDbSymbolTableRecord
100
AcDbLinetypeTableRecord
  2
ByBlock
 70
       64
  3

 72
       65
 73
        0
 40
0.0
  0
LTYPE
  5
12
100
AcDbSymbolTableRecord
100
AcDbLinetypeTableRecord
  2
ByLayer
 70
       64
  3

 72
       65
 73
        0
 40
0.0
  0
LTYPE
  5
13
100
AcDbSymbolTableRecord
100
AcDbLinetypeTableRecord
  2
Continuous
 70
       64
  3
Solid line
 72
       65
 73
        0
 40
0.0
  0
LTYPE
  5
55
100
AcDbSymbolTableRecord
100
AcDbLinetypeTableRecord
  2
SOLID
 70
       64
  3
Solid line
 72
       65
 73
        0
 40
0.0
  0
LTYPE
  5
57
100
AcDbSymbolTableRecord
100
AcDbLinetypeTableRecord
  2
CENTER
 70
       64
  3
Center ____ _ ____ _ ____ _ ____ _ ____ _ ____
 72
       65
 73
        4
 40
8.0
 49
4.5
 74
        0
 49
-1.5
 74
        0
 49
0.5
 74
        0
 49
-1.5
 74
        0
  0
LTYPE
  5
2BE
100
AcDbSymbolTableRecord
100
AcDbLinetypeTableRecord
  2
L_DASH
 70
       64
  3
L_dash ____  ____  ____  ____  ____  ____
 72
       65
 73
        2
 40
8.0
 49
6.0
 74
        0
 49
-2.0
 74
        0
  0
ENDTAB
  0
TABLE
  2
LAYER
  5
2
100
AcDbSymbolTable
 70
       51
  0
LAYER
  5
14
100
AcDbSymbolTableRecord
100
AcDbLayerTableRecord
  2
0
 70
        0
 62
        7
  6
Continuous
290
        1
370
       -3
390
1D
  0
LAYER
  5
23
100
AcDbSymbolTableRecord
100
AcDbLayerTableRecord
  2
AS88QU
 70
        0
 62
        7
  6
Continuous
290
        1
370
       -3
390
1F
  0
LAYER
  5
24
100
AcDbSymbolTableRecord
100
AcDbLayerTableRecord
  2
A88DXF
 70
        0
 62
        7
  6
Continuous
290
        1
370
       -3
390
1F
  0
LAYER
  5
25
100
AcDbSymbolTableRecord
100
AcDbLayerTableRecord
  2
3
 70
        0
 62
        7
  6
Continuous
290
        1
370
       -3
390
1F
  0
LAYER
  5
26
100
AcDbSymbolTableRecord
100
AcDbLayerTableRecord
  2
4
 70
        0
 62
        7
  6
Continuous
290
        1
370
       -3
390
1F
  0
LAYER
  5
27
100
AcDbSymbolTableRecord
100
AcDbLayerTableRecord
  2
5
 70
        0
 62
        7
  6
Continuous
290
        1
370
       -3
390
1F
  0
LAYER
  5
28
100
AcDbSymbolTableRecord
100
AcDbLayerTableRecord
  2
6
 70
        0
 62
        7
  6
Continuous
290
        1
370
       -3
390
1F
  0
LAYER
  5
29
100
AcDbSymbolTableRecord
100
AcDbLayerTableRecord
  2
7
 70
        0
 62
        7
  6
Continuous
290
        1
370
       -3
390
1F
  0
LAYER
  5
2A
100
AcDbSymbolTableRecord
100
AcDbLayerTableRecord
  2
8
 70
        0
 62
        7
  6
Continuous
290
        1
370
       -3
390
1F
  0
LAYER
  5
2B
100
AcDbSymbolTableRecord
100
AcDbLayerTableRecord
  2
9
 70
        0
 62
        7
  6
Continuous
290
        1
370
       -3
390
1F
  0
LAYER
  5
2C
100
AcDbSymbolTableRecord
100
AcDbLayerTableRecord
  2
10
 70
        0
 62
        7
  6
Continuous
290
        1
370
       -3
390
1F
  0
LAYER
  5
2D
100
AcDbSymbolTableRecord
100
AcDbLayerTableRecord
  2
11
 70
        0
 62
        7
  6
Continuous
290
        1
370
       -3
390
1F
  0
LAYER
  5
2E
100
AcDbSymbolTableRecord
100
AcDbLayerTableRecord
  2
12
 70
        0
 62
        7
  6
Continuous
290
        1
370
       -3
390
1F
  0
LAYER
  5
2F
100
AcDbSymbolTableRecord
100
AcDbLayerTableRecord
  2
13
 70
        0
 62
        7
  6
Continuous
290
        1
370
       -3
390
1F
  0
LAYER
  5
30
100
AcDbSymbolTableRecord
100
AcDbLayerTableRecord
  2
14
 70
        0
 62
        7
  6
Continuous
290
        1
370
       -3
390
1F
  0
LAYER
  5
31
100
AcDbSymbolTableRecord
100
AcDbLayerTableRecord
  2
15
 70
        0
 62
        7
  6
Continuous
290
        1
370
       -3
390
1F
  0
LAYER
  5
32
100
AcDbSymbolTableRecord
100
AcDbLayerTableRecord
  2
16
 70
        0
 62
        7
  6
Continuous
290
        1
370
       -3
390
1F
  0
LAYER
  5
33
100
AcDbSymbolTableRecord
100
AcDbLayerTableRecord
  2
17
 70
        0
 62
        7
  6
Continuous
290
        1
370
       -3
390
1F
  0
LAYER
  5
34
100
AcDbSymbolTableRecord
100
AcDbLayerTableRecord
  2
18
 70
        0
 62
        7
  6
Continuous
290
        1
370
       -3
390
1F
  0
LAYER
  5
35
100
AcDbSymbolTableRecord
100
AcDbLayerTableRecord
  2
19
 70
        0
 62
        7
  6
Continuous
290
        1
370
       -3
390
1F
  0
LAYER
  5
36
100
AcDbSymbolTableRecord
100
AcDbLayerTableRecord
  2
20
 70
        0
 62
        7
  6
Continuous
290
        1
370
       -3
390
1F
  0
LAYER
  5
37
100
AcDbSymbolTableRecord
100
AcDbLayerTableRecord
  2
21
 70
        0
 62
        7
  6
Continuous
290
        1
370
       -3
390
1F
  0
LAYER
  5
38
100
AcDbSymbolTableRecord
100
AcDbLayerTableRecord
  2
22
 70
        0
 62
        7
  6
Continuous
290
        1
370
       -3
390
1F
  0
LAYER
  5
39
100
AcDbSymbolTableRecord
100
AcDbLayerTableRecord
  2
23
 70
        0
 62
        7
  6
Continuous
290
        1
370
       -3
390
1F
  0
LAYER
  5
3A
100
AcDbSymbolTableRecord
100
AcDbLayerTableRecord
  2
24
 70
        0
 62
        7
  6
Continuous
290
        1
370
       -3
390
1F
  0
LAYER
  5
3B
100
AcDbSymbolTableRecord
100
AcDbLayerTableRecord
  2
25
 70
        0
 62
        7
  6
Continuous
290
        1
370
       -3
390
1F
  0
LAYER
  5
3C
100
AcDbSymbolTableRecord
100
AcDbLayerTableRecord
  2
26
 70
        0
 62
        7
  6
Continuous
290
        1
370
       -3
390
1F
  0
LAYER
  5
3D
100
AcDbSymbolTableRecord
100
AcDbLayerTableRecord
  2
27
 70
        0
 62
        7
  6
Continuous
290
        1
370
       -3
390
1F
  0
LAYER
  5
3E
100
AcDbSymbolTableRecord
100
AcDbLayerTableRecord
  2
28
 70
        0
 62
        7
  6
Continuous
290
        1
370
       -3
390
1F
  0
LAYER
  5
3F
100
AcDbSymbolTableRecord
100
AcDbLayerTableRecord
  2
29
 70
        0
 62
        7
  6
Continuous
290
        1
370
       -3
390
1F
  0
LAYER
  5
40
100
AcDbSymbolTableRecord
100
AcDbLayerTableRecord
  2
30
 70
        0
 62
        7
  6
Continuous
290
        1
370
       -3
390
1F
  0
LAYER
  5
41
100
AcDbSymbolTableRecord
100
AcDbLayerTableRecord
  2
31
 70
        0
 62
        7
  6
Continuous
290
        1
370
       -3
390
1F
  0
LAYER
  5
42
100
AcDbSymbolTableRecord
100
AcDbLayerTableRecord
  2
32
 70
        0
 62
        7
  6
Continuous
290
        1
370
       -3
390
1F
  0
LAYER
  5
43
100
AcDbSymbolTableRecord
100
AcDbLayerTableRecord
  2
33
 70
        0
 62
        7
  6
Continuous
290
        1
370
       -3
390
1F
  0
LAYER
  5
44
100
AcDbSymbolTableRecord
100
AcDbLayerTableRecord
  2
34
 70
        0
 62
        7
  6
Continuous
290
        1
370
       -3
390
1F
  0
LAYER
  5
45
100
AcDbSymbolTableRecord
100
AcDbLayerTableRecord
  2
35
 70
        0
 62
        7
  6
Continuous
290
        1
370
       -3
390
1F
  0
LAYER
  5
46
100
AcDbSymbolTableRecord
100
AcDbLayerTableRecord
  2
36
 70
        0
 62
        7
  6
Continuous
290
        1
370
       -3
390
1F
  0
LAYER
  5
47
100
AcDbSymbolTableRecord
100
AcDbLayerTableRecord
  2
37
 70
        0
 62
        7
  6
Continuous
290
        1
370
       -3
390
1F
  0
LAYER
  5
48
100
AcDbSymbolTableRecord
100
AcDbLayerTableRecord
  2
38
 70
        0
 62
        7
  6
Continuous
290
        1
370
       -3
390
1F
  0
LAYER
  5
49
100
AcDbSymbolTableRecord
100
AcDbLayerTableRecord
  2
39
 70
        0
 62
        7
  6
Continuous
290
        1
370
       -3
390
1F
  0
LAYER
  5
4A
100
AcDbSymbolTableRecord
100
AcDbLayerTableRecord
  2
40
 70
        0
 62
        7
  6
Continuous
290
        1
370
       -3
390
1F
  0
LAYER
  5
4B
100
AcDbSymbolTableRecord
100
AcDbLayerTableRecord
  2
41
 70
        0
 62
        7
  6
Continuous
290
        1
370
       -3
390
1F
  0
LAYER
  5
4C
100
AcDbSymbolTableRecord
100
AcDbLayerTableRecord
  2
42
 70
        0
 62
        7
  6
Continuous
290
        1
370
       -3
390
1F
  0
LAYER
  5
4D
100
AcDbSymbolTableRecord
100
AcDbLayerTableRecord
  2
43
 70
        0
 62
        7
  6
Continuous
290
        1
370
       -3
390
1F
  0
LAYER
  5
4E
100
AcDbSymbolTableRecord
100
AcDbLayerTableRecord
  2
44
 70
        0
 62
        7
  6
Continuous
290
        1
370
       -3
390
1F
  0
LAYER
  5
4F
100
AcDbSymbolTableRecord
100
AcDbLayerTableRecord
  2
45
 70
        0
 62
        7
  6
Continuous
290
        1
370
       -3
390
1F
  0
LAYER
  5
50
100
AcDbSymbolTableRecord
100
AcDbLayerTableRecord
  2
46
 70
        0
 62
        7
  6
Continuous
290
        1
370
       -3
390
1F
  0
LAYER
  5
51
100
AcDbSymbolTableRecord
100
AcDbLayerTableRecord
  2
47
 70
        0
 62
        7
  6
Continuous
290
        1
370
       -3
390
1F
  0
LAYER
  5
52
100
AcDbSymbolTableRecord
100
AcDbLayerTableRecord
  2
48
 70
        0
 62
        7
  6
Continuous
290
        1
370
       -3
390
1F
  0
LAYER
  5
53
100
AcDbSymbolTableRecord
100
AcDbLayerTableRecord
  2
49
 70
        0
 62
        7
  6
Continuous
290
        1
370
       -3
390
1F
  0
LAYER
  5
54
100
AcDbSymbolTableRecord
100
AcDbLayerTableRecord
  2
50
 70
        0
 62
        7
  6
Continuous
290
        1
370
       -3
390
1F
  0
ENDTAB
  0
TABLE
  2
STYLE
  5
3
100
AcDbSymbolTable
 70
        1
  0
STYLE
  5
17
100
AcDbSymbolTableRecord
100
AcDbTextStyleTableRecord
  2
Standard
 70
        0
 40
0.0
 41
1.0
 50
0.0
 71
        0
 42
0.0
  3
txt
  4

  0
ENDTAB
  0
TABLE
  2
VIEW
  5
5
100
AcDbSymbolTable
 70
        0
  0
ENDTAB
  0
TABLE
  2
UCS
  5
6
100
AcDbSymbolTable
 70
        0
  0
ENDTAB
  0
TABLE
  2
APPID
  5
8
100
AcDbSymbolTable
 70
        1
  0
APPID
  5
16
100
AcDbSymbolTableRecord
100
AcDbRegAppTableRecord
  2
ACAD
 70
        0
  0
ENDTAB
  0
TABLE
  2
DIMSTYLE
  5
9
100
AcDbSymbolTable
 70
       17
100
AcDbDimStyleTable
 71
        0
  0
DIMSTYLE
105
18
100
AcDbSymbolTableRecord
100
AcDbDimStyleTableRecord
  2
Standard
 70
        0
  3

  4

 40
1.0
 41
3.5
 42
4.0
 43
0.38
 44
4.0
 45
0.0
 46
0.0
 47
0.0
 48
0.0
 71
        0
 72
        0
 73
        0
 74
        0
 75
        0
 76
        0
 77
        1
 78
        0
 79
        0
140
3.5
141
0.09
142
0.0
143
25.4
144
1.0
145
0.0
146
1.0
147
0.09
148
0.0
170
        0
171
        2
172
        1
173
        0
174
        0
175
        0
176
        7
177
        7
178
       50
179
        0
271
        4
272
        4
273
        2
274
        2
275
        0
276
        0
277
        2
278
       46
279
        0
280
        0
281
        0
282
        0
283
        1
284
        0
285
        0
286
        0
288
        0
340
17
341
0
342
0
343
0
344
0
371
       -2
372
       -2
  0
DIMSTYLE
105
88
100
AcDbSymbolTableRecord
100
AcDbDimStyleTableRecord
  2
2
 70
        0
  3

  4

 40
1.0
 41
3.5
 42
4.0
 43
0.38
 44
4.0
 45
0.0
 46
0.0
 47
0.0
 48
0.0
 71
        0
 72
        0
 73
        0
 74
        0
 75
        0
 76
        0
 77
        1
 78
        0
 79
        0
140
3.5
141
0.09
142
0.0
143
25.4
144
1.0
145
0.0
146
1.0
147
0.09
148
0.0
170
        0
171
        2
172
        1
173
        0
174
        0
175
        0
176
        7
177
        7
178
        7
179
        0
271
        2
272
        4
273
        2
274
        2
275
        0
276
        0
277
        2
278
       46
279
        0
280
        0
281
        0
282
        0
283
        1
284
        0
285
        0
286
        0
288
        0
340
17
341
0
342
0
343
0
344
0
371
       -2
372
       -2
  0
DIMSTYLE
105
A1
100
AcDbSymbolTableRecord
100
AcDbDimStyleTableRecord
  2
3
 70
        0
  3

  4

 40
1.0
 41
3.5
 42
4.0
 43
0.38
 44
4.0
 45
0.0
 46
0.0
 47
0.0
 48
0.0
 71
        0
 72
        0
 73
        0
 74
        0
 75
        0
 76
        0
 77
        1
 78
        0
 79
        0
140
3.5
141
0.09
142
0.0
143
25.4
144
1.0
145
0.0
146
1.0
147
0.09
148
0.0
170
        0
171
        2
172
        1
173
        0
174
        0
175
        0
176
        7
177
        7
178
        7
179
        0
271
        2
272
        4
273
        2
274
        2
275
        0
276
        0
277
        2
278
       46
279
        0
280
        0
281
        0
282
        0
283
        1
284
        0
285
        0
286
        0
288
        0
340
17
341
0
342
0
343
0
344
0
371
       -2
372
       -2
  0
DIMSTYLE
105
123
100
AcDbSymbolTableRecord
100
AcDbDimStyleTableRecord
  2
4
 70
        0
  3

  4

 40
1.0
 41
3.5
 42
4.0
 43
0.38
 44
4.0
 45
0.0
 46
0.0
 47
0.0
 48
0.0
 71
        0
 72
        0
 73
        0
 74
        0
 75
        0
 76
        0
 77
        1
 78
        0
 79
        0
140
3.5
141
0.09
142
0.0
143
25.4
144
1.0
145
0.0
146
1.0
147
0.09
148
0.0
170
        0
171
        2
172
        1
173
        0
174
        0
175
        0
176
        7
177
        7
178
        7
179
        0
271
        2
272
        4
273
        2
274
        2
275
        0
276
        0
277
        2
278
       46
279
        0
280
        0
281
        0
282
        0
283
        1
284
        0
285
        0
286
        0
288
        0
340
17
341
0
342
0
343
0
344
0
371
       -2
372
       -2
  0
DIMSTYLE
105
371
100
AcDbSymbolTableRecord
100
AcDbDimStyleTableRecord
  2
5
 70
        0
  3

  4

 40
1.0
 41
3.5
 42
4.0
 43
0.38
 44
4.0
 45
0.0
 46
0.0
 47
0.0
 48
0.0
 71
        0
 72
        0
 73
        0
 74
        0
 75
        0
 76
        0
 77
        1
 78
        0
 79
        0
140
3.5
141
0.09
142
0.0
143
25.4
144
1.0
145
0.0
146
1.0
147
0.09
148
0.0
170
        0
171
        2
172
        1
173
        0
174
        0
175
        0
176
        7
177
        7
178
        7
179
        0
271
        2
272
        4
273
        2
274
        2
275
        0
276
        0
277
        2
278
       46
279
        0
280
        0
281
        0
282
        0
283
        1
284
        0
285
        0
286
        0
288
        0
340
17
341
0
342
0
343
0
344
0
371
       -2
372
       -2
  0
DIMSTYLE
105
381
100
AcDbSymbolTableRecord
100
AcDbDimStyleTableRecord
  2
6
 70
        0
  3

  4

 40
1.0
 41
3.5
 42
4.0
 43
0.38
 44
4.0
 45
0.0
 46
0.0
 47
0.0
 48
0.0
 71
        0
 72
        0
 73
        0
 74
        0
 75
        0
 76
        0
 77
        1
 78
        0
 79
        0
140
3.5
141
0.09
142
0.0
143
25.4
144
1.0
145
0.0
146
1.0
147
0.09
148
0.0
170
        0
171
        2
172
        1
173
        0
174
        0
175
        0
176
        7
177
        7
178
        7
179
        0
271
        2
272
        4
273
        2
274
        2
275
        0
276
        0
277
        2
278
       46
279
        0
280
        0
281
        0
282
        0
283
        1
284
        0
285
        0
286
        0
288
        0
340
17
341
0
342
0
343
0
344
0
371
       -2
372
       -2
  0
DIMSTYLE
105
391
100
AcDbSymbolTableRecord
100
AcDbDimStyleTableRecord
  2
7
 70
        0
  3

  4

 40
1.0
 41
3.5
 42
4.0
 43
0.38
 44
4.0
 45
0.0
 46
0.0
 47
0.0
 48
0.0
 71
        0
 72
        0
 73
        0
 74
        0
 75
        0
 76
        0
 77
        1
 78
        0
 79
        0
140
3.5
141
0.09
142
0.0
143
25.4
144
1.0
145
0.0
146
1.0
147
0.09
148
0.0
170
        0
171
        2
172
        1
173
        0
174
        0
175
        0
176
        7
177
        7
178
        7
179
        0
271
        2
272
        4
273
        2
274
        2
275
        0
276
        0
277
        2
278
       46
279
        0
280
        0
281
        0
282
        0
283
        1
284
        0
285
        0
286
        0
288
        0
340
17
341
0
342
0
343
0
344
0
371
       -2
372
       -2
  0
DIMSTYLE
105
3CA
100
AcDbSymbolTableRecord
100
AcDbDimStyleTableRecord
  2
8
 70
        0
  3

  4

 40
1.0
 41
3.5
 42
4.0
 43
0.38
 44
4.0
 45
0.0
 46
0.0
 47
0.0
 48
0.0
 71
        0
 72
        0
 73
        0
 74
        0
 75
        0
 76
        0
 77
        1
 78
        0
 79
        0
140
3.5
141
0.09
142
0.0
143
25.4
144
1.0
145
0.0
146
1.0
147
0.09
148
0.0
170
        0
171
        2
172
        1
173
        0
174
        0
175
        0
176
        7
177
        7
178
        7
179
        0
271
        2
272
        4
273
        2
274
        2
275
        0
276
        0
277
        2
278
       46
279
        0
280
        0
281
        0
282
        0
283
        1
284
        0
285
        0
286
        0
288
        0
340
17
341
0
342
0
343
0
344
0
371
       -2
372
       -2
  0
DIMSTYLE
105
3DD
100
AcDbSymbolTableRecord
100
AcDbDimStyleTableRecord
  2
9
 70
        0
  3

  4

 40
1.0
 41
3.5
 42
4.0
 43
0.38
 44
4.0
 45
0.0
 46
0.0
 47
0.0
 48
0.0
 71
        0
 72
        0
 73
        0
 74
        0
 75
        0
 76
        0
 77
        1
 78
        0
 79
        0
140
3.5
141
0.09
142
0.0
143
25.4
144
1.0
145
0.0
146
1.0
147
0.09
148
0.0
170
        0
171
        2
172
        1
173
        0
174
        0
175
        0
176
        7
177
        7
178
        7
179
        0
271
        2
272
        4
273
        2
274
        2
275
        0
276
        0
277
        2
278
       46
279
        0
280
        0
281
        0
282
        0
283
        1
284
        0
285
        0
286
        0
288
        0
340
17
341
0
342
0
343
0
344
0
371
       -2
372
       -2
  0
DIMSTYLE
105
3F3
100
AcDbSymbolTableRecord
100
AcDbDimStyleTableRecord
  2
10
 70
        0
  3

  4

 40
1.0
 41
3.5
 42
4.0
 43
0.38
 44
4.0
 45
0.0
 46
0.0
 47
0.0
 48
0.0
 71
        0
 72
        0
 73
        0
 74
        0
 75
        0
 76
        0
 77
        1
 78
        0
 79
        0
140
3.5
141
0.09
142
0.0
143
25.4
144
1.0
145
0.0
146
1.0
147
0.09
148
0.0
170
        0
171
        2
172
        1
173
        0
174
        0
175
        0
176
        7
177
        7
178
        7
179
        0
271
        2
272
        4
273
        2
274
        2
275
        0
276
        0
277
        2
278
       46
279
        0
280
        0
281
        0
282
        0
283
        1
284
        0
285
        0
286
        0
288
        0
340
17
341
0
342
0
343
0
344
0
371
       -2
372
       -2
  0
DIMSTYLE
105
49E
100
AcDbSymbolTableRecord
100
AcDbDimStyleTableRecord
  2
11
 70
        0
  3

  4

 40
1.0
 41
3.5
 42
4.0
 43
0.38
 44
4.0
 45
0.0
 46
0.0
 47
0.0
 48
0.0
 71
        0
 72
        0
 73
        0
 74
        0
 75
        0
 76
        0
 77
        1
 78
        0
 79
        0
140
3.5
141
0.09
142
0.0
143
25.4
144
1.0
145
0.0
146
1.0
147
0.09
148
0.0
170
        0
171
        2
172
        1
173
        0
174
        0
175
        0
176
        7
177
        7
178
        7
179
        0
271
        2
272
        4
273
        2
274
        2
275
        0
276
        0
277
        2
278
       46
279
        0
280
        0
281
        0
282
        0
283
        1
284
        0
285
        0
286
        0
288
        0
340
17
341
0
342
0
343
0
344
0
371
       -2
372
       -2
  0
DIMSTYLE
105
4AF
100
AcDbSymbolTableRecord
100
AcDbDimStyleTableRecord
  2
12
 70
        0
  3

  4

 40
1.0
 41
3.5
 42
4.0
 43
0.38
 44
4.0
 45
0.0
 46
0.0
 47
0.0
 48
0.0
 71
        0
 72
        0
 73
        0
 74
        0
 75
        0
 76
        0
 77
        1
 78
        0
 79
        0
140
3.5
141
0.09
142
0.0
143
25.4
144
1.0
145
0.0
146
1.0
147
0.09
148
0.0
170
        0
171
        2
172
        1
173
        0
174
        0
175
        0
176
        7
177
        7
178
        7
179
        0
271
        2
272
        4
273
        2
274
        2
275
        0
276
        0
277
        2
278
       46
279
        0
280
        0
281
        0
282
        0
283
        1
284
        0
285
        0
286
        0
288
        0
340
17
341
0
342
0
343
0
344
0
371
       -2
372
       -2
  0
DIMSTYLE
105
59E
100
AcDbSymbolTableRecord
100
AcDbDimStyleTableRecord
  2
13
 70
        0
  3

  4

 40
1.0
 41
3.5
 42
4.0
 43
0.38
 44
4.0
 45
0.0
 46
0.0
 47
0.0
 48
0.0
 71
        0
 72
        0
 73
        0
 74
        0
 75
        0
 76
        0
 77
        1
 78
        0
 79
        0
140
3.5
141
0.09
142
0.0
143
25.4
144
1.0
145
0.0
146
1.0
147
0.09
148
0.0
170
        0
171
        2
172
        1
173
        0
174
        0
175
        0
176
        7
177
        7
178
        7
179
        0
271
        2
272
        4
273
        2
274
        2
275
        0
276
        0
277
        2
278
       46
279
        0
280
        0
281
        0
282
        0
283
        1
284
        0
285
        0
286
        0
288
        0
340
17
341
0
342
0
343
0
344
0
371
       -2
372
       -2
  0
DIMSTYLE
105
5AE
100
AcDbSymbolTableRecord
100
AcDbDimStyleTableRecord
  2
14
 70
        0
  3

  4

 40
1.0
 41
3.5
 42
4.0
 43
0.38
 44
4.0
 45
0.0
 46
0.0
 47
0.0
 48
0.0
 71
        0
 72
        0
 73
        0
 74
        0
 75
        0
 76
        0
 77
        1
 78
        0
 79
        0
140
3.5
141
0.09
142
0.0
143
25.4
144
1.0
145
0.0
146
1.0
147
0.09
148
0.0
170
        0
171
        2
172
        1
173
        0
174
        0
175
        0
176
        7
177
        7
178
        7
179
        0
271
        2
272
        4
273
        2
274
        2
275
        0
276
        0
277
        2
278
       46
279
        0
280
        0
281
        0
282
        0
283
        1
284
        0
285
        0
286
        0
288
        0
340
17
341
0
342
0
343
0
344
0
371
       -2
372
       -2
  0
DIMSTYLE
105
5BE
100
AcDbSymbolTableRecord
100
AcDbDimStyleTableRecord
  2
15
 70
        0
  3

  4

 40
1.0
 41
3.5
 42
4.0
 43
0.38
 44
4.0
 45
0.0
 46
0.0
 47
0.0
 48
0.0
 71
        0
 72
        0
 73
        0
 74
        0
 75
        0
 76
        0
 77
        1
 78
        0
 79
        0
140
3.5
141
0.09
142
0.0
143
25.4
144
1.0
145
0.0
146
1.0
147
0.09
148
0.0
170
        0
171
        2
172
        1
173
        0
174
        0
175
        0
176
        7
177
        7
178
        7
179
        0
271
        2
272
        4
273
        2
274
        2
275
        0
276
        0
277
        2
278
       46
279
        0
280
        0
281
        0
282
        0
283
        1
284
        0
285
        0
286
        0
288
        0
340
17
341
0
342
0
343
0
344
0
371
       -2
372
       -2
  0
DIMSTYLE
105
5CE
100
AcDbSymbolTableRecord
100
AcDbDimStyleTableRecord
  2
16
 70
        0
  3

  4

 40
1.0
 41
3.5
 42
4.0
 43
0.38
 44
4.0
 45
0.0
 46
0.0
 47
0.0
 48
0.0
 71
        0
 72
        0
 73
        0
 74
        0
 75
        0
 76
        0
 77
        1
 78
        0
 79
        0
140
3.5
141
0.09
142
0.0
143
25.4
144
1.0
145
0.0
146
1.0
147
0.09
148
0.0
170
        0
171
        2
172
        1
173
        0
174
        0
175
        0
176
        7
177
        7
178
        7
179
        0
271
        2
272
        4
273
        2
274
        2
275
        0
276
        0
277
        2
278
       46
279
        0
280
        0
281
        0
282
        0
283
        1
284
        0
285
        0
286
        0
288
        0
340
17
341
0
342
0
343
0
344
0
371
       -2
372
       -2
  0
DIMSTYLE
105
5DE
100
AcDbSymbolTableRecord
100
AcDbDimStyleTableRecord
  2
17
 70
        0
  3

  4

 40
1.0
 41
3.5
 42
4.0
 43
0.38
 44
4.0
 45
0.0
 46
0.0
 47
0.0
 48
0.0
 71
        0
 72
        0
 73
        0
 74
        0
 75
        0
 76
        0
 77
        1
 78
        0
 79
        0
140
3.5
141
0.09
142
0.0
143
25.4
144
1.0
145
0.0
146
1.0
147
0.09
148
0.0
170
        0
171
        2
172
        1
173
        0
174
        0
175
        0
176
        7
177
        7
178
        7
179
        0
271
        2
272
        4
273
        2
274
        2
275
        0
276
        0
277
        2
278
       46
279
        0
280
        0
281
        0
282
        0
283
        1
284
        0
285
        0
286
        0
288
        0
340
17
341
0
342
0
343
0
344
0
371
       -2
372
       -2
  0
ENDTAB
  0
TABLE
  2
BLOCK_RECORD
  5
1
100
AcDbSymbolTable
 70
       23
  0
BLOCK_RECORD
  5
A
100
AcDbSymbolTableRecord
100
AcDbBlockTableRecord
  2
*MODEL_SPACE
340
20
  0
BLOCK_RECORD
  5
B
100
AcDbSymbolTableRecord
100
AcDbBlockTableRecord
  2
*PAPER_SPACE
340
21
  0
BLOCK_RECORD
  5
60
100
AcDbSymbolTableRecord
100
AcDbBlockTableRecord
  2
*H0
340
0
102
{BLKREFS
331
78
102
}
  0
BLOCK_RECORD
  5
79
100
AcDbSymbolTableRecord
100
AcDbBlockTableRecord
  2
*D1
340
0
  0
BLOCK_RECORD
  5
93
100
AcDbSymbolTableRecord
100
AcDbBlockTableRecord
  2
*D2
340
0
  0
BLOCK_RECORD
  5
115
100
AcDbSymbolTableRecord
100
AcDbBlockTableRecord
  2
*D3
340
0
  0
BLOCK_RECORD
  5
157
100
AcDbSymbolTableRecord
100
AcDbBlockTableRecord
  2
*H4
340
0
102
{BLKREFS
331
170
102
}
  0
BLOCK_RECORD
  5
18E
100
AcDbSymbolTableRecord
100
AcDbBlockTableRecord
  2
*H5
340
0
102
{BLKREFS
331
199
102
}
  0
BLOCK_RECORD
  5
363
100
AcDbSymbolTableRecord
100
AcDbBlockTableRecord
  2
*D6
340
0
  0
BLOCK_RECORD
  5
373
100
AcDbSymbolTableRecord
100
AcDbBlockTableRecord
  2
*D7
340
0
  0
BLOCK_RECORD
  5
383
100
AcDbSymbolTableRecord
100
AcDbBlockTableRecord
  2
*D8
340
0
  0
BLOCK_RECORD
  5
394
100
AcDbSymbolTableRecord
100
AcDbBlockTableRecord
  2
*H9
340
0
102
{BLKREFS
331
3B7
102
}
  0
BLOCK_RECORD
  5
3BA
100
AcDbSymbolTableRecord
100
AcDbBlockTableRecord
  2
*D10
340
0
  0
BLOCK_RECORD
  5
3CD
100
AcDbSymbolTableRecord
100
AcDbBlockTableRecord
  2
*D11
340
0
  0
BLOCK_RECORD
  5
3E3
100
AcDbSymbolTableRecord
100
AcDbBlockTableRecord
  2
*D12
340
0
  0
BLOCK_RECORD
  5
3F6
100
AcDbSymbolTableRecord
100
AcDbBlockTableRecord
  2
*H13
340
0
102
{BLKREFS
331
40F
102
}
  0
BLOCK_RECORD
  5
491
100
AcDbSymbolTableRecord
100
AcDbBlockTableRecord
  2
*D14
340
0
  0
BLOCK_RECORD
  5
4A2
100
AcDbSymbolTableRecord
100
AcDbBlockTableRecord
  2
*D15
340
0
  0
BLOCK_RECORD
  5
4C0
100
AcDbSymbolTableRecord
100
AcDbBlockTableRecord
  2
*H16
340
0
102
{BLKREFS
331
4D6
102
}
  0
BLOCK_RECORD
  5
4EE
100
AcDbSymbolTableRecord
100
AcDbBlockTableRecord
  2
*H17
340
0
102
{BLKREFS
331
4F8
102
}
  0
BLOCK_RECORD
  5
58F
100
AcDbSymbolTableRecord
100
AcDbBlockTableRecord
  2
*D18
340
0
  0
BLOCK_RECORD
  5
5A0
100
AcDbSymbolTableRecord
100
AcDbBlockTableRecord
  2
*D19
340
0
  0
BLOCK_RECORD
  5
5B0
100
AcDbSymbolTableRecord
100
AcDbBlockTableRecord
  2
*D20
340
0
  0
BLOCK_RECORD
  5
5C0
100
AcDbSymbolTableRecord
100
AcDbBlockTableRecord
  2
*D21
340
0
  0
BLOCK_RECORD
  5
5D0
100
AcDbSymbolTableRecord
100
AcDbBlockTableRecord
  2
*D22
340
0
  0
ENDTAB
  0
ENDSEC
  0
SECTION
  2
BLOCKS
  0
BLOCK
  5
D
100
AcDbEntity
  8
0
100
AcDbBlockBegin
  2
*MODEL_SPACE
 70
        0
 10
0.0
 20
0.0
 30
0.0
  3
*MODEL_SPACE
  1

  0
ENDBLK
  5
E
100
AcDbEntity
  8
0
100
AcDbBlockEnd
  0
BLOCK
  5
F
100
AcDbEntity
 67
        1
  8
0
100
AcDbBlockBegin
  2
*PAPER_SPACE
 70
        0
 10
0.0
 20
0.0
 30
0.0
  3
*PAPER_SPACE
  1

  0
ENDBLK
  5
10
100
AcDbEntity
 67
        1
  8
0
100
AcDbBlockEnd
  0
BLOCK
  5
61
100
AcDbEntity
  8
0
100
AcDbBlockBegin
  2
*H0
 70
        0
 10
0.0
 20
0.0
 30
0.0
  3
*H0
  1

  0
LINE
  5
62
100
AcDbEntity
  8
AS88QU
  6
SOLID
 62
        7
100
AcDbLine
 10
1068.487304688
 20
-146.730957031
 30
0.0
 11
1069.274780273
 21
-145.943450928
 31
0.0
  0
LINE
  5
63
100
AcDbEntity
  8
AS88QU
  6
SOLID
 62
        7
100
AcDbLine
 10
1069.513061523
 20
-145.422271729
 30
0.0
 11
1067.920410156
 21
-147.014892578
 31
0.0
  0
LINE
  5
64
100
AcDbEntity
  8
AS88QU
  6
SOLID
 62
        7
100
AcDbLine
 10
1067.565307617
 20
-147.087188721
 30
0.0
 11
1069.619995117
 21
-145.032501221
 31
0.0
  0
LINE
  5
65
100
AcDbEntity
  8
AS88QU
  6
SOLID
 62
        7
100
AcDbLine
 10
1069.66015625
 20
-144.709503174
 30
0.0
 11
1067.210083008
 21
-147.159515381
 31
0.0
  0
LINE
  5
66
100
AcDbEntity
  8
AS88QU
  6
SOLID
 62
        7
100
AcDbLine
 10
1067.194458008
 20
-146.892364502
 30
0.0
 11
1069.639160156
 21
-144.447570801
 31
0.0
  0
LINE
  5
67
100
AcDbEntity
  8
AS88QU
  6
SOLID
 62
        7
100
AcDbLine
 10
1069.618286133
 20
-144.185684204
 30
0.0
 11
1067.194458008
 21
-146.609512329
 31
0.0
  0
LINE
  5
68
100
AcDbEntity
  8
AS88QU
  6
SOLID
 62
        7
100
AcDbLine
 10
1067.194458008
 20
-146.326644897
 30
0.0
 11
1069.572631836
 21
-143.948455811
 31
0.0
  0
LINE
  5
69
100
AcDbEntity
  8
AS88QU
  6
SOLID
 62
        7
100
AcDbLine
 10
1069.487304688
 20
-143.750869751
 30
0.0
 11
1067.194458008
 21
-146.043792725
 31
0.0
  0
LINE
  5
6A
100
AcDbEntity
  8
AS88QU
  6
SOLID
 62
        7
100
AcDbLine
 10
1067.194458008
 20
-145.760925293
 30
0.0
 11
1069.402099609
 21
-143.553253174
 31
0.0
  0
LINE
  5
6B
100
AcDbEntity
  8
AS88QU
  6
SOLID
 62
        7
100
AcDbLine
 10
1069.316772461
 20
-143.355667114
 30
0.0
 11
1067.194458008
 21
-145.47807312
 31
0.0
  0
LINE
  5
6C
100
AcDbEntity
  8
AS88QU
  6
SOLID
 62
        7
100
AcDbLine
 10
1067.194458008
 20
-145.195205688
 30
0.0
 11
1069.204467773
 21
-143.185150146
 31
0.0
  0
LINE
  5
6D
100
AcDbEntity
  8
AS88QU
  6
SOLID
 62
        7
100
AcDbLine
 10
1069.07019043
 20
-143.036560059
 30
0.0
 11
1067.194458008
 21
-144.912353516
 31
0.0
  0
LINE
  5
6E
100
AcDbEntity
  8
AS88QU
  6
SOLID
 62
        7
100
AcDbLine
 10
1067.194458008
 20
-144.629486084
 30
0.0
 11
1068.935913086
 21
-142.887954712
 31
0.0
  0
LINE
  5
6F
100
AcDbEntity
  8
AS88QU
  6
SOLID
 62
        7
100
AcDbLine
 10
1068.801635742
 20
-142.7394104
 30
0.0
 11
1067.194458008
 21
-144.346633911
 31
0.0
  0
LINE
  5
70
100
AcDbEntity
  8
AS88QU
  6
SOLID
 62
        7
100
AcDbLine
 10
1067.194458008
 20
-144.063766479
 30
0.0
 11
1068.646728516
 21
-142.611404419
 31
0.0
  0
LINE
  5
71
100
AcDbEntity
  8
AS88QU
  6
SOLID
 62
        7
100
AcDbLine
 10
1068.465209961
 20
-142.510147095
 30
0.0
 11
1067.194458008
 21
-143.780914307
 31
0.0
  0
LINE
  5
72
100
AcDbEntity
  8
AS88QU
  6
SOLID
 62
        7
100
AcDbLine
 10
1067.194458008
 20
-143.498046875
 30
0.0
 11
1068.283569336
 21
-142.408950806
 31
0.0
  0
LINE
  5
73
100
AcDbEntity
  8
AS88QU
  6
SOLID
 62
        7
100
AcDbLine
 10
1068.101928711
 20
-142.307693481
 30
0.0
 11
1067.194458008
 21
-143.215194702
 31
0.0
  0
LINE
  5
74
100
AcDbEntity
  8
AS88QU
  6
SOLID
 62
        7
100
AcDbLine
 10
1067.194458008
 20
-142.932327271
 30
0.0
 11
1067.893310547
 21
-142.233459473
 31
0.0
  0
LINE
  5
75
100
AcDbEntity
  8
AS88QU
  6
SOLID
 62
        7
100
AcDbLine
 10
1067.654174805
 20
-142.189743042
 30
0.0
 11
1067.194458008
 21
-142.649475098
 31
0.0
  0
LINE
  5
76
100
AcDbEntity
  8
AS88QU
  6
SOLID
 62
        7
100
AcDbLine
 10
1067.194458008
 20
-142.366607666
 30
0.0
 11
1067.415039063
 21
-142.146026611
 31
0.0
  0
ENDBLK
  5
77
100
AcDbEntity
  8
0
100
AcDbBlockEnd
  0
BLOCK
  5
7A
100
AcDbEntity
  8
0
100
AcDbBlockBegin
  2
*D1
 70
        0
 10
0.0
 20
0.0
 30
0.0
  3
*D1
  1

  0
LINE
  5
7B
100
AcDbEntity
  8
AS88QU
  6
SOLID
 62
        7
100
AcDbLine
 10
1291.194458008
 20
-121.987915039
 30
0.0
 11
1365.229614258
 21
-121.987915039
 31
0.0
  0
LINE
  5
7C
100
AcDbEntity
  8
AS88QU
  6
SOLID
 62
        7
100
AcDbLine
 10
1291.194458008
 20
328.012145996
 30
0.0
 11
1365.229614258
 21
328.012145996
 31
0.0
  0
LINE
  5
7D
100
AcDbEntity
  8
AS88QU
  6
SOLID
 62
        7
100
AcDbLine
 10
1361.229614258
 20
-121.987915039
 30
0.0
 11
1361.229614258
 21
328.012145996
 31
0.0
  0
LINE
  5
7E
100
AcDbEntity
  8
AS88QU
  6
SOLID
 62
        7
100
AcDbLine
 10
1357.896606445
 20
-101.987915039
 30
0.0
 11
1361.229614258
 21
-121.987915039
 31
0.0
  0
LINE
  5
7F
100
AcDbEntity
  8
AS88QU
  6
SOLID
 62
        7
100
AcDbLine
 10
1361.229614258
 20
-121.987915039
 30
0.0
 11
1364.56262207
 21
-101.987915039
 31
0.0
  0
LINE
  5
80
100
AcDbEntity
  8
AS88QU
  6
SOLID
 62
        7
100
AcDbLine
 10
1364.56262207
 20
-101.987915039
 30
0.0
 11
1357.896606445
 21
-101.987915039
 31
0.0
  0
LINE
  5
81
100
AcDbEntity
  8
AS88QU
  6
SOLID
 62
        7
100
AcDbLine
 10
1361.229614258
 20
328.012145996
 30
0.0
 11
1361.229614258
 21
-121.987915039
 31
0.0
  0
LINE
  5
82
100
AcDbEntity
  8
AS88QU
  6
SOLID
 62
        7
100
AcDbLine
 10
1364.56262207
 20
308.012145996
 30
0.0
 11
1361.229614258
 21
328.012145996
 31
0.0
  0
LINE
  5
83
100
AcDbEntity
  8
AS88QU
  6
SOLID
 62
        7
100
AcDbLine
 10
1361.229614258
 20
328.012145996
 30
0.0
 11
1357.896606445
 21
308.012145996
 31
0.0
  0
LINE
  5
84
100
AcDbEntity
  8
AS88QU
  6
SOLID
 62
        7
100
AcDbLine
 10
1357.896606445
 20
308.012145996
 30
0.0
 11
1364.56262207
 21
308.012145996
 31
0.0
  0
TEXT
  5
85
100
AcDbEntity
  8
AS88QU
  6
SOLID
 62
        7
100
AcDbText
 10
1351.229614258
 20
35.352638245
 30
0.0
 40
20.0
  1
%%c
 50
90.000002504
 72
        5
 11
1351.229613675
 21
48.68494606
 31
0.0
100
AcDbText
  0
TEXT
  5
86
100
AcDbEntity
  8
AS88QU
  6
SOLID
 62
        7
100
AcDbText
 10
1351.229614258
 20
59.019298553
 30
0.0
 40
20.0
  1
400-600
 50
90.000002504
 72
        5
 11
1351.229609115
 21
176.671596527
 31
0.0
100
AcDbText
  0
ENDBLK
  5
87
100
AcDbEntity
  8
0
100
AcDbBlockEnd
  0
BLOCK
  5
94
100
AcDbEntity
  8
0
100
AcDbBlockBegin
  2
*D2
 70
        0
 10
0.0
 20
0.0
 30
0.0
  3
*D2
  1

  0
LINE
  5
95
100
AcDbEntity
  8
AS88QU
  6
SOLID
 62
        7
100
AcDbLine
 10
1067.194458008
 20
756.204162598
 30
0.0
 11
1067.194458008
 21
824.09765625
 31
0.0
  0
LINE
  5
96
100
AcDbEntity
  8
AS88QU
  6
SOLID
 62
        7
100
AcDbLine
 10
1287.194458008
 20
304.012145996
 30
0.0
 11
1287.194458008
 21
824.09765625
 31
0.0
  0
LINE
  5
97
100
AcDbEntity
  8
AS88QU
  6
SOLID
 62
        7
100
AcDbLine
 10
1067.194458008
 20
823.09765625
 30
0.0
 11
1287.194458008
 21
823.09765625
 31
0.0
  0
LINE
  5
98
100
AcDbEntity
  8
AS88QU
  6
SOLID
 62
        7
100
AcDbLine
 10
1087.194458008
 20
826.430664063
 30
0.0
 11
1067.194458008
 21
823.09765625
 31
0.0
  0
LINE
  5
99
100
AcDbEntity
  8
AS88QU
  6
SOLID
 62
        7
100
AcDbLine
 10
1067.194458008
 20
823.09765625
 30
0.0
 11
1087.194458008
 21
819.764648438
 31
0.0
  0
LINE
  5
9A
100
AcDbEntity
  8
AS88QU
  6
SOLID
 62
        7
100
AcDbLine
 10
1087.194458008
 20
819.764648438
 30
0.0
 11
1087.194458008
 21
826.430664063
 31
0.0
  0
LINE
  5
9B
100
AcDbEntity
  8
AS88QU
  6
SOLID
 62
        7
100
AcDbLine
 10
1287.194458008
 20
823.09765625
 30
0.0
 11
1067.194458008
 21
823.09765625
 31
0.0
  0
LINE
  5
9C
100
AcDbEntity
  8
AS88QU
  6
SOLID
 62
        7
100
AcDbLine
 10
1267.194458008
 20
819.764648438
 30
0.0
 11
1287.194458008
 21
823.09765625
 31
0.0
  0
LINE
  5
9D
100
AcDbEntity
  8
AS88QU
  6
SOLID
 62
        7
100
AcDbLine
 10
1287.194458008
 20
823.09765625
 30
0.0
 11
1267.194458008
 21
826.430664063
 31
0.0
  0
LINE
  5
9E
100
AcDbEntity
  8
AS88QU
  6
SOLID
 62
        7
100
AcDbLine
 10
1267.194458008
 20
826.430664063
 30
0.0
 11
1267.194458008
 21
819.764648438
 31
0.0
  0
TEXT
  5
9F
100
AcDbEntity
  8
AS88QU
  6
SOLID
 62
        7
100
AcDbText
 10
1153.697509766
 20
833.09765625
 30
0.0
 40
20.0
  1
220
 72
        5
 11
1200.691356659
 21
833.09765625
 31
0.0
100
AcDbText
  0
ENDBLK
  5
A0
100
AcDbEntity
  8
0
100
AcDbBlockEnd
  0
BLOCK
  5
116
100
AcDbEntity
  8
0
100
AcDbBlockBegin
  2
*D3
 70
        0
 10
0.0
 20
0.0
 30
0.0
  3
*D3
  1

  0
LINE
  5
117
100
AcDbEntity
  8
AS88QU
  6
SOLID
 62
        7
100
AcDbLine
 10
877.194335938
 20
590.012390137
 30
0.0
 11
877.194335938
 21
824.09765625
 31
0.0
  0
LINE
  5
118
100
AcDbEntity
  8
AS88QU
  6
SOLID
 62
        7
100
AcDbLine
 10
1067.194458008
 20
756.204162598
 30
0.0
 11
1067.194458008
 21
824.09765625
 31
0.0
  0
LINE
  5
119
100
AcDbEntity
  8
AS88QU
  6
SOLID
 62
        7
100
AcDbLine
 10
877.194335938
 20
823.09765625
 30
0.0
 11
1067.194458008
 21
823.09765625
 31
0.0
  0
LINE
  5
11A
100
AcDbEntity
  8
AS88QU
  6
SOLID
 62
        7
100
AcDbLine
 10
897.194335938
 20
826.430664063
 30
0.0
 11
877.194335938
 21
823.09765625
 31
0.0
  0
LINE
  5
11B
100
AcDbEntity
  8
AS88QU
  6
SOLID
 62
        7
100
AcDbLine
 10
877.194335938
 20
823.09765625
 30
0.0
 11
897.194335938
 21
819.764648438
 31
0.0
  0
LINE
  5
11C
100
AcDbEntity
  8
AS88QU
  6
SOLID
 62
        7
100
AcDbLine
 10
897.194335938
 20
819.764648438
 30
0.0
 11
897.194335938
 21
826.430664063
 31
0.0
  0
LINE
  5
11D
100
AcDbEntity
  8
AS88QU
  6
SOLID
 62
        7
100
AcDbLine
 10
1067.194458008
 20
823.09765625
 30
0.0
 11
877.194335938
 21
823.09765625
 31
0.0
  0
LINE
  5
11E
100
AcDbEntity
  8
AS88QU
  6
SOLID
 62
        7
100
AcDbLine
 10
1047.194458008
 20
819.764648438
 30
0.0
 11
1067.194458008
 21
823.09765625
 31
0.0
  0
LINE
  5
11F
100
AcDbEntity
  8
AS88QU
  6
SOLID
 62
        7
100
AcDbLine
 10
1067.194458008
 20
823.09765625
 30
0.0
 11
1047.194458008
 21
826.430664063
 31
0.0
  0
LINE
  5
120
100
AcDbEntity
  8
AS88QU
  6
SOLID
 62
        7
100
AcDbLine
 10
1047.194458008
 20
826.430664063
 30
0.0
 11
1047.194458008
 21
819.764648438
 31
0.0
  0
TEXT
  5
121
100
AcDbEntity
  8
AS88QU
  6
SOLID
 62
        7
100
AcDbText
 10
948.69744873
 20
833.09765625
 30
0.0
 40
20.0
  1
190
 72
        5
 11
995.691295624
 21
833.09765625
 31
0.0
100
AcDbText
  0
ENDBLK
  5
122
100
AcDbEntity
  8
0
100
AcDbBlockEnd
  0
BLOCK
  5
158
100
AcDbEntity
  8
0
100
AcDbBlockBegin
  2
*H4
 70
        0
 10
0.0
 20
0.0
 30
0.0
  3
*H4
  1

  0
LINE
  5
159
100
AcDbEntity
  8
AS88QU
  6
SOLID
 62
        7
100
AcDbLine
 10
989.573120117
 20
631.012451172
 30
0.0
 11
991.694458008
 21
633.133789063
 31
0.0
  0
LINE
  5
15A
100
AcDbEntity
  8
AS88QU
  6
SOLID
 62
        7
100
AcDbLine
 10
991.694458008
 20
637.376464844
 30
0.0
 11
985.330566406
 21
631.012451172
 31
0.0
  0
LINE
  5
15B
100
AcDbEntity
  8
AS88QU
  6
SOLID
 62
        7
100
AcDbLine
 10
981.087890625
 20
631.012451172
 30
0.0
 11
991.087890625
 21
641.012451172
 31
0.0
  0
LINE
  5
15C
100
AcDbEntity
  8
AS88QU
  6
SOLID
 62
        7
100
AcDbLine
 10
977.194458008
 20
648.332275391
 30
0.0
 11
973.194458008
 21
644.332275391
 31
0.0
  0
LINE
  5
15D
100
AcDbEntity
  8
AS88QU
  6
SOLID
 62
        7
100
AcDbLine
 10
973.194458008
 20
648.574951172
 30
0.0
 11
977.194458008
 21
652.574951172
 31
0.0
  0
LINE
  5
15E
100
AcDbEntity
  8
AS88QU
  6
SOLID
 62
        7
100
AcDbLine
 10
977.194458008
 20
656.817626953
 30
0.0
 11
973.194458008
 21
652.817626953
 31
0.0
  0
LINE
  5
15F
100
AcDbEntity
  8
AS88QU
  6
SOLID
 62
        7
100
AcDbLine
 10
973.194458008
 20
657.060180664
 30
0.0
 11
977.194458008
 21
661.060180664
 31
0.0
  0
LINE
  5
160
100
AcDbEntity
  8
AS88QU
  6
SOLID
 62
        7
100
AcDbLine
 10
977.194580078
 20
682.2734375
 30
0.0
 11
973.194458008
 21
678.2734375
 31
0.0
  0
LINE
  5
161
100
AcDbEntity
  8
AS88QU
  6
SOLID
 62
        7
100
AcDbLine
 10
973.194580078
 20
682.516113281
 30
0.0
 11
977.194580078
 21
686.516113281
 31
0.0
  0
LINE
  5
162
100
AcDbEntity
  8
AS88QU
  6
SOLID
 62
        7
100
AcDbLine
 10
977.194580078
 20
690.758666992
 30
0.0
 11
973.194580078
 21
686.758666992
 31
0.0
  0
LINE
  5
163
100
AcDbEntity
  8
AS88QU
  6
SOLID
 62
        7
100
AcDbLine
 10
971.205688477
 20
689.012573242
 30
0.0
 11
975.205688477
 21
693.012573242
 31
0.0
  0
LINE
  5
164
100
AcDbEntity
  8
AS88QU
  6
SOLID
 62
        7
100
AcDbLine
 10
953.992553711
 20
693.012573242
 30
0.0
 11
949.992553711
 21
689.012573242
 31
0.0
  0
LINE
  5
165
100
AcDbEntity
  8
AS88QU
  6
SOLID
 62
        7
100
AcDbLine
 10
945.74987793
 20
689.012573242
 30
0.0
 11
949.74987793
 21
693.012451172
 31
0.0
  0
LINE
  5
166
100
AcDbEntity
  8
AS88QU
  6
SOLID
 62
        7
100
AcDbLine
 10
945.507202148
 20
693.012451172
 30
0.0
 11
941.507202148
 21
689.012451172
 31
0.0
  0
LINE
  5
167
100
AcDbEntity
  8
AS88QU
  6
SOLID
 62
        7
100
AcDbLine
 10
937.264526367
 20
689.012451172
 30
0.0
 11
941.264526367
 21
693.012451172
 31
0.0
  0
LINE
  5
168
100
AcDbEntity
  8
AS88QU
  6
SOLID
 62
        7
100
AcDbLine
 10
920.051391602
 20
693.012573242
 30
0.0
 11
916.051269531
 21
689.012573242
 31
0.0
  0
LINE
  5
169
100
AcDbEntity
  8
AS88QU
  6
SOLID
 62
        7
100
AcDbLine
 10
911.80871582
 20
689.012573242
 30
0.0
 11
915.80871582
 21
693.012573242
 31
0.0
  0
LINE
  5
16A
100
AcDbEntity
  8
AS88QU
  6
SOLID
 62
        7
100
AcDbLine
 10
911.566040039
 20
693.012573242
 30
0.0
 11
907.566040039
 21
689.012573242
 31
0.0
  0
LINE
  5
16B
100
AcDbEntity
  8
AS88QU
  6
SOLID
 62
        7
100
AcDbLine
 10
897.194458008
 20
678.641113281
 30
0.0
 11
895.566040039
 21
677.012573242
 31
0.0
  0
LINE
  5
16C
100
AcDbEntity
  8
AS88QU
  6
SOLID
 62
        7
100
AcDbLine
 10
893.443725586
 20
679.13293457
 30
0.0
 11
897.194458008
 21
682.883666992
 31
0.0
  0
LINE
  5
16D
100
AcDbEntity
  8
AS88QU
  6
SOLID
 62
        7
100
AcDbLine
 10
903.323364258
 20
689.012573242
 30
0.0
 11
907.323364258
 21
693.012573242
 31
0.0
  0
LINE
  5
16E
100
AcDbEntity
  8
AS88QU
  6
SOLID
 62
        7
100
AcDbLine
 10
897.180541992
 20
704.082885742
 30
0.0
 11
892.928955078
 21
699.831298828
 31
0.0
  0
ENDBLK
  5
16F
100
AcDbEntity
  8
0
100
AcDbBlockEnd
  0
BLOCK
  5
18F
100
AcDbEntity
  8
0
100
AcDbBlockBegin
  2
*H5
 70
        0
 10
0.0
 20
0.0
 30
0.0
  3
*H5
  1

  0
LINE
  5
190
100
AcDbEntity
  8
AS88QU
  6
SOLID
 62
        7
100
AcDbLine
 10
1032.573242188
 20
631.012451172
 30
0.0
 11
1034.694458008
 21
633.133789063
 31
0.0
  0
LINE
  5
191
100
AcDbEntity
  8
AS88QU
  6
SOLID
 62
        7
100
AcDbLine
 10
1033.569091797
 20
636.250976563
 30
0.0
 11
1028.330566406
 21
631.012573242
 31
0.0
  0
LINE
  5
192
100
AcDbEntity
  8
AS88QU
  6
SOLID
 62
        7
100
AcDbLine
 10
1024.088012695
 20
631.012573242
 30
0.0
 11
1028.087890625
 21
635.012451172
 31
0.0
  0
LINE
  5
193
100
AcDbEntity
  8
AS88QU
  6
SOLID
 62
        7
100
AcDbLine
 10
1029.194702148
 20
636.119140625
 30
0.0
 11
1033.194458008
 21
640.119140625
 31
0.0
  0
LINE
  5
194
100
AcDbEntity
  8
AS88QU
  6
SOLID
 62
        7
100
AcDbLine
 10
1029.772338867
 20
657.91003418
 30
0.0
 11
1029.297485352
 21
657.435180664
 31
0.0
  0
LINE
  5
195
100
AcDbEntity
  8
AS88QU
  6
SOLID
 62
        7
100
AcDbLine
 10
1009.194458008
 20
637.332275391
 30
0.0
 11
1002.874755859
 21
631.012573242
 31
0.0
  0
LINE
  5
196
100
AcDbEntity
  8
AS88QU
  6
SOLID
 62
        7
100
AcDbLine
 10
1002.694458008
 20
635.074951172
 30
0.0
 11
1008.559570313
 21
640.939941406
 31
0.0
  0
LINE
  5
197
100
AcDbEntity
  8
AS88QU
  6
SOLID
 62
        7
100
AcDbLine
 10
1004.389404297
 20
641.012451172
 30
0.0
 11
1002.694458008
 21
639.317626953
 31
0.0
  0
ENDBLK
  5
198
100
AcDbEntity
  8
0
100
AcDbBlockEnd
  0
BLOCK
  5
364
100
AcDbEntity
  8
0
100
AcDbBlockBegin
  2
*D6
 70
        0
 10
0.0
 20
0.0
 30
0.0
  3
*D6
  1

  0
LINE
  5
365
100
AcDbEntity
  8
AS88QU
  6
SOLID
 62
        7
100
AcDbLine
 10
1207.194458008
 20
332.012207031
 30
0.0
 11
1207.194458008
 21
390.913330078
 31
0.0
  0
LINE
  5
366
100
AcDbEntity
  8
AS88QU
  6
SOLID
 62
        7
100
AcDbLine
 10
1287.194458008
 20
332.012207031
 30
0.0
 11
1287.194458008
 21
390.913330078
 31
0.0
  0
LINE
  5
367
100
AcDbEntity
  8
AS88QU
  6
SOLID
 62
        7
100
AcDbLine
 10
1207.194458008
 20
386.913330078
 30
0.0
 11
1287.194458008
 21
386.913330078
 31
0.0
  0
LINE
  5
368
100
AcDbEntity
  8
AS88QU
  6
SOLID
 62
        7
100
AcDbLine
 10
1227.194458008
 20
390.246337891
 30
0.0
 11
1207.194458008
 21
386.913330078
 31
0.0
  0
LINE
  5
369
100
AcDbEntity
  8
AS88QU
  6
SOLID
 62
        7
100
AcDbLine
 10
1207.194458008
 20
386.913330078
 30
0.0
 11
1227.194458008
 21
383.580322266
 31
0.0
  0
LINE
  5
36A
100
AcDbEntity
  8
AS88QU
  6
SOLID
 62
        7
100
AcDbLine
 10
1227.194458008
 20
383.580322266
 30
0.0
 11
1227.194458008
 21
390.246337891
 31
0.0
  0
LINE
  5
36B
100
AcDbEntity
  8
AS88QU
  6
SOLID
 62
        7
100
AcDbLine
 10
1287.194458008
 20
386.913330078
 30
0.0
 11
1207.194458008
 21
386.913330078
 31
0.0
  0
LINE
  5
36C
100
AcDbEntity
  8
AS88QU
  6
SOLID
 62
        7
100
AcDbLine
 10
1267.194458008
 20
383.580322266
 30
0.0
 11
1287.194458008
 21
386.913330078
 31
0.0
  0
LINE
  5
36D
100
AcDbEntity
  8
AS88QU
  6
SOLID
 62
        7
100
AcDbLine
 10
1287.194458008
 20
386.913330078
 30
0.0
 11
1267.194458008
 21
390.246337891
 31
0.0
  0
LINE
  5
36E
100
AcDbEntity
  8
AS88QU
  6
SOLID
 62
        7
100
AcDbLine
 10
1267.194458008
 20
390.246337891
 30
0.0
 11
1267.194458008
 21
383.580322266
 31
0.0
  0
TEXT
  5
36F
100
AcDbEntity
  8
AS88QU
  6
SOLID
 62
        7
100
AcDbText
 10
1232.529785156
 20
396.913330078
 30
0.0
 40
20.0
  1
80
 72
        5
 11
1261.859016418
 21
396.913330078
 31
0.0
100
AcDbText
  0
ENDBLK
  5
370
100
AcDbEntity
  8
0
100
AcDbBlockEnd
  0
BLOCK
  5
374
100
AcDbEntity
  8
0
100
AcDbBlockBegin
  2
*D7
 70
        0
 10
0.0
 20
0.0
 30
0.0
  3
*D7
  1

  0
LINE
  5
375
100
AcDbEntity
  8
AS88QU
  6
SOLID
 62
        7
100
AcDbLine
 10
1067.194335938
 20
-201.458251953
 30
0.0
 11
1067.194335938
 21
-243.966064453
 31
0.0
  0
LINE
  5
376
100
AcDbEntity
  8
AS88QU
  6
SOLID
 62
        7
100
AcDbLine
 10
1247.194458008
 20
-127.988037109
 30
0.0
 11
1247.194458008
 21
-243.966064453
 31
0.0
  0
LINE
  5
377
100
AcDbEntity
  8
AS88QU
  6
SOLID
 62
        7
100
AcDbLine
 10
1067.194335938
 20
-239.966064453
 30
0.0
 11
1247.194458008
 21
-239.966064453
 31
0.0
  0
LINE
  5
378
100
AcDbEntity
  8
AS88QU
  6
SOLID
 62
        7
100
AcDbLine
 10
1087.194335938
 20
-236.633071899
 30
0.0
 11
1067.194335938
 21
-239.966064453
 31
0.0
  0
LINE
  5
379
100
AcDbEntity
  8
AS88QU
  6
SOLID
 62
        7
100
AcDbLine
 10
1067.194335938
 20
-239.966064453
 30
0.0
 11
1087.194335938
 21
-243.299057007
 31
0.0
  0
LINE
  5
37A
100
AcDbEntity
  8
AS88QU
  6
SOLID
 62
        7
100
AcDbLine
 10
1087.194335938
 20
-243.299057007
 30
0.0
 11
1087.194335938
 21
-236.633071899
 31
0.0
  0
LINE
  5
37B
100
AcDbEntity
  8
AS88QU
  6
SOLID
 62
        7
100
AcDbLine
 10
1247.194458008
 20
-239.966064453
 30
0.0
 11
1067.194335938
 21
-239.966064453
 31
0.0
  0
LINE
  5
37C
100
AcDbEntity
  8
AS88QU
  6
SOLID
 62
        7
100
AcDbLine
 10
1227.194458008
 20
-243.299057007
 30
0.0
 11
1247.194458008
 21
-239.966064453
 31
0.0
  0
LINE
  5
37D
100
AcDbEntity
  8
AS88QU
  6
SOLID
 62
        7
100
AcDbLine
 10
1247.194458008
 20
-239.966064453
 30
0.0
 11
1227.194458008
 21
-236.633071899
 31
0.0
  0
LINE
  5
37E
100
AcDbEntity
  8
AS88QU
  6
SOLID
 62
        7
100
AcDbLine
 10
1227.194458008
 20
-236.633071899
 30
0.0
 11
1227.194458008
 21
-243.299057007
 31
0.0
  0
TEXT
  5
37F
100
AcDbEntity
  8
AS88QU
  6
SOLID
 62
        7
100
AcDbText
 10
1133.697509766
 20
-229.966064453
 30
0.0
 40
20.0
  1
180
 72
        5
 11
1180.691356659
 21
-229.966064453
 31
0.0
100
AcDbText
  0
ENDBLK
  5
380
100
AcDbEntity
  8
0
100
AcDbBlockEnd
  0
BLOCK
  5
384
100
AcDbEntity
  8
0
100
AcDbBlockBegin
  2
*D8
 70
        0
 10
0.0
 20
0.0
 30
0.0
  3
*D8
  1

  0
LINE
  5
385
100
AcDbEntity
  8
AS88QU
  6
SOLID
 62
        7
100
AcDbLine
 10
987.194396973
 20
-102.220458984
 30
0.0
 11
987.194396973
 21
-148.593704224
 31
0.0
  0
LINE
  5
386
100
AcDbEntity
  8
AS88QU
  6
SOLID
 62
        7
100
AcDbLine
 10
1147.194458008
 20
-101.086914063
 30
0.0
 11
1147.194458008
 21
-148.593704224
 31
0.0
  0
LINE
  5
387
100
AcDbEntity
  8
AS88QU
  6
SOLID
 62
        7
100
AcDbLine
 10
987.194396973
 20
-144.593704224
 30
0.0
 11
1147.194458008
 21
-144.593704224
 31
0.0
  0
LINE
  5
388
100
AcDbEntity
  8
AS88QU
  6
SOLID
 62
        7
100
AcDbLine
 10
1007.194396973
 20
-141.26071167
 30
0.0
 11
987.194396973
 21
-144.593704224
 31
0.0
  0
LINE
  5
389
100
AcDbEntity
  8
AS88QU
  6
SOLID
 62
        7
100
AcDbLine
 10
987.194396973
 20
-144.593704224
 30
0.0
 11
1007.194396973
 21
-147.926696777
 31
0.0
  0
LINE
  5
38A
100
AcDbEntity
  8
AS88QU
  6
SOLID
 62
        7
100
AcDbLine
 10
1007.194396973
 20
-147.926696777
 30
0.0
 11
1007.194396973
 21
-141.26071167
 31
0.0
  0
LINE
  5
38B
100
AcDbEntity
  8
AS88QU
  6
SOLID
 62
        7
100
AcDbLine
 10
1147.194458008
 20
-144.593704224
 30
0.0
 11
987.194396973
 21
-144.593704224
 31
0.0
  0
LINE
  5
38C
100
AcDbEntity
  8
AS88QU
  6
SOLID
 62
        7
100
AcDbLine
 10
1127.194458008
 20
-147.926696777
 30
0.0
 11
1147.194458008
 21
-144.593704224
 31
0.0
  0
LINE
  5
38D
100
AcDbEntity
  8
AS88QU
  6
SOLID
 62
        7
100
AcDbLine
 10
1147.194458008
 20
-144.593704224
 30
0.0
 11
1127.194458008
 21
-141.26071167
 31
0.0
  0
LINE
  5
38E
100
AcDbEntity
  8
AS88QU
  6
SOLID
 62
        7
100
AcDbLine
 10
1127.194458008
 20
-141.26071167
 30
0.0
 11
1127.194458008
 21
-147.926696777
 31
0.0
  0
TEXT
  5
38F
100
AcDbEntity
  8
AS88QU
  6
SOLID
 62
        7
100
AcDbText
 10
1043.697509766
 20
-134.593704224
 30
0.0
 40
20.0
  1
150
 72
        5
 11
1090.691356659
 21
-134.593704224
 31
0.0
100
AcDbText
  0
ENDBLK
  5
390
100
AcDbEntity
  8
0
100
AcDbBlockEnd
  0
BLOCK
  5
395
100
AcDbEntity
  8
0
100
AcDbBlockBegin
  2
*H9
 70
        0
 10
0.0
 20
0.0
 30
0.0
  3
*H9
  1

  0
LINE
  5
396
100
AcDbEntity
  8
AS88QU
  6
SOLID
 62
        7
100
AcDbLine
 10
1248.452514648
 20
384.115783691
 30
0.0
 11
1249.541015625
 21
385.204345703
 31
0.0
  0
LINE
  5
397
100
AcDbEntity
  8
AS88QU
  6
SOLID
 62
        7
100
AcDbLine
 10
1249.874633789
 20
385.820739746
 30
0.0
 11
1247.948730469
 21
383.894836426
 31
0.0
  0
LINE
  5
398
100
AcDbEntity
  8
AS88QU
  6
SOLID
 62
        7
100
AcDbLine
 10
1247.514160156
 20
383.742980957
 30
0.0
 11
1249.934814453
 21
386.163757324
 31
0.0
  0
LINE
  5
399
100
AcDbEntity
  8
AS88QU
  6
SOLID
 62
        7
100
AcDbLine
 10
1249.991455078
 20
386.503112793
 30
0.0
 11
1247.205810547
 21
383.717407227
 31
0.0
  0
LINE
  5
39A
100
AcDbEntity
  8
AS88QU
  6
SOLID
 62
        7
100
AcDbLine
 10
1246.897460938
 20
383.691894531
 30
0.0
 11
1250.048095703
 21
386.842529297
 31
0.0
  0
LINE
  5
39B
100
AcDbEntity
  8
AS88QU
  6
SOLID
 62
        7
100
AcDbLine
 10
1250.016845703
 20
387.093994141
 30
0.0
 11
1246.589111328
 21
383.666320801
 31
0.0
  0
LINE
  5
39C
100
AcDbEntity
  8
AS88QU
  6
SOLID
 62
        7
100
AcDbLine
 10
1246.357421875
 20
383.717346191
 30
0.0
 11
1249.97644043
 21
387.336364746
 31
0.0
  0
LINE
  5
39D
100
AcDbEntity
  8
AS88QU
  6
SOLID
 62
        7
100
AcDbLine
 10
1249.936035156
 20
387.578735352
 30
0.0
 11
1246.131835938
 21
383.774536133
 31
0.0
  0
LINE
  5
39E
100
AcDbEntity
  8
AS88QU
  6
SOLID
 62
        7
100
AcDbLine
 10
1245.90612793
 20
383.831665039
 30
0.0
 11
1249.895629883
 21
387.821044922
 31
0.0
  0
LINE
  5
39F
100
AcDbEntity
  8
AS88QU
  6
SOLID
 62
        7
100
AcDbLine
 10
1249.82043457
 20
388.028625488
 30
0.0
 11
1245.680541992
 21
383.888793945
 31
0.0
  0
LINE
  5
3A0
100
AcDbEntity
  8
AS88QU
  6
SOLID
 62
        7
100
AcDbLine
 10
1245.475097656
 20
383.966186523
 30
0.0
 11
1249.721069336
 21
388.212097168
 31
0.0
  0
LINE
  5
3A1
100
AcDbEntity
  8
AS88QU
  6
SOLID
 62
        7
100
AcDbLine
 10
1249.621704102
 20
388.395568848
 30
0.0
 11
1245.304077148
 21
384.077941895
 31
0.0
  0
LINE
  5
3A2
100
AcDbEntity
  8
AS88QU
  6
SOLID
 62
        7
100
AcDbLine
 10
1245.133056641
 20
384.189697266
 30
0.0
 11
1249.522460938
 21
388.579040527
 31
0.0
  0
LINE
  5
3A3
100
AcDbEntity
  8
AS88QU
  6
SOLID
 62
        7
100
AcDbLine
 10
1249.423095703
 20
388.762512207
 30
0.0
 11
1244.962036133
 21
384.301452637
 31
0.0
  0
LINE
  5
3A4
100
AcDbEntity
  8
AS88QU
  6
SOLID
 62
        7
100
AcDbLine
 10
1244.791015625
 20
384.413208008
 30
0.0
 11
1249.299560547
 21
388.921630859
 31
0.0
  0
LINE
  5
3A5
100
AcDbEntity
  8
AS88QU
  6
SOLID
 62
        7
100
AcDbLine
 10
1249.15234375
 20
389.057189941
 30
0.0
 11
1244.628540039
 21
384.533508301
 31
0.0
  0
LINE
  5
3A6
100
AcDbEntity
  8
AS88QU
  6
SOLID
 62
        7
100
AcDbLine
 10
1244.504760742
 20
384.692504883
 30
0.0
 11
1249.005126953
 21
389.192749023
 31
0.0
  0
LINE
  5
3A7
100
AcDbEntity
  8
AS88QU
  6
SOLID
 62
        7
100
AcDbLine
 10
1248.857788086
 20
389.328308105
 30
0.0
 11
1244.380981445
 21
384.851501465
 31
0.0
  0
LINE
  5
3A8
100
AcDbEntity
  8
AS88QU
  6
SOLID
 62
        7
100
AcDbLine
 10
1244.257202148
 20
385.010498047
 30
0.0
 11
1248.710571289
 21
389.463867188
 31
0.0
  0
LINE
  5
3A9
100
AcDbEntity
  8
AS88QU
  6
SOLID
 62
        7
100
AcDbLine
 10
1248.553100586
 20
389.589050293
 30
0.0
 11
1244.133422852
 21
385.169494629
 31
0.0
  0
LINE
  5
3AA
100
AcDbEntity
  8
AS88QU
  6
SOLID
 62
        7
100
AcDbLine
 10
1244.009643555
 20
385.328491211
 30
0.0
 11
1248.356567383
 21
389.675292969
 31
0.0
  0
LINE
  5
3AB
100
AcDbEntity
  8
AS88QU
  6
SOLID
 62
        7
100
AcDbLine
 10
1248.159912109
 20
389.761535645
 30
0.0
 11
1243.933227539
 21
385.534790039
 31
0.0
  0
LINE
  5
3AC
100
AcDbEntity
  8
AS88QU
  6
SOLID
 62
        7
100
AcDbLine
 10
1243.860961914
 20
385.745300293
 30
0.0
 11
1247.963378906
 21
389.847717285
 31
0.0
  0
LINE
  5
3AD
100
AcDbEntity
  8
AS88QU
  6
SOLID
 62
        7
100
AcDbLine
 10
1247.766845703
 20
389.933959961
 30
0.0
 11
1243.788696289
 21
385.955810547
 31
0.0
  0
LINE
  5
3AE
100
AcDbEntity
  8
AS88QU
  6
SOLID
 62
        7
100
AcDbLine
 10
1243.716430664
 20
386.166320801
 30
0.0
 11
1247.552978516
 21
390.002807617
 31
0.0
  0
LINE
  5
3AF
100
AcDbEntity
  8
AS88QU
  6
SOLID
 62
        7
100
AcDbLine
 10
1247.291748047
 20
390.024414063
 30
0.0
 11
1243.655395508
 21
386.388000488
 31
0.0
  0
LINE
  5
3B0
100
AcDbEntity
  8
AS88QU
  6
SOLID
 62
        7
100
AcDbLine
 10
1243.655395508
 20
386.670776367
 30
0.0
 11
1247.030639648
 21
390.046020508
 31
0.0
  0
LINE
  5
3B1
100
AcDbEntity
  8
AS88QU
  6
SOLID
 62
        7
100
AcDbLine
 10
1246.76953125
 20
390.067687988
 30
0.0
 11
1243.655395508
 21
386.953552246
 31
0.0
  0
LINE
  5
3B2
100
AcDbEntity
  8
AS88QU
  6
SOLID
 62
        7
100
AcDbLine
 10
1243.655395508
 20
387.236328125
 30
0.0
 11
1246.482177734
 21
390.063110352
 31
0.0
  0
LINE
  5
3B3
100
AcDbEntity
  8
AS88QU
  6
SOLID
 62
        7
100
AcDbLine
 10
1246.103515625
 20
389.967224121
 30
0.0
 11
1243.715209961
 21
387.578918457
 31
0.0
  0
LINE
  5
3B4
100
AcDbEntity
  8
AS88QU
  6
SOLID
 62
        7
100
AcDbLine
 10
1243.863037109
 20
388.009521484
 30
0.0
 11
1245.724853516
 21
389.871337891
 31
0.0
  0
LINE
  5
3B5
100
AcDbEntity
  8
AS88QU
  6
SOLID
 62
        7
100
AcDbLine
 10
1245.124145508
 20
389.553466797
 30
0.0
 11
1244.074829102
 21
388.504089355
 31
0.0
  0
ENDBLK
  5
3B6
100
AcDbEntity
  8
0
100
AcDbBlockEnd
  0
BLOCK
  5
3BB
100
AcDbEntity
  8
0
100
AcDbBlockBegin
  2
*D10
 70
        0
 10
0.0
 20
0.0
 30
0.0
  3
*D10
  1

  0
LINE
  5
3BC
100
AcDbEntity
  8
AS88QU
  6
SOLID
 62
        7
100
AcDbLine
 10
1163.194458008
 20
-57.183837891
 30
0.0
 11
1117.580078125
 21
-57.183837891
 31
0.0
  0
LINE
  5
3BD
100
AcDbEntity
  8
AS88QU
  6
SOLID
 62
        7
100
AcDbLine
 10
1151.194458008
 20
-22.183837891
 30
0.0
 11
1117.580078125
 21
-22.183837891
 31
0.0
  0
LINE
  5
3BE
100
AcDbEntity
  8
AS88QU
  6
SOLID
 62
        7
100
AcDbLine
 10
1121.580078125
 20
-57.183837891
 30
0.0
 11
1121.580078125
 21
-81.183837891
 31
0.0
  0
LINE
  5
3BF
100
AcDbEntity
  8
AS88QU
  6
SOLID
 62
        7
100
AcDbLine
 10
1121.580078125
 20
-81.183837891
 30
0.0
 11
1121.580078125
 21
1.816162109
 31
0.0
  0
LINE
  5
3C0
100
AcDbEntity
  8
AS88QU
  6
SOLID
 62
        7
100
AcDbLine
 10
1124.246459961
 20
-73.183837891
 30
0.0
 11
1121.580078125
 21
-57.183837891
 31
0.0
  0
LINE
  5
3C1
100
AcDbEntity
  8
AS88QU
  6
SOLID
 62
        7
100
AcDbLine
 10
1121.580078125
 20
-57.183837891
 30
0.0
 11
1118.913696289
 21
-73.183837891
 31
0.0
  0
LINE
  5
3C2
100
AcDbEntity
  8
AS88QU
  6
SOLID
 62
        7
100
AcDbLine
 10
1118.913696289
 20
-73.183837891
 30
0.0
 11
1124.246459961
 21
-73.183837891
 31
0.0
  0
LINE
  5
3C3
100
AcDbEntity
  8
AS88QU
  6
SOLID
 62
        7
100
AcDbLine
 10
1121.580078125
 20
-22.183837891
 30
0.0
 11
1121.580078125
 21
1.816162109
 31
0.0
  0
LINE
  5
3C4
100
AcDbEntity
  8
AS88QU
  6
SOLID
 62
        7
100
AcDbLine
 10
1121.580078125
 20
1.816162109
 30
0.0
 11
1121.580078125
 21
-81.183837891
 31
0.0
  0
LINE
  5
3C5
100
AcDbEntity
  8
AS88QU
  6
SOLID
 62
        7
100
AcDbLine
 10
1118.913696289
 20
-6.183837891
 30
0.0
 11
1121.580078125
 21
-22.183837891
 31
0.0
  0
LINE
  5
3C6
100
AcDbEntity
  8
AS88QU
  6
SOLID
 62
        7
100
AcDbLine
 10
1121.580078125
 20
-22.183837891
 30
0.0
 11
1124.246459961
 21
-6.183837891
 31
0.0
  0
LINE
  5
3C7
100
AcDbEntity
  8
AS88QU
  6
SOLID
 62
        7
100
AcDbLine
 10
1124.246459961
 20
-6.183837891
 30
0.0
 11
1118.913696289
 21
-6.183837891
 31
0.0
  0
TEXT
  5
3C8
100
AcDbEntity
  8
AS88QU
  6
SOLID
 62
        7
100
AcDbText
 10
1113.580078125
 20
-51.415531158
 30
0.0
 40
16.0
  1
35
 50
90.000002504
 72
        5
 11
1113.580077099
 21
-27.95214653
 31
0.0
100
AcDbText
  0
ENDBLK
  5
3C9
100
AcDbEntity
  8
0
100
AcDbBlockEnd
  0
BLOCK
  5
3CE
100
AcDbEntity
  8
0
100
AcDbBlockBegin
  2
*D11
 70
        0
 10
0.0
 20
0.0
 30
0.0
  3
*D11
  1

  0
LINE
  5
3CF
100
AcDbEntity
  8
AS88QU
  6
SOLID
 62
        7
100
AcDbLine
 10
979.194396973
 20
-26.183837891
 30
0.0
 11
979.194396973
 21
-53.045410156
 31
0.0
  0
LINE
  5
3D0
100
AcDbEntity
  8
AS88QU
  6
SOLID
 62
        7
100
AcDbLine
 10
995.194396973
 20
-26.183837891
 30
0.0
 11
995.194396973
 21
-53.045410156
 31
0.0
  0
LINE
  5
3D1
100
AcDbEntity
  8
AS88QU
  6
SOLID
 62
        7
100
AcDbLine
 10
979.194396973
 20
-49.045410156
 30
0.0
 11
955.194396973
 21
-49.045410156
 31
0.0
  0
LINE
  5
3D2
100
AcDbEntity
  8
AS88QU
  6
SOLID
 62
        7
100
AcDbLine
 10
955.194396973
 20
-49.045410156
 30
0.0
 11
1064.490234375
 21
-49.045410156
 31
0.0
  0
LINE
  5
3D3
100
AcDbEntity
  8
AS88QU
  6
SOLID
 62
        7
100
AcDbLine
 10
963.194396973
 20
-51.711811066
 30
0.0
 11
979.194396973
 21
-49.045410156
 31
0.0
  0
LINE
  5
3D4
100
AcDbEntity
  8
AS88QU
  6
SOLID
 62
        7
100
AcDbLine
 10
979.194396973
 20
-49.045410156
 30
0.0
 11
963.194396973
 21
-46.379009247
 31
0.0
  0
LINE
  5
3D5
100
AcDbEntity
  8
AS88QU
  6
SOLID
 62
        7
100
AcDbLine
 10
963.194396973
 20
-46.379009247
 30
0.0
 11
963.194396973
 21
-51.711811066
 31
0.0
  0
LINE
  5
3D6
100
AcDbEntity
  8
AS88QU
  6
SOLID
 62
        7
100
AcDbLine
 10
995.194396973
 20
-49.045410156
 30
0.0
 11
1064.490234375
 21
-49.045410156
 31
0.0
  0
LINE
  5
3D7
100
AcDbEntity
  8
AS88QU
  6
SOLID
 62
        7
100
AcDbLine
 10
1064.490234375
 20
-49.045410156
 30
0.0
 11
955.194396973
 21
-49.045410156
 31
0.0
  0
LINE
  5
3D8
100
AcDbEntity
  8
AS88QU
  6
SOLID
 62
        7
100
AcDbLine
 10
1011.194396973
 20
-46.379009247
 30
0.0
 11
995.194396973
 21
-49.045410156
 31
0.0
  0
LINE
  5
3D9
100
AcDbEntity
  8
AS88QU
  6
SOLID
 62
        7
100
AcDbLine
 10
995.194396973
 20
-49.045410156
 30
0.0
 11
1011.194396973
 21
-51.711811066
 31
0.0
  0
LINE
  5
3DA
100
AcDbEntity
  8
AS88QU
  6
SOLID
 62
        7
100
AcDbLine
 10
1011.194396973
 20
-51.711811066
 30
0.0
 11
1011.194396973
 21
-46.379009247
 31
0.0
  0
TEXT
  5
3DB
100
AcDbEntity
  8
AS88QU
  6
SOLID
 62
        7
100
AcDbText
 10
1018.494384766
 20
-41.045410156
 30
0.0
 40
16.0
  1
M16
 72
        5
 11
1057.423614502
 21
-41.045410156
 31
0.0
100
AcDbText
  0
ENDBLK
  5
3DC
100
AcDbEntity
  8
0
100
AcDbBlockEnd
  0
BLOCK
  5
3E4
100
AcDbEntity
  8
0
100
AcDbBlockBegin
  2
*D12
 70
        0
 10
0.0
 20
0.0
 30
0.0
  3
*D12
  1

  0
LINE
  5
3E5
100
AcDbEntity
  8
AS88QU
  6
SOLID
 62
        7
100
AcDbLine
 10
962.194396973
 20
-25.638916016
 30
0.0
 11
962.194396973
 21
-197.389892578
 31
0.0
  0
LINE
  5
3E6
100
AcDbEntity
  8
AS88QU
  6
SOLID
 62
        7
100
AcDbLine
 10
967.194396973
 20
-71.183837891
 30
0.0
 11
967.194396973
 21
-197.389892578
 31
0.0
  0
LINE
  5
3E7
100
AcDbEntity
  8
AS88QU
  6
SOLID
 62
        7
100
AcDbLine
 10
962.194396973
 20
-193.389892578
 30
0.0
 11
921.453063965
 21
-193.389892578
 31
0.0
  0
LINE
  5
3E8
100
AcDbEntity
  8
AS88QU
  6
SOLID
 62
        7
100
AcDbLine
 10
921.453063965
 20
-193.389892578
 30
0.0
 11
997.194396973
 21
-193.389892578
 31
0.0
  0
LINE
  5
3E9
100
AcDbEntity
  8
AS88QU
  6
SOLID
 62
        7
100
AcDbLine
 10
942.194396973
 20
-196.722885132
 30
0.0
 11
962.194396973
 21
-193.389892578
 31
0.0
  0
LINE
  5
3EA
100
AcDbEntity
  8
AS88QU
  6
SOLID
 62
        7
100
AcDbLine
 10
962.194396973
 20
-193.389892578
 30
0.0
 11
942.194396973
 21
-190.056900024
 31
0.0
  0
LINE
  5
3EB
100
AcDbEntity
  8
AS88QU
  6
SOLID
 62
        7
100
AcDbLine
 10
942.194396973
 20
-190.056900024
 30
0.0
 11
942.194396973
 21
-196.722885132
 31
0.0
  0
LINE
  5
3EC
100
AcDbEntity
  8
AS88QU
  6
SOLID
 62
        7
100
AcDbLine
 10
967.194396973
 20
-193.389892578
 30
0.0
 11
997.194396973
 21
-193.389892578
 31
0.0
  0
LINE
  5
3ED
100
AcDbEntity
  8
AS88QU
  6
SOLID
 62
        7
100
AcDbLine
 10
997.194396973
 20
-193.389892578
 30
0.0
 11
921.453063965
 21
-193.389892578
 31
0.0
  0
LINE
  5
3EE
100
AcDbEntity
  8
AS88QU
  6
SOLID
 62
        7
100
AcDbLine
 10
987.194396973
 20
-190.056900024
 30
0.0
 11
967.194396973
 21
-193.389892578
 31
0.0
  0
LINE
  5
3EF
100
AcDbEntity
  8
AS88QU
  6
SOLID
 62
        7
100
AcDbLine
 10
967.194396973
 20
-193.389892578
 30
0.0
 11
987.194396973
 21
-196.722885132
 31
0.0
  0
LINE
  5
3F0
100
AcDbEntity
  8
AS88QU
  6
SOLID
 62
        7
100
AcDbLine
 10
987.194396973
 20
-196.722885132
 30
0.0
 11
987.194396973
 21
-190.056900024
 31
0.0
  0
TEXT
  5
3F1
100
AcDbEntity
  8
AS88QU
  6
SOLID
 62
        7
100
AcDbText
 10
930.286376953
 20
-183.389892578
 30
0.0
 40
20.0
  1
5
 72
        5
 11
941.950992584
 21
-183.389892578
 31
0.0
100
AcDbText
  0
ENDBLK
  5
3F2
100
AcDbEntity
  8
0
100
AcDbBlockEnd
  0
BLOCK
  5
3F7
100
AcDbEntity
  8
0
100
AcDbBlockBegin
  2
*H13
 70
        0
 10
0.0
 20
0.0
 30
0.0
  3
*H13
  1

  0
LINE
  5
3F8
100
AcDbEntity
  8
AS88QU
  6
SOLID
 62
        7
100
AcDbLine
 10
1067.072631836
 20
-147.143157959
 30
0.0
 11
1067.194458008
 21
-147.021331787
 31
0.0
  0
LINE
  5
3F9
100
AcDbEntity
  8
AS88QU
  6
SOLID
 62
        7
100
AcDbLine
 10
1067.194458008
 20
-146.738464355
 30
0.0
 11
1066.828857422
 21
-147.103973389
 31
0.0
  0
LINE
  5
3FA
100
AcDbEntity
  8
AS88QU
  6
SOLID
 62
        7
100
AcDbLine
 10
1066.585205078
 20
-147.064834595
 30
0.0
 11
1067.194458008
 21
-146.455612183
 31
0.0
  0
LINE
  5
3FB
100
AcDbEntity
  8
AS88QU
  6
SOLID
 62
        7
100
AcDbLine
 10
1067.194458008
 20
-146.172698975
 30
0.0
 11
1066.341430664
 21
-147.025680542
 31
0.0
  0
LINE
  5
3FC
100
AcDbEntity
  8
AS88QU
  6
SOLID
 62
        7
100
AcDbLine
 10
1066.154296875
 20
-146.929962158
 30
0.0
 11
1067.194458008
 21
-145.889846802
 31
0.0
  0
LINE
  5
3FD
100
AcDbEntity
  8
AS88QU
  6
SOLID
 62
        7
100
AcDbLine
 10
1067.194458008
 20
-145.60697937
 30
0.0
 11
1065.973266602
 21
-146.828155518
 31
0.0
  0
LINE
  5
3FE
100
AcDbEntity
  8
AS88QU
  6
SOLID
 62
        7
100
AcDbLine
 10
1065.792236328
 20
-146.726333618
 30
0.0
 11
1067.194458008
 21
-145.324127197
 31
0.0
  0
LINE
  5
3FF
100
AcDbEntity
  8
AS88QU
  6
SOLID
 62
        7
100
AcDbLine
 10
1067.194458008
 20
-145.041259766
 30
0.0
 11
1065.611206055
 21
-146.624572754
 31
0.0
  0
LINE
  5
400
100
AcDbEntity
  8
AS88QU
  6
SOLID
 62
        7
100
AcDbLine
 10
1065.462158203
 20
-146.490692139
 30
0.0
 11
1067.194458008
 21
-144.758407593
 31
0.0
  0
LINE
  5
401
100
AcDbEntity
  8
AS88QU
  6
SOLID
 62
        7
100
AcDbLine
 10
1067.194458008
 20
-144.475540161
 30
0.0
 11
1065.33203125
 21
-146.337997437
 31
0.0
  0
LINE
  5
402
100
AcDbEntity
  8
AS88QU
  6
SOLID
 62
        7
100
AcDbLine
 10
1065.201904297
 20
-146.185256958
 30
0.0
 11
1067.194458008
 21
-144.192687988
 31
0.0
  0
LINE
  5
403
100
AcDbEntity
  8
AS88QU
  6
SOLID
 62
        7
100
AcDbLine
 10
1067.194458008
 20
-143.909820557
 30
0.0
 11
1065.071655273
 21
-146.032562256
 31
0.0
  0
LINE
  5
404
100
AcDbEntity
  8
AS88QU
  6
SOLID
 62
        7
100
AcDbLine
 10
1064.952636719
 20
-145.868774414
 30
0.0
 11
1067.194458008
 21
-143.626998901
 31
0.0
  0
LINE
  5
405
100
AcDbEntity
  8
AS88QU
  6
SOLID
 62
        7
100
AcDbLine
 10
1067.194458008
 20
-143.344146729
 30
0.0
 11
1064.876464844
 21
-145.66204834
 31
0.0
  0
LINE
  5
406
100
AcDbEntity
  8
AS88QU
  6
SOLID
 62
        7
100
AcDbLine
 10
1064.800415039
 20
-145.455322266
 30
0.0
 11
1067.194458008
 21
-143.061279297
 31
0.0
  0
LINE
  5
407
100
AcDbEntity
  8
AS88QU
  6
SOLID
 62
        7
100
AcDbLine
 10
1067.194458008
 20
-142.778427124
 30
0.0
 11
1064.724243164
 21
-145.248596191
 31
0.0
  0
LINE
  5
408
100
AcDbEntity
  8
AS88QU
  6
SOLID
 62
        7
100
AcDbLine
 10
1064.661499023
 20
-145.028533936
 30
0.0
 11
1067.194458008
 21
-142.495559692
 31
0.0
  0
LINE
  5
409
100
AcDbEntity
  8
AS88QU
  6
SOLID
 62
        7
100
AcDbLine
 10
1067.194458008
 20
-142.21270752
 30
0.0
 11
1064.661499023
 21
-144.745666504
 31
0.0
  0
LINE
  5
40A
100
AcDbEntity
  8
AS88QU
  6
SOLID
 62
        7
100
AcDbLine
 10
1064.661499023
 20
-144.462814331
 30
0.0
 11
1066.984985352
 21
-142.139343262
 31
0.0
  0
LINE
  5
40B
100
AcDbEntity
  8
AS88QU
  6
SOLID
 62
        7
100
AcDbLine
 10
1066.647949219
 20
-142.193450928
 30
0.0
 11
1064.667480469
 21
-144.173904419
 31
0.0
  0
LINE
  5
40C
100
AcDbEntity
  8
AS88QU
  6
SOLID
 62
        7
100
AcDbLine
 10
1064.832397461
 20
-143.72618103
 30
0.0
 11
1066.30456543
 21
-142.253921509
 31
0.0
  0
LINE
  5
40D
100
AcDbEntity
  8
AS88QU
  6
SOLID
 62
        7
100
AcDbLine
 10
1065.658569336
 20
-142.617141724
 30
0.0
 11
1065.255126953
 21
-143.020584106
 31
0.0
  0
ENDBLK
  5
40E
100
AcDbEntity
  8
0
100
AcDbBlockEnd
  0
BLOCK
  5
492
100
AcDbEntity
  8
0
100
AcDbBlockBegin
  2
*D14
 70
        0
 10
0.0
 20
0.0
 30
0.0
  3
*D14
  1

  0
LINE
  5
493
100
AcDbEntity
  8
AS88QU
  6
SOLID
 62
        7
100
AcDbLine
 10
1167.194458008
 20
-61.183849335
 30
0.0
 11
1167.194458008
 21
-197.389892578
 31
0.0
  0
LINE
  5
494
100
AcDbEntity
  8
AS88QU
  6
SOLID
 62
        7
100
AcDbLine
 10
1067.194458008
 20
-193.389892578
 30
0.0
 11
1167.194458008
 21
-193.389892578
 31
0.0
  0
LINE
  5
495
100
AcDbEntity
  8
AS88QU
  6
SOLID
 62
        7
100
AcDbLine
 10
1087.194458008
 20
-190.056900024
 30
0.0
 11
1067.194458008
 21
-193.389892578
 31
0.0
  0
LINE
  5
496
100
AcDbEntity
  8
AS88QU
  6
SOLID
 62
        7
100
AcDbLine
 10
1067.194458008
 20
-193.389892578
 30
0.0
 11
1087.194458008
 21
-196.722885132
 31
0.0
  0
LINE
  5
497
100
AcDbEntity
  8
AS88QU
  6
SOLID
 62
        7
100
AcDbLine
 10
1087.194458008
 20
-196.722885132
 30
0.0
 11
1087.194458008
 21
-190.056900024
 31
0.0
  0
LINE
  5
498
100
AcDbEntity
  8
AS88QU
  6
SOLID
 62
        7
100
AcDbLine
 10
1167.194458008
 20
-193.389892578
 30
0.0
 11
1067.194458008
 21
-193.389892578
 31
0.0
  0
LINE
  5
499
100
AcDbEntity
  8
AS88QU
  6
SOLID
 62
        7
100
AcDbLine
 10
1147.194458008
 20
-196.722885132
 30
0.0
 11
1167.194458008
 21
-193.389892578
 31
0.0
  0
LINE
  5
49A
100
AcDbEntity
  8
AS88QU
  6
SOLID
 62
        7
100
AcDbLine
 10
1167.194458008
 20
-193.389892578
 30
0.0
 11
1147.194458008
 21
-190.056900024
 31
0.0
  0
LINE
  5
49B
100
AcDbEntity
  8
AS88QU
  6
SOLID
 62
        7
100
AcDbLine
 10
1147.194458008
 20
-190.056900024
 30
0.0
 11
1147.194458008
 21
-196.722885132
 31
0.0
  0
TEXT
  5
49C
100
AcDbEntity
  8
AS88QU
  6
SOLID
 62
        7
100
AcDbText
 10
1102.529785156
 20
-183.389892578
 30
0.0
 40
20.0
  1
95
 72
        5
 11
1131.859016418
 21
-183.389892578
 31
0.0
100
AcDbText
  0
ENDBLK
  5
49D
100
AcDbEntity
  8
0
100
AcDbBlockEnd
  0
BLOCK
  5
4A3
100
AcDbEntity
  8
0
100
AcDbBlockBegin
  2
*D15
 70
        0
 10
0.0
 20
0.0
 30
0.0
  3
*D15
  1

  0
LINE
  5
4A4
100
AcDbEntity
  8
AS88QU
  6
SOLID
 62
        7
100
AcDbLine
 10
967.194458008
 20
-61.183849335
 30
0.0
 11
967.194458008
 21
-197.389892578
 31
0.0
  0
LINE
  5
4A5
100
AcDbEntity
  8
AS88QU
  6
SOLID
 62
        7
100
AcDbLine
 10
967.194458008
 20
-193.389892578
 30
0.0
 11
1067.194458008
 21
-193.389892578
 31
0.0
  0
LINE
  5
4A6
100
AcDbEntity
  8
AS88QU
  6
SOLID
 62
        7
100
AcDbLine
 10
987.194458008
 20
-190.056900024
 30
0.0
 11
967.194458008
 21
-193.389892578
 31
0.0
  0
LINE
  5
4A7
100
AcDbEntity
  8
AS88QU
  6
SOLID
 62
        7
100
AcDbLine
 10
967.194458008
 20
-193.389892578
 30
0.0
 11
987.194458008
 21
-196.722885132
 31
0.0
  0
LINE
  5
4A8
100
AcDbEntity
  8
AS88QU
  6
SOLID
 62
        7
100
AcDbLine
 10
987.194458008
 20
-196.722885132
 30
0.0
 11
987.194458008
 21
-190.056900024
 31
0.0
  0
LINE
  5
4A9
100
AcDbEntity
  8
AS88QU
  6
SOLID
 62
        7
100
AcDbLine
 10
1067.194458008
 20
-193.389892578
 30
0.0
 11
967.194458008
 21
-193.389892578
 31
0.0
  0
LINE
  5
4AA
100
AcDbEntity
  8
AS88QU
  6
SOLID
 62
        7
100
AcDbLine
 10
1047.194458008
 20
-196.722885132
 30
0.0
 11
1067.194458008
 21
-193.389892578
 31
0.0
  0
LINE
  5
4AB
100
AcDbEntity
  8
AS88QU
  6
SOLID
 62
        7
100
AcDbLine
 10
1067.194458008
 20
-193.389892578
 30
0.0
 11
1047.194458008
 21
-190.056900024
 31
0.0
  0
LINE
  5
4AC
100
AcDbEntity
  8
AS88QU
  6
SOLID
 62
        7
100
AcDbLine
 10
1047.194458008
 20
-190.056900024
 30
0.0
 11
1047.194458008
 21
-196.722885132
 31
0.0
  0
TEXT
  5
4AD
100
AcDbEntity
  8
AS88QU
  6
SOLID
 62
        7
100
AcDbText
 10
1002.529846191
 20
-183.389892578
 30
0.0
 40
20.0
  1
95
 72
        5
 11
1031.859077454
 21
-183.389892578
 31
0.0
100
AcDbText
  0
ENDBLK
  5
4AE
100
AcDbEntity
  8
0
100
AcDbBlockEnd
  0
BLOCK
  5
4C1
100
AcDbEntity
  8
0
100
AcDbBlockBegin
  2
*H16
 70
        0
 10
0.0
 20
0.0
 30
0.0
  3
*H16
  1

  0
LINE
  5
4C2
100
AcDbEntity
  8
AS88QU
  6
SOLID
 62
        7
100
AcDbLine
 10
1238.059448242
 20
677.039428711
 30
0.0
 11
1241.137573242
 21
680.117553711
 31
0.0
  0
LINE
  5
4C3
100
AcDbEntity
  8
AS88QU
  6
SOLID
 62
        7
100
AcDbLine
 10
1241.842895508
 20
685.065551758
 30
0.0
 11
1237.194458008
 21
680.417114258
 31
0.0
  0
LINE
  5
4C4
100
AcDbEntity
  8
AS88QU
  6
SOLID
 62
        7
100
AcDbLine
 10
1237.194458008
 20
684.659790039
 30
0.0
 11
1242.135375977
 21
689.600585938
 31
0.0
  0
LINE
  5
4C5
100
AcDbEntity
  8
AS88QU
  6
SOLID
 62
        7
100
AcDbLine
 10
1224.334106445
 20
693.012573242
 30
0.0
 11
1220.334106445
 21
689.012451172
 31
0.0
  0
LINE
  5
4C6
100
AcDbEntity
  8
AS88QU
  6
SOLID
 62
        7
100
AcDbLine
 10
1158.091308594
 20
631.012451172
 30
0.0
 11
1161.194580078
 21
634.115722656
 31
0.0
  0
LINE
  5
4C7
100
AcDbEntity
  8
AS88QU
  6
SOLID
 62
        7
100
AcDbLine
 10
1216.091430664
 20
689.012451172
 30
0.0
 11
1220.091430664
 21
693.012573242
 31
0.0
  0
LINE
  5
4C8
100
AcDbEntity
  8
AS88QU
  6
SOLID
 62
        7
100
AcDbLine
 10
1215.848876953
 20
693.012573242
 30
0.0
 11
1211.848754883
 21
689.012451172
 31
0.0
  0
LINE
  5
4C9
100
AcDbEntity
  8
AS88QU
  6
SOLID
 62
        7
100
AcDbLine
 10
1161.194580078
 20
638.358398438
 30
0.0
 11
1153.848754883
 21
631.012451172
 31
0.0
  0
LINE
  5
4CA
100
AcDbEntity
  8
AS88QU
  6
SOLID
 62
        7
100
AcDbLine
 10
1149.606079102
 20
631.012451172
 30
0.0
 11
1153.606079102
 21
635.012451172
 31
0.0
  0
LINE
  5
4CB
100
AcDbEntity
  8
AS88QU
  6
SOLID
 62
        7
100
AcDbLine
 10
1157.194580078
 20
638.601074219
 30
0.0
 11
1161.194580078
 21
642.601074219
 31
0.0
  0
LINE
  5
4CC
100
AcDbEntity
  8
AS88QU
  6
SOLID
 62
        7
100
AcDbLine
 10
1207.606079102
 20
689.012451172
 30
0.0
 11
1211.606201172
 21
693.012573242
 31
0.0
  0
LINE
  5
4CD
100
AcDbEntity
  8
AS88QU
  6
SOLID
 62
        7
100
AcDbLine
 10
1190.392944336
 20
693.012451172
 30
0.0
 11
1186.392944336
 21
689.012451172
 31
0.0
  0
LINE
  5
4CE
100
AcDbEntity
  8
AS88QU
  6
SOLID
 62
        7
100
AcDbLine
 10
1161.194702148
 20
663.814208984
 30
0.0
 11
1157.194580078
 21
659.814208984
 31
0.0
  0
LINE
  5
4CF
100
AcDbEntity
  8
AS88QU
  6
SOLID
 62
        7
100
AcDbLine
 10
1157.194580078
 20
664.056884766
 30
0.0
 11
1161.194702148
 21
668.056884766
 31
0.0
  0
LINE
  5
4D0
100
AcDbEntity
  8
AS88QU
  6
SOLID
 62
        7
100
AcDbLine
 10
1182.150268555
 20
689.012451172
 30
0.0
 11
1186.150268555
 21
693.012451172
 31
0.0
  0
LINE
  5
4D1
100
AcDbEntity
  8
AS88QU
  6
SOLID
 62
        7
100
AcDbLine
 10
1181.907592773
 20
693.012451172
 30
0.0
 11
1177.907592773
 21
689.012451172
 31
0.0
  0
LINE
  5
4D2
100
AcDbEntity
  8
AS88QU
  6
SOLID
 62
        7
100
AcDbLine
 10
1161.194458008
 20
672.299438477
 30
0.0
 11
1157.194702148
 21
668.299560547
 31
0.0
  0
LINE
  5
4D3
100
AcDbEntity
  8
AS88QU
  6
SOLID
 62
        7
100
AcDbLine
 10
1157.194702148
 20
672.542114258
 30
0.0
 11
1161.194458008
 21
676.542114258
 31
0.0
  0
LINE
  5
4D4
100
AcDbEntity
  8
AS88QU
  6
SOLID
 62
        7
100
AcDbLine
 10
1173.664916992
 20
689.012451172
 30
0.0
 11
1177.664916992
 21
693.012451172
 31
0.0
  0
ENDBLK
  5
4D5
100
AcDbEntity
  8
0
100
AcDbBlockEnd
  0
BLOCK
  5
4EF
100
AcDbEntity
  8
0
100
AcDbBlockBegin
  2
*H17
 70
        0
 10
0.0
 20
0.0
 30
0.0
  3
*H17
  1

  0
LINE
  5
4F0
100
AcDbEntity
  8
AS88QU
  6
SOLID
 62
        7
100
AcDbLine
 10
1129.573242188
 20
631.012573242
 30
0.0
 11
1131.694580078
 21
633.133911133
 31
0.0
  0
LINE
  5
4F1
100
AcDbEntity
  8
AS88QU
  6
SOLID
 62
        7
100
AcDbLine
 10
1131.694580078
 20
637.376464844
 30
0.0
 11
1125.330688477
 21
631.012573242
 31
0.0
  0
LINE
  5
4F2
100
AcDbEntity
  8
AS88QU
  6
SOLID
 62
        7
100
AcDbLine
 10
1121.088012695
 20
631.012573242
 30
0.0
 11
1131.088012695
 21
641.012573242
 31
0.0
  0
LINE
  5
4F3
100
AcDbEntity
  8
AS88QU
  6
SOLID
 62
        7
100
AcDbLine
 10
1105.194580078
 20
636.332397461
 30
0.0
 11
1099.874633789
 21
631.012451172
 31
0.0
  0
LINE
  5
4F4
100
AcDbEntity
  8
AS88QU
  6
SOLID
 62
        7
100
AcDbLine
 10
1099.694580078
 20
635.074951172
 30
0.0
 11
1105.194580078
 21
640.574951172
 31
0.0
  0
LINE
  5
4F5
100
AcDbEntity
  8
AS88QU
  6
SOLID
 62
        7
100
AcDbLine
 10
1105.194580078
 20
644.817626953
 30
0.0
 11
1101.194580078
 21
640.817626953
 31
0.0
  0
LINE
  5
4F6
100
AcDbEntity
  8
AS88QU
  6
SOLID
 62
        7
100
AcDbLine
 10
1101.194580078
 20
645.060302734
 30
0.0
 11
1105.194580078
 21
649.060302734
 31
0.0
  0
ENDBLK
  5
4F7
100
AcDbEntity
  8
0
100
AcDbBlockEnd
  0
BLOCK
  5
590
100
AcDbEntity
  8
0
100
AcDbBlockBegin
  2
*D18
 70
        0
 10
0.0
 20
0.0
 30
0.0
  3
*D18
  1

  0
LINE
  5
591
100
AcDbEntity
  8
AS88QU
  6
SOLID
 62
        7
100
AcDbLine
 10
831.926330566
 20
-27.487836838
 30
0.0
 11
760.825439453
 21
-27.487838745
 31
0.0
  0
LINE
  5
592
100
AcDbEntity
  8
AS88QU
  6
SOLID
 62
        7
100
AcDbLine
 10
831.926391602
 20
233.512161255
 30
0.0
 11
760.825439453
 21
233.512161255
 31
0.0
  0
LINE
  5
593
100
AcDbEntity
  8
AS88QU
  6
SOLID
 62
        7
100
AcDbLine
 10
764.825439453
 20
-27.487838745
 30
0.0
 11
764.825439453
 21
233.512161255
 31
0.0
  0
LINE
  5
594
100
AcDbEntity
  8
AS88QU
  6
SOLID
 62
        7
100
AcDbLine
 10
761.492431641
 20
-7.487838745
 30
0.0
 11
764.825439453
 21
-27.487838745
 31
0.0
  0
LINE
  5
595
100
AcDbEntity
  8
AS88QU
  6
SOLID
 62
        7
100
AcDbLine
 10
764.825439453
 20
-27.487838745
 30
0.0
 11
768.158447266
 21
-7.487838745
 31
0.0
  0
LINE
  5
596
100
AcDbEntity
  8
AS88QU
  6
SOLID
 62
        7
100
AcDbLine
 10
768.158447266
 20
-7.487838745
 30
0.0
 11
761.492431641
 21
-7.487838745
 31
0.0
  0
LINE
  5
597
100
AcDbEntity
  8
AS88QU
  6
SOLID
 62
        7
100
AcDbLine
 10
764.825439453
 20
233.512161255
 30
0.0
 11
764.825439453
 21
-27.487838745
 31
0.0
  0
LINE
  5
598
100
AcDbEntity
  8
AS88QU
  6
SOLID
 62
        7
100
AcDbLine
 10
768.158447266
 20
213.512161255
 30
0.0
 11
764.825439453
 21
233.512161255
 31
0.0
  0
LINE
  5
599
100
AcDbEntity
  8
AS88QU
  6
SOLID
 62
        7
100
AcDbLine
 10
764.825439453
 20
233.512161255
 30
0.0
 11
761.492431641
 21
213.512161255
 31
0.0
  0
LINE
  5
59A
100
AcDbEntity
  8
AS88QU
  6
SOLID
 62
        7
100
AcDbLine
 10
761.492431641
 20
213.512161255
 30
0.0
 11
768.158447266
 21
213.512161255
 31
0.0
  0
TEXT
  5
59B
100
AcDbEntity
  8
AS88QU
  6
SOLID
 62
        7
100
AcDbText
 10
754.825439453
 20
73.181907654
 30
0.0
 40
20.0
  1
%%c
 50
90.000002504
 72
        5
 11
754.82543887
 21
86.514215469
 31
0.0
100
AcDbText
  0
TEXT
  5
59C
100
AcDbEntity
  8
AS88QU
  6
SOLID
 62
        7
100
AcDbText
 10
754.825439453
 20
96.848564148
 30
0.0
 40
20.0
  1
261
 50
90.000002504
 72
        5
 11
754.825437618
 21
138.842411041
 31
0.0
100
AcDbText
  0
ENDBLK
  5
59D
100
AcDbEntity
  8
0
100
AcDbBlockEnd
  0
BLOCK
  5
5A1
100
AcDbEntity
  8
0
100
AcDbBlockBegin
  2
*D19
 70
        0
 10
0.0
 20
0.0
 30
0.0
  3
*D19
  1

  0
LINE
  5
5A2
100
AcDbEntity
  8
AS88QU
  6
SOLID
 62
        7
100
AcDbLine
 10
817.394470215
 20
95.677505493
 30
0.0
 11
817.394470215
 21
-243.966064453
 31
0.0
  0
LINE
  5
5A3
100
AcDbEntity
  8
AS88QU
  6
SOLID
 62
        7
100
AcDbLine
 10
1067.194458008
 20
-201.457962036
 30
0.0
 11
1067.194458008
 21
-243.966064453
 31
0.0
  0
LINE
  5
5A4
100
AcDbEntity
  8
AS88QU
  6
SOLID
 62
        7
100
AcDbLine
 10
817.394470215
 20
-239.966064453
 30
0.0
 11
1067.194458008
 21
-239.966064453
 31
0.0
  0
LINE
  5
5A5
100
AcDbEntity
  8
AS88QU
  6
SOLID
 62
        7
100
AcDbLine
 10
837.394470215
 20
-236.633071899
 30
0.0
 11
817.394470215
 21
-239.966064453
 31
0.0
  0
LINE
  5
5A6
100
AcDbEntity
  8
AS88QU
  6
SOLID
 62
        7
100
AcDbLine
 10
817.394470215
 20
-239.966064453
 30
0.0
 11
837.394470215
 21
-243.299057007
 31
0.0
  0
LINE
  5
5A7
100
AcDbEntity
  8
AS88QU
  6
SOLID
 62
        7
100
AcDbLine
 10
837.394470215
 20
-243.299057007
 30
0.0
 11
837.394470215
 21
-236.633071899
 31
0.0
  0
LINE
  5
5A8
100
AcDbEntity
  8
AS88QU
  6
SOLID
 62
        7
100
AcDbLine
 10
1067.194458008
 20
-239.966064453
 30
0.0
 11
817.394470215
 21
-239.966064453
 31
0.0
  0
LINE
  5
5A9
100
AcDbEntity
  8
AS88QU
  6
SOLID
 62
        7
100
AcDbLine
 10
1047.194458008
 20
-243.299057007
 30
0.0
 11
1067.194458008
 21
-239.966064453
 31
0.0
  0
LINE
  5
5AA
100
AcDbEntity
  8
AS88QU
  6
SOLID
 62
        7
100
AcDbLine
 10
1067.194458008
 20
-239.966064453
 30
0.0
 11
1047.194458008
 21
-236.633071899
 31
0.0
  0
LINE
  5
5AB
100
AcDbEntity
  8
AS88QU
  6
SOLID
 62
        7
100
AcDbLine
 10
1047.194458008
 20
-236.633071899
 30
0.0
 11
1047.194458008
 21
-243.299057007
 31
0.0
  0
TEXT
  5
5AC
100
AcDbEntity
  8
AS88QU
  6
SOLID
 62
        7
100
AcDbText
 10
918.797485352
 20
-229.966064453
 30
0.0
 40
20.0
  1
250
 72
        5
 11
965.791332245
 21
-229.966064453
 31
0.0
100
AcDbText
  0
ENDBLK
  5
5AD
100
AcDbEntity
  8
0
100
AcDbBlockEnd
  0
BLOCK
  5
5B1
100
AcDbEntity
  8
0
100
AcDbBlockBegin
  2
*D20
 70
        0
 10
0.0
 20
0.0
 30
0.0
  3
*D20
  1

  0
LINE
  5
5B2
100
AcDbEntity
  8
AS88QU
  6
SOLID
 62
        7
100
AcDbLine
 10
817.394470215
 20
95.677505493
 30
0.0
 11
817.394470215
 21
-291.382537842
 31
0.0
  0
LINE
  5
5B3
100
AcDbEntity
  8
AS88QU
  6
SOLID
 62
        7
100
AcDbLine
 10
1247.194458008
 20
-127.935173035
 30
0.0
 11
1247.194458008
 21
-291.382537842
 31
0.0
  0
LINE
  5
5B4
100
AcDbEntity
  8
AS88QU
  6
SOLID
 62
        7
100
AcDbLine
 10
817.394470215
 20
-287.382537842
 30
0.0
 11
1247.194458008
 21
-287.382537842
 31
0.0
  0
LINE
  5
5B5
100
AcDbEntity
  8
AS88QU
  6
SOLID
 62
        7
100
AcDbLine
 10
837.394470215
 20
-284.049530029
 30
0.0
 11
817.394470215
 21
-287.382537842
 31
0.0
  0
LINE
  5
5B6
100
AcDbEntity
  8
AS88QU
  6
SOLID
 62
        7
100
AcDbLine
 10
817.394470215
 20
-287.382537842
 30
0.0
 11
837.394470215
 21
-290.715545654
 31
0.0
  0
LINE
  5
5B7
100
AcDbEntity
  8
AS88QU
  6
SOLID
 62
        7
100
AcDbLine
 10
837.394470215
 20
-290.715545654
 30
0.0
 11
837.394470215
 21
-284.049530029
 31
0.0
  0
LINE
  5
5B8
100
AcDbEntity
  8
AS88QU
  6
SOLID
 62
        7
100
AcDbLine
 10
1247.194458008
 20
-287.382537842
 30
0.0
 11
817.394470215
 21
-287.382537842
 31
0.0
  0
LINE
  5
5B9
100
AcDbEntity
  8
AS88QU
  6
SOLID
 62
        7
100
AcDbLine
 10
1227.194458008
 20
-290.715545654
 30
0.0
 11
1247.194458008
 21
-287.382537842
 31
0.0
  0
LINE
  5
5BA
100
AcDbEntity
  8
AS88QU
  6
SOLID
 62
        7
100
AcDbLine
 10
1247.194458008
 20
-287.382537842
 30
0.0
 11
1227.194458008
 21
-284.049530029
 31
0.0
  0
LINE
  5
5BB
100
AcDbEntity
  8
AS88QU
  6
SOLID
 62
        7
100
AcDbLine
 10
1227.194458008
 20
-284.049530029
 30
0.0
 11
1227.194458008
 21
-290.715545654
 31
0.0
  0
TEXT
  5
5BC
100
AcDbEntity
  8
AS88QU
  6
SOLID
 62
        7
100
AcDbText
 10
1008.797485352
 20
-277.382537842
 30
0.0
 40
20.0
  1
430
 72
        5
 11
1055.791332245
 21
-277.382537842
 31
0.0
100
AcDbText
  0
ENDBLK
  5
5BD
100
AcDbEntity
  8
0
100
AcDbBlockEnd
  0
BLOCK
  5
5C1
100
AcDbEntity
  8
0
100
AcDbBlockBegin
  2
*D21
 70
        0
 10
0.0
 20
0.0
 30
0.0
  3
*D21
  1

  0
LINE
  5
5C2
100
AcDbEntity
  8
AS88QU
  6
SOLID
 62
        7
100
AcDbLine
 10
1003.194458008
 20
-57.183849335
 30
0.0
 11
712.156738281
 21
-57.183837891
 31
0.0
  0
LINE
  5
5C3
100
AcDbEntity
  8
AS88QU
  6
SOLID
 62
        7
100
AcDbLine
 10
890.644470215
 20
705.012634277
 30
0.0
 11
712.156738281
 21
705.012634277
 31
0.0
  0
LINE
  5
5C4
100
AcDbEntity
  8
AS88QU
  6
SOLID
 62
        7
100
AcDbLine
 10
716.156738281
 20
-57.183837891
 30
0.0
 11
716.156738281
 21
705.012634277
 31
0.0
  0
LINE
  5
5C5
100
AcDbEntity
  8
AS88QU
  6
SOLID
 62
        7
100
AcDbLine
 10
712.823730469
 20
-37.183837891
 30
0.0
 11
716.156738281
 21
-57.183837891
 31
0.0
  0
LINE
  5
5C6
100
AcDbEntity
  8
AS88QU
  6
SOLID
 62
        7
100
AcDbLine
 10
716.156738281
 20
-57.183837891
 30
0.0
 11
719.489746094
 21
-37.183837891
 31
0.0
  0
LINE
  5
5C7
100
AcDbEntity
  8
AS88QU
  6
SOLID
 62
        7
100
AcDbLine
 10
719.489746094
 20
-37.183837891
 30
0.0
 11
712.823730469
 21
-37.183837891
 31
0.0
  0
LINE
  5
5C8
100
AcDbEntity
  8
AS88QU
  6
SOLID
 62
        7
100
AcDbLine
 10
716.156738281
 20
705.012634277
 30
0.0
 11
716.156738281
 21
-57.183837891
 31
0.0
  0
LINE
  5
5C9
100
AcDbEntity
  8
AS88QU
  6
SOLID
 62
        7
100
AcDbLine
 10
719.489746094
 20
685.012634277
 30
0.0
 11
716.156738281
 21
705.012634277
 31
0.0
  0
LINE
  5
5CA
100
AcDbEntity
  8
AS88QU
  6
SOLID
 62
        7
100
AcDbLine
 10
716.156738281
 20
705.012634277
 30
0.0
 11
712.823730469
 21
685.012634277
 31
0.0
  0
LINE
  5
5CB
100
AcDbEntity
  8
AS88QU
  6
SOLID
 62
        7
100
AcDbLine
 10
712.823730469
 20
685.012634277
 30
0.0
 11
719.489746094
 21
685.012634277
 31
0.0
  0
TEXT
  5
5CC
100
AcDbEntity
  8
AS88QU
  6
SOLID
 62
        7
100
AcDbText
 10
706.156738281
 20
300.417480469
 30
0.0
 40
20.0
  1
760
 50
90.000002504
 72
        5
 11
706.156736227
 21
347.411327362
 31
0.0
100
AcDbText
  0
ENDBLK
  5
5CD
100
AcDbEntity
  8
0
100
AcDbBlockEnd
  0
BLOCK
  5
5D1
100
AcDbEntity
  8
0
100
AcDbBlockBegin
  2
*D22
 70
        0
 10
0.0
 20
0.0
 30
0.0
  3
*D22
  1

  0
LINE
  5
5D2
100
AcDbEntity
  8
AS88QU
  6
SOLID
 62
        7
100
AcDbLine
 10
1003.194458008
 20
-57.183849335
 30
0.0
 11
662.471252441
 21
-57.183837891
 31
0.0
  0
LINE
  5
5D3
100
AcDbEntity
  8
AS88QU
  6
SOLID
 62
        7
100
AcDbLine
 10
1034.193969727
 20
764.815429688
 30
0.0
 11
662.471252441
 21
764.815429688
 31
0.0
  0
LINE
  5
5D4
100
AcDbEntity
  8
AS88QU
  6
SOLID
 62
        7
100
AcDbLine
 10
666.471252441
 20
-57.183837891
 30
0.0
 11
666.471252441
 21
764.815429688
 31
0.0
  0
LINE
  5
5D5
100
AcDbEntity
  8
AS88QU
  6
SOLID
 62
        7
100
AcDbLine
 10
663.138244629
 20
-37.183837891
 30
0.0
 11
666.471252441
 21
-57.183837891
 31
0.0
  0
LINE
  5
5D6
100
AcDbEntity
  8
AS88QU
  6
SOLID
 62
        7
100
AcDbLine
 10
666.471252441
 20
-57.183837891
 30
0.0
 11
669.804260254
 21
-37.183837891
 31
0.0
  0
LINE
  5
5D7
100
AcDbEntity
  8
AS88QU
  6
SOLID
 62
        7
100
AcDbLine
 10
669.804260254
 20
-37.183837891
 30
0.0
 11
663.138244629
 21
-37.183837891
 31
0.0
  0
LINE
  5
5D8
100
AcDbEntity
  8
AS88QU
  6
SOLID
 62
        7
100
AcDbLine
 10
666.471252441
 20
764.815429688
 30
0.0
 11
666.471252441
 21
-57.183837891
 31
0.0
  0
LINE
  5
5D9
100
AcDbEntity
  8
AS88QU
  6
SOLID
 62
        7
100
AcDbLine
 10
669.804260254
 20
744.815429688
 30
0.0
 11
666.471252441
 21
764.815429688
 31
0.0
  0
LINE
  5
5DA
100
AcDbEntity
  8
AS88QU
  6
SOLID
 62
        7
100
AcDbLine
 10
666.471252441
 20
764.815429688
 30
0.0
 11
663.138244629
 21
744.815429688
 31
0.0
  0
LINE
  5
5DB
100
AcDbEntity
  8
AS88QU
  6
SOLID
 62
        7
100
AcDbLine
 10
663.138244629
 20
744.815429688
 30
0.0
 11
669.804260254
 21
744.815429688
 31
0.0
  0
TEXT
  5
5DC
100
AcDbEntity
  8
AS88QU
  6
SOLID
 62
        7
100
AcDbText
 10
656.471252441
 20
330.318878174
 30
0.0
 40
20.0
  1
825
 50
90.000002504
 72
        5
 11
656.471250387
 21
377.312725067
 31
0.0
100
AcDbText
  0
ENDBLK
  5
5DD
100
AcDbEntity
  8
0
100
AcDbBlockEnd
  0
ENDSEC
  0
SECTION
  2
ENTITIES
  0
TEXT
  5
56
100
AcDbEntity
  8
AS88QU
  6
SOLID
 62
        7
100
AcDbText
 10
1349.732055664
 20
110.597450256
 30
0.0
 40
22.0
  1
:
 50
90.000002504
 72
        5
 11
1349.732055562
 21
112.938803196
 31
0.0
100
AcDbText
  0
LINE
  5
58
100
AcDbEntity
  8
AS88QU
  6
CENTER
 62
        7
100
AcDbLine
 10
975.672406926
 20
-2.183849117
 30
0.0
 11
999.077845064
 21
-2.183849117
 31
0.0
  0
LINE
  5
59
100
AcDbEntity
  8
AS88QU
  6
CENTER
 62
        7
100
AcDbLine
 10
987.194504818
 20
-26.183902523
 30
0.0
 11
987.194504818
 21
15.38071649
 31
0.0
  0
ARC
  5
5A
100
AcDbEntity
  8
AS88QU
  6
SOLID
 62
        7
100
AcDbCircle
 10
987.194474301
 20
-2.183849117
 30
0.0
 40
8.0
100
AcDbArc
 50
15.0
 51
325.0
  0
CIRCLE
  5
5B
100
AcDbEntity
  8
AS88QU
  6
SOLID
 62
        7
100
AcDbCircle
 10
987.194474301
 20
-2.183849117
 30
0.0
 40
7.0
  0
ARC
  5
5C
100
AcDbEntity
  8
AS88QU
  6
SOLID
 62
        7
100
AcDbCircle
 10
1147.194474301
 20
-2.183849117
 30
0.0
 40
8.0
100
AcDbArc
 50
15.0
 51
325.0
  0
CIRCLE
  5
5D
100
AcDbEntity
  8
AS88QU
  6
SOLID
 62
        7
100
AcDbCircle
 10
1147.194474301
 20
-2.183849117
 30
0.0
 40
7.0
  0
LINE
  5
5E
100
AcDbEntity
  8
AS88QU
  6
CENTER
 62
        7
100
AcDbLine
 10
1133.826296055
 20
-2.183902523
 30
0.0
 11
1161.244095015
 21
-2.183902523
 31
0.0
  0
LINE
  5
5F
100
AcDbEntity
  8
AS88QU
  6
CENTER
 62
        7
100
AcDbLine
 10
1147.194504818
 20
-26.183902523
 30
0.0
 11
1147.194504818
 21
15.046353088
 31
0.0
  0
INSERT
  5
78
100
AcDbEntity
  8
0
100
AcDbBlockReference
  2
*H0
 10
0.0
 20
0.0
 30
0.0
  0
DIMENSION
  5
89
100
AcDbEntity
  8
AS88QU
  6
SOLID
 62
        7
100
AcDbDimension
  2
*D1
 10
1361.229614258
 20
-121.987915039
 30
0.0
 11
1351.229614258
 21
35.352638245
 31
0.0
 71
        5
 72
        1
 41
1.0
 42
0.0
  1
 %%c 400-600   
  3
2
100
AcDbAlignedDimension
 13
1287.194458008
 23
328.012145996
 33
0.0
 14
1287.194458008
 24
-121.987915039
 34
0.0
 50
90.0
100
AcDbRotatedDimension
  0
LINE
  5
8A
100
AcDbEntity
  8
AS88QU
  6
SOLID
 62
        7
100
AcDbLine
 10
1175.729977689
 20
174.476617076
 30
0.0
 11
1168.658909877
 21
181.547684888
 31
0.0
  0
ARC
  5
8B
100
AcDbEntity
  8
AS88QU
  6
SOLID
 62
        7
100
AcDbCircle
 10
1179.265511595
 20
178.012150982
 30
0.0
 40
5.0
100
AcDbArc
 50
225.0
 51
270.0
  0
ARC
  5
8C
100
AcDbEntity
  8
AS88QU
  6
SOLID
 62
        7
100
AcDbCircle
 10
1172.194443783
 20
185.083218794
 30
0.0
 40
5.0
100
AcDbArc
 50
180.0
 51
225.0
  0
LINE
  5
8D
100
AcDbEntity
  8
AS88QU
  6
SOLID
 62
        7
100
AcDbLine
 10
1168.658909877
 20
24.476617076
 30
0.0
 11
1175.729977689
 21
31.547684888
 31
0.0
  0
ARC
  5
8E
100
AcDbEntity
  8
AS88QU
  6
SOLID
 62
        7
100
AcDbCircle
 10
1179.265511595
 20
28.012150982
 30
0.0
 40
5.0
100
AcDbArc
 50
90.0
 51
135.0
  0
ARC
  5
8F
100
AcDbEntity
  8
AS88QU
  6
SOLID
 62
        7
100
AcDbCircle
 10
1172.194443783
 20
20.94108317
 30
0.0
 40
5.0
100
AcDbArc
 50
135.0
 51
180.0
  0
LINE
  5
90
100
AcDbEntity
  8
AS88QU
  6
SOLID
 62
        7
100
AcDbLine
 10
1065.194443783
 20
748.815430709
 30
0.0
 11
1069.194443783
 21
748.815430709
 31
0.0
  0
LINE
  5
91
100
AcDbEntity
  8
AS88QU
  6
SOLID
 62
        7
100
AcDbLine
 10
1065.194443783
 20
748.815430709
 30
0.0
 11
1065.194443783
 21
616.815900996
 31
0.0
  0
LINE
  5
92
100
AcDbEntity
  8
AS88QU
  6
SOLID
 62
        7
100
AcDbLine
 10
817.394449887
 20
99.677505882
 30
0.0
 11
817.394449887
 21
100.15828934
 31
0.0
  0
DIMENSION
  5
A2
100
AcDbEntity
  8
AS88QU
  6
SOLID
 62
        7
100
AcDbDimension
  2
*D2
 10
1067.194458008
 20
823.09765625
 30
0.0
 11
1153.697509766
 21
833.09765625
 31
0.0
 71
        5
 72
        1
 41
1.0
 42
0.0
  3
3
100
AcDbAlignedDimension
 13
1287.194458008
 23
303.012145996
 33
0.0
 14
1067.194458008
 24
755.204162598
 34
0.0
100
AcDbRotatedDimension
  0
ARC
  5
A3
100
AcDbEntity
  8
AS88QU
  6
SOLID
 62
        7
100
AcDbCircle
 10
928.193821419
 20
601.014531609
 30
0.0
 40
2.5
100
AcDbArc
 50
353.348012321
 51
173.348012321
  0
ARC
  5
A4
100
AcDbEntity
  8
AS88QU
  6
SOLID
 62
        7
100
AcDbCircle
 10
935.193821412
 20
601.01482939
 30
0.0
 40
2.5
100
AcDbArc
 50
353.348012321
 51
173.348012321
  0
LINE
  5
A5
100
AcDbEntity
  8
AS88QU
  6
SOLID
 62
        7
100
AcDbLine
 10
931.694179862
 20
592.58859238
 30
0.0
 11
930.67696694
 21
601.304338992
 31
0.0
  0
LINE
  5
A6
100
AcDbEntity
  8
AS88QU
  6
SOLID
 62
        7
100
AcDbLine
 10
937.676991582
 20
600.725233275
 30
0.0
 11
935.961418465
 21
586.014884045
 31
0.0
  0
LINE
  5
A7
100
AcDbEntity
  8
AS88QU
  6
SOLID
 62
        7
100
AcDbLine
 10
932.710651243
 20
601.304425505
 30
0.0
 11
930.9275057
 21
586.014669902
 31
0.0
  0
LINE
  5
A8
100
AcDbEntity
  8
AS88QU
  6
SOLID
 62
        7
100
AcDbLine
 10
930.676991588
 20
600.724935495
 30
0.0
 11
928.961418472
 21
586.014586264
 31
0.0
  0
ARC
  5
A9
100
AcDbEntity
  8
AS88QU
  6
SOLID
 62
        7
100
AcDbCircle
 10
924.695097624
 20
571.014382746
 30
0.0
 40
2.5
100
AcDbArc
 50
173.348012321
 51
353.348012321
  0
ARC
  5
AA
100
AcDbEntity
  8
AS88QU
  6
SOLID
 62
        7
100
AcDbCircle
 10
931.695097618
 20
571.014680527
 30
0.0
 40
2.5
100
AcDbArc
 50
173.348012321
 51
353.348012321
  0
LINE
  5
AB
100
AcDbEntity
  8
AS88QU
  6
SOLID
 62
        7
100
AcDbLine
 10
929.211952096
 20
570.724873144
 30
0.0
 11
928.194739175
 21
579.440619757
 31
0.0
  0
LINE
  5
AC
100
AcDbEntity
  8
AS88QU
  6
SOLID
 62
        7
100
AcDbLine
 10
936.21195209
 20
570.725170925
 30
0.0
 11
935.194739168
 21
579.440917537
 31
0.0
  0
LINE
  5
AD
100
AcDbEntity
  8
AS88QU
  6
SOLID
 62
        7
100
AcDbLine
 10
928.961418472
 20
586.014586264
 30
0.0
 11
927.178267794
 21
570.724786631
 31
0.0
  0
LINE
  5
AE
100
AcDbEntity
  8
AS88QU
  6
SOLID
 62
        7
100
AcDbLine
 10
935.961418465
 20
586.014884045
 30
0.0
 11
934.178267787
 21
570.725084412
 31
0.0
  0
LINE
  5
AF
100
AcDbEntity
  8
AS88QU
  6
SOLID
 62
        7
100
AcDbLine
 10
930.9275057
 20
586.014669902
 30
0.0
 11
929.211927448
 21
571.304276642
 31
0.0
  0
ARC
  5
B0
100
AcDbEntity
  8
AS88QU
  6
SOLID
 62
        7
100
AcDbCircle
 10
938.695097612
 20
571.014978307
 30
0.0
 40
2.5
100
AcDbArc
 50
173.348012321
 51
237.848075536
  0
ARC
  5
B1
100
AcDbEntity
  8
AS88QU
  6
SOLID
 62
        7
100
AcDbCircle
 10
938.695097612
 20
571.014978307
 30
0.0
 40
2.5
100
AcDbArc
 50
173.348012321
 51
237.848075537
  0
ARC
  5
B2
100
AcDbEntity
  8
AS88QU
  6
SOLID
 62
        7
100
AcDbCircle
 10
921.193821425
 20
601.014233829
 30
0.0
 40
2.5
100
AcDbArc
 50
353.348012321
 51
173.348012321
  0
LINE
  5
B3
100
AcDbEntity
  8
AS88QU
  6
SOLID
 62
        7
100
AcDbLine
 10
924.694179868
 20
592.588294599
 30
0.0
 11
923.676966947
 21
601.304041211
 31
0.0
  0
LINE
  5
B4
100
AcDbEntity
  8
AS88QU
  6
SOLID
 62
        7
100
AcDbLine
 10
925.710651249
 20
601.304127724
 30
0.0
 11
923.927505706
 21
586.014372121
 31
0.0
  0
LINE
  5
B5
100
AcDbEntity
  8
AS88QU
  6
SOLID
 62
        7
100
AcDbLine
 10
923.676991594
 20
600.724637714
 30
0.0
 11
921.961418478
 21
586.014288484
 31
0.0
  0
LINE
  5
B6
100
AcDbEntity
  8
AS88QU
  6
SOLID
 62
        7
100
AcDbLine
 10
918.710651256
 20
601.303829944
 30
0.0
 11
916.927505712
 21
586.01407434
 31
0.0
  0
LINE
  5
B7
100
AcDbEntity
  8
AS88QU
  6
SOLID
 62
        7
100
AcDbLine
 10
922.211952103
 20
570.724575364
 30
0.0
 11
921.194739181
 21
579.440321976
 31
0.0
  0
ARC
  5
B8
100
AcDbEntity
  8
AS88QU
  6
SOLID
 62
        7
100
AcDbCircle
 10
917.695097631
 20
571.014084966
 30
0.0
 40
2.5
100
AcDbArc
 50
216.872335013
 51
353.348012321
  0
LINE
  5
B9
100
AcDbEntity
  8
AS88QU
  6
SOLID
 62
        7
100
AcDbLine
 10
921.961418478
 20
586.014288484
 30
0.0
 11
920.1782678
 21
570.724488851
 31
0.0
  0
LINE
  5
BA
100
AcDbEntity
  8
AS88QU
  6
SOLID
 62
        7
100
AcDbLine
 10
923.927505706
 20
586.014372121
 30
0.0
 11
922.211927455
 21
571.303978861
 31
0.0
  0
ARC
  5
BB
100
AcDbEntity
  8
AS88QU
  6
SOLID
 62
        7
100
AcDbCircle
 10
935.193821412
 20
601.01482939
 30
0.0
 40
2.5
100
AcDbArc
 50
353.348012321
 51
173.348012321
  0
ARC
  5
BC
100
AcDbEntity
  8
AS88QU
  6
SOLID
 62
        7
100
AcDbCircle
 10
942.193821406
 20
601.015127171
 30
0.0
 40
2.5
100
AcDbArc
 50
353.348012321
 51
173.348012321
  0
LINE
  5
BD
100
AcDbEntity
  8
AS88QU
  6
SOLID
 62
        7
100
AcDbLine
 10
938.694179856
 20
592.58889016
 30
0.0
 11
937.676966934
 21
601.304636772
 31
0.0
  0
LINE
  5
BE
100
AcDbEntity
  8
AS88QU
  6
SOLID
 62
        7
100
AcDbLine
 10
944.676991575
 20
600.725531056
 30
0.0
 11
942.961418459
 21
586.015181825
 31
0.0
  0
LINE
  5
BF
100
AcDbEntity
  8
AS88QU
  6
SOLID
 62
        7
100
AcDbLine
 10
939.710651237
 20
601.304723285
 30
0.0
 11
937.927505693
 21
586.014967682
 31
0.0
  0
LINE
  5
C0
100
AcDbEntity
  8
AS88QU
  6
SOLID
 62
        7
100
AcDbLine
 10
937.676991582
 20
600.725233275
 30
0.0
 11
935.961418465
 21
586.014884045
 31
0.0
  0
ARC
  5
C1
100
AcDbEntity
  8
AS88QU
  6
SOLID
 62
        7
100
AcDbCircle
 10
931.695097618
 20
571.014680527
 30
0.0
 40
2.5
100
AcDbArc
 50
173.348012321
 51
353.348012321
  0
ARC
  5
C2
100
AcDbEntity
  8
AS88QU
  6
SOLID
 62
        7
100
AcDbCircle
 10
938.695097612
 20
571.014978307
 30
0.0
 40
2.5
100
AcDbArc
 50
173.348012321
 51
353.348012321
  0
LINE
  5
C3
100
AcDbEntity
  8
AS88QU
  6
SOLID
 62
        7
100
AcDbLine
 10
936.21195209
 20
570.725170925
 30
0.0
 11
935.194739168
 21
579.440917537
 31
0.0
  0
LINE
  5
C4
100
AcDbEntity
  8
AS88QU
  6
SOLID
 62
        7
100
AcDbLine
 10
943.211952084
 20
570.725468706
 30
0.0
 11
942.194739162
 21
579.441215318
 31
0.0
  0
LINE
  5
C5
100
AcDbEntity
  8
AS88QU
  6
SOLID
 62
        7
100
AcDbLine
 10
935.961418465
 20
586.014884045
 30
0.0
 11
934.178267787
 21
570.725084412
 31
0.0
  0
LINE
  5
C6
100
AcDbEntity
  8
AS88QU
  6
SOLID
 62
        7
100
AcDbLine
 10
942.961418459
 20
586.015181825
 30
0.0
 11
941.178267781
 21
570.725382193
 31
0.0
  0
LINE
  5
C7
100
AcDbEntity
  8
AS88QU
  6
SOLID
 62
        7
100
AcDbLine
 10
937.927505693
 20
586.014967682
 30
0.0
 11
936.211927442
 21
571.304574422
 31
0.0
  0
ARC
  5
C8
100
AcDbEntity
  8
AS88QU
  6
SOLID
 62
        7
100
AcDbCircle
 10
945.695097605
 20
571.015276088
 30
0.0
 40
2.5
100
AcDbArc
 50
173.348012321
 51
237.848075536
  0
ARC
  5
C9
100
AcDbEntity
  8
AS88QU
  6
SOLID
 62
        7
100
AcDbCircle
 10
945.695097605
 20
571.015276088
 30
0.0
 40
2.5
100
AcDbArc
 50
173.348012321
 51
237.848075537
  0
ARC
  5
CA
100
AcDbEntity
  8
AS88QU
  6
SOLID
 62
        7
100
AcDbCircle
 10
928.193821419
 20
601.014531609
 30
0.0
 40
2.5
100
AcDbArc
 50
353.348012321
 51
173.348012321
  0
LINE
  5
CB
100
AcDbEntity
  8
AS88QU
  6
SOLID
 62
        7
100
AcDbLine
 10
931.694179862
 20
592.58859238
 30
0.0
 11
930.67696694
 21
601.304338992
 31
0.0
  0
LINE
  5
CC
100
AcDbEntity
  8
AS88QU
  6
SOLID
 62
        7
100
AcDbLine
 10
932.710651243
 20
601.304425505
 30
0.0
 11
930.9275057
 21
586.014669902
 31
0.0
  0
LINE
  5
CD
100
AcDbEntity
  8
AS88QU
  6
SOLID
 62
        7
100
AcDbLine
 10
930.676991588
 20
600.724935495
 30
0.0
 11
928.961418472
 21
586.014586264
 31
0.0
  0
LINE
  5
CE
100
AcDbEntity
  8
AS88QU
  6
SOLID
 62
        7
100
AcDbLine
 10
925.710651249
 20
601.304127724
 30
0.0
 11
923.927505706
 21
586.014372121
 31
0.0
  0
LINE
  5
CF
100
AcDbEntity
  8
AS88QU
  6
SOLID
 62
        7
100
AcDbLine
 10
929.211952096
 20
570.724873144
 30
0.0
 11
928.194739175
 21
579.440619757
 31
0.0
  0
ARC
  5
D0
100
AcDbEntity
  8
AS88QU
  6
SOLID
 62
        7
100
AcDbCircle
 10
924.695097624
 20
571.014382746
 30
0.0
 40
2.5
100
AcDbArc
 50
216.872335013
 51
353.348012321
  0
LINE
  5
D1
100
AcDbEntity
  8
AS88QU
  6
SOLID
 62
        7
100
AcDbLine
 10
928.961418472
 20
586.014586264
 30
0.0
 11
927.178267794
 21
570.724786631
 31
0.0
  0
LINE
  5
D2
100
AcDbEntity
  8
AS88QU
  6
SOLID
 62
        7
100
AcDbLine
 10
930.9275057
 20
586.014669902
 30
0.0
 11
929.211927448
 21
571.304276642
 31
0.0
  0
ARC
  5
D3
100
AcDbEntity
  8
AS88QU
  6
SOLID
 62
        7
100
AcDbCircle
 10
942.193821406
 20
601.015127171
 30
0.0
 40
2.5
100
AcDbArc
 50
353.348012321
 51
173.348012321
  0
ARC
  5
D4
100
AcDbEntity
  8
AS88QU
  6
SOLID
 62
        7
100
AcDbCircle
 10
949.1938214
 20
601.015424951
 30
0.0
 40
2.5
100
AcDbArc
 50
353.348012321
 51
173.348012321
  0
LINE
  5
D5
100
AcDbEntity
  8
AS88QU
  6
SOLID
 62
        7
100
AcDbLine
 10
945.694179849
 20
592.589187941
 30
0.0
 11
944.676966928
 21
601.304934553
 31
0.0
  0
LINE
  5
D6
100
AcDbEntity
  8
AS88QU
  6
SOLID
 62
        7
100
AcDbLine
 10
951.676991569
 20
600.725828836
 30
0.0
 11
949.961418453
 21
586.015479606
 31
0.0
  0
LINE
  5
D7
100
AcDbEntity
  8
AS88QU
  6
SOLID
 62
        7
100
AcDbLine
 10
946.71065123
 20
601.305021066
 30
0.0
 11
944.927505687
 21
586.015265463
 31
0.0
  0
LINE
  5
D8
100
AcDbEntity
  8
AS88QU
  6
SOLID
 62
        7
100
AcDbLine
 10
944.676991575
 20
600.725531056
 30
0.0
 11
942.961418459
 21
586.015181825
 31
0.0
  0
ARC
  5
D9
100
AcDbEntity
  8
AS88QU
  6
SOLID
 62
        7
100
AcDbCircle
 10
938.695097612
 20
571.014978307
 30
0.0
 40
2.5
100
AcDbArc
 50
173.348012321
 51
353.348012321
  0
ARC
  5
DA
100
AcDbEntity
  8
AS88QU
  6
SOLID
 62
        7
100
AcDbCircle
 10
945.695097605
 20
571.015276088
 30
0.0
 40
2.5
100
AcDbArc
 50
173.348012321
 51
353.348012321
  0
LINE
  5
DB
100
AcDbEntity
  8
AS88QU
  6
SOLID
 62
        7
100
AcDbLine
 10
943.211952084
 20
570.725468706
 30
0.0
 11
942.194739162
 21
579.441215318
 31
0.0
  0
LINE
  5
DC
100
AcDbEntity
  8
AS88QU
  6
SOLID
 62
        7
100
AcDbLine
 10
950.211952077
 20
570.725766486
 30
0.0
 11
949.194739156
 21
579.441513098
 31
0.0
  0
LINE
  5
DD
100
AcDbEntity
  8
AS88QU
  6
SOLID
 62
        7
100
AcDbLine
 10
942.961418459
 20
586.015181825
 30
0.0
 11
941.178267781
 21
570.725382193
 31
0.0
  0
LINE
  5
DE
100
AcDbEntity
  8
AS88QU
  6
SOLID
 62
        7
100
AcDbLine
 10
949.961418453
 20
586.015479606
 30
0.0
 11
948.178267775
 21
570.725679973
 31
0.0
  0
LINE
  5
DF
100
AcDbEntity
  8
AS88QU
  6
SOLID
 62
        7
100
AcDbLine
 10
944.927505687
 20
586.015265463
 30
0.0
 11
943.211927436
 21
571.304872203
 31
0.0
  0
ARC
  5
E0
100
AcDbEntity
  8
AS88QU
  6
SOLID
 62
        7
100
AcDbCircle
 10
952.695097599
 20
571.015573869
 30
0.0
 40
2.5
100
AcDbArc
 50
173.348012321
 51
245.344735428
  0
ARC
  5
E1
100
AcDbEntity
  8
AS88QU
  6
SOLID
 62
        7
100
AcDbCircle
 10
952.695097599
 20
571.015573869
 30
0.0
 40
2.5
100
AcDbArc
 50
173.348012321
 51
245.344735428
  0
ARC
  5
E2
100
AcDbEntity
  8
AS88QU
  6
SOLID
 62
        7
100
AcDbCircle
 10
935.193821412
 20
601.01482939
 30
0.0
 40
2.5
100
AcDbArc
 50
353.348012321
 51
173.348012321
  0
LINE
  5
E3
100
AcDbEntity
  8
AS88QU
  6
SOLID
 62
        7
100
AcDbLine
 10
938.694179856
 20
592.58889016
 30
0.0
 11
937.676966934
 21
601.304636772
 31
0.0
  0
LINE
  5
E4
100
AcDbEntity
  8
AS88QU
  6
SOLID
 62
        7
100
AcDbLine
 10
939.710651237
 20
601.304723285
 30
0.0
 11
937.927505693
 21
586.014967682
 31
0.0
  0
LINE
  5
E5
100
AcDbEntity
  8
AS88QU
  6
SOLID
 62
        7
100
AcDbLine
 10
937.676991582
 20
600.725233275
 30
0.0
 11
935.961418465
 21
586.014884045
 31
0.0
  0
LINE
  5
E6
100
AcDbEntity
  8
AS88QU
  6
SOLID
 62
        7
100
AcDbLine
 10
932.710651243
 20
601.304425505
 30
0.0
 11
930.9275057
 21
586.014669902
 31
0.0
  0
LINE
  5
E7
100
AcDbEntity
  8
AS88QU
  6
SOLID
 62
        7
100
AcDbLine
 10
936.21195209
 20
570.725170925
 30
0.0
 11
935.194739168
 21
579.440917537
 31
0.0
  0
ARC
  5
E8
100
AcDbEntity
  8
AS88QU
  6
SOLID
 62
        7
100
AcDbCircle
 10
931.695097618
 20
571.014680527
 30
0.0
 40
2.5
100
AcDbArc
 50
216.872335013
 51
353.348012321
  0
LINE
  5
E9
100
AcDbEntity
  8
AS88QU
  6
SOLID
 62
        7
100
AcDbLine
 10
935.961418465
 20
586.014884045
 30
0.0
 11
934.178267787
 21
570.725084412
 31
0.0
  0
LINE
  5
EA
100
AcDbEntity
  8
AS88QU
  6
SOLID
 62
        7
100
AcDbLine
 10
937.927505693
 20
586.014967682
 30
0.0
 11
936.211927442
 21
571.304574422
 31
0.0
  0
ARC
  5
EB
100
AcDbEntity
  8
AS88QU
  6
SOLID
 62
        7
100
AcDbCircle
 10
949.1938214
 20
601.015424951
 30
0.0
 40
2.5
100
AcDbArc
 50
353.348012321
 51
173.348012321
  0
LINE
  5
EC
100
AcDbEntity
  8
AS88QU
  6
SOLID
 62
        7
100
AcDbLine
 10
954.153237128
 20
572.906172192
 30
0.0
 11
967.997975929
 21
574.81345312
 31
0.0
  0
LINE
  5
ED
100
AcDbEntity
  8
AS88QU
  6
SOLID
 62
        7
100
AcDbLine
 10
952.694179843
 20
592.589485721
 30
0.0
 11
951.676966921
 21
601.305232333
 31
0.0
  0
LINE
  5
EE
100
AcDbEntity
  8
AS88QU
  6
SOLID
 62
        7
100
AcDbLine
 10
958.420949251
 20
598.530666813
 30
0.0
 11
956.961418446
 21
586.015777386
 31
0.0
  0
LINE
  5
EF
100
AcDbEntity
  8
AS88QU
  6
SOLID
 62
        7
100
AcDbLine
 10
953.462177157
 20
599.174753695
 30
0.0
 11
951.927505681
 21
586.015563243
 31
0.0
  0
LINE
  5
F0
100
AcDbEntity
  8
AS88QU
  6
SOLID
 62
        7
100
AcDbLine
 10
951.676991569
 20
600.725828836
 30
0.0
 11
949.961418453
 21
586.015479606
 31
0.0
  0
ARC
  5
F1
100
AcDbEntity
  8
AS88QU
  6
SOLID
 62
        7
100
AcDbCircle
 10
945.695097605
 20
571.015276088
 30
0.0
 40
2.5
100
AcDbArc
 50
173.348012321
 51
353.348012321
  0
ARC
  5
F2
100
AcDbEntity
  8
AS88QU
  6
SOLID
 62
        7
100
AcDbCircle
 10
952.695097599
 20
571.015573869
 30
0.0
 40
2.5
100
AcDbArc
 50
173.348012321
 51
245.344735427
  0
LINE
  5
F3
100
AcDbEntity
  8
AS88QU
  6
SOLID
 62
        7
100
AcDbLine
 10
950.211952077
 20
570.725766486
 30
0.0
 11
949.194739156
 21
579.441513098
 31
0.0
  0
LINE
  5
F4
100
AcDbEntity
  8
AS88QU
  6
SOLID
 62
        7
100
AcDbLine
 10
956.913137931
 20
573.286382049
 30
0.0
 11
956.194739149
 21
579.441810879
 31
0.0
  0
LINE
  5
F5
100
AcDbEntity
  8
AS88QU
  6
SOLID
 62
        7
100
AcDbLine
 10
949.961418453
 20
586.015479606
 30
0.0
 11
948.178267775
 21
570.725679973
 31
0.0
  0
LINE
  5
F6
100
AcDbEntity
  8
AS88QU
  6
SOLID
 62
        7
100
AcDbLine
 10
956.961418446
 20
586.015777386
 30
0.0
 11
955.453418902
 21
573.085288024
 31
0.0
  0
LINE
  5
F7
100
AcDbEntity
  8
AS88QU
  6
SOLID
 62
        7
100
AcDbLine
 10
951.927505681
 20
586.015563243
 30
0.0
 11
950.21192743
 21
571.305169983
 31
0.0
  0
LINE
  5
F8
100
AcDbEntity
  8
AS88QU
  6
SOLID
 62
        7
100
AcDbLine
 10
954.153237128
 20
572.906172192
 30
0.0
 11
967.255827588
 21
572.055993618
 31
0.0
  0
LINE
  5
F9
100
AcDbEntity
  8
AS88QU
  6
SOLID
 62
        7
100
AcDbLine
 10
966.714336672
 20
608.953541709
 30
0.0
 11
953.61353888
 21
608.103530569
 31
0.0
  0
ARC
  5
FA
100
AcDbEntity
  8
AS88QU
  6
SOLID
 62
        7
100
AcDbCircle
 10
942.193821406
 20
601.015127171
 30
0.0
 40
2.5
100
AcDbArc
 50
353.348012321
 51
173.348012321
  0
LINE
  5
FB
100
AcDbEntity
  8
AS88QU
  6
SOLID
 62
        7
100
AcDbLine
 10
945.694179849
 20
592.589187941
 30
0.0
 11
944.676966928
 21
601.304934553
 31
0.0
  0
LINE
  5
FC
100
AcDbEntity
  8
AS88QU
  6
SOLID
 62
        7
100
AcDbLine
 10
946.71065123
 20
601.305021066
 30
0.0
 11
944.927505687
 21
586.015265463
 31
0.0
  0
LINE
  5
FD
100
AcDbEntity
  8
AS88QU
  6
SOLID
 62
        7
100
AcDbLine
 10
944.676991575
 20
600.725531056
 30
0.0
 11
942.961418459
 21
586.015181825
 31
0.0
  0
LINE
  5
FE
100
AcDbEntity
  8
AS88QU
  6
SOLID
 62
        7
100
AcDbLine
 10
939.710651237
 20
601.304723285
 30
0.0
 11
937.927505693
 21
586.014967682
 31
0.0
  0
LINE
  5
FF
100
AcDbEntity
  8
AS88QU
  6
SOLID
 62
        7
100
AcDbLine
 10
943.211952084
 20
570.725468706
 30
0.0
 11
942.194739162
 21
579.441215318
 31
0.0
  0
ARC
  5
100
100
AcDbEntity
  8
AS88QU
  6
SOLID
 62
        7
100
AcDbCircle
 10
938.695097612
 20
571.014978307
 30
0.0
 40
2.5
100
AcDbArc
 50
216.872335013
 51
353.348012321
  0
LINE
  5
101
100
AcDbEntity
  8
AS88QU
  6
SOLID
 62
        7
100
AcDbLine
 10
942.961418459
 20
586.015181825
 30
0.0
 11
941.178267781
 21
570.725382193
 31
0.0
  0
LINE
  5
102
100
AcDbEntity
  8
AS88QU
  6
SOLID
 62
        7
100
AcDbLine
 10
944.927505687
 20
586.015265463
 30
0.0
 11
943.211927436
 21
571.304872203
 31
0.0
  0
ARC
  5
103
100
AcDbEntity
  8
AS88QU
  6
SOLID
 62
        7
100
AcDbCircle
 10
966.633076552
 20
604.038541564
 30
0.0
 40
15.0
100
AcDbArc
 50
170.821428645
 51
193.019218852
  0
ARC
  5
104
100
AcDbEntity
  8
AS88QU
  6
SOLID
 62
        7
100
AcDbCircle
 10
953.967247348
 20
570.91483902
 30
0.0
 40
2.0
100
AcDbArc
 50
84.664075466
 51
166.980781148
  0
LINE
  5
105
100
AcDbEntity
  8
AS88QU
  6
SOLID
 62
        7
100
AcDbLine
 10
954.153237128
 20
599.118595994
 30
0.0
 11
967.255827588
 21
599.968774568
 31
0.0
  0
ARC
  5
106
100
AcDbEntity
  8
AS88QU
  6
SOLID
 62
        7
100
AcDbCircle
 10
966.633076552
 20
567.986226622
 30
0.0
 40
15.0
100
AcDbArc
 50
166.980781148
 51
189.178571355
  0
ARC
  5
107
100
AcDbEntity
  8
AS88QU
  6
SOLID
 62
        7
100
AcDbCircle
 10
953.79952866
 20
565.912570789
 30
0.0
 40
2.0
100
AcDbArc
 50
189.178571355
 51
264.664075466
  0
LINE
  5
108
100
AcDbEntity
  8
AS88QU
  6
SOLID
 62
        7
100
AcDbLine
 10
966.714336672
 20
563.071226477
 30
0.0
 11
953.61353888
 21
563.921237617
 31
0.0
  0
ARC
  5
109
100
AcDbEntity
  8
AS88QU
  6
SOLID
 62
        7
100
AcDbCircle
 10
968.209421669
 20
604.071420723
 30
0.0
 40
5.0
100
AcDbArc
 50
64.025606038
 51
95.335924534
  0
LINE
  5
10A
100
AcDbEntity
  8
AS88QU
  6
SOLID
 62
        7
100
AcDbLine
 10
1207.561692098
 20
599.352995887
 30
0.0
 11
1211.051363489
 21
598.852667697
 31
0.0
  0
LINE
  5
10B
100
AcDbEntity
  8
AS88QU
  6
SOLID
 62
        7
100
AcDbLine
 10
1207.561692098
 20
608.294012393
 30
0.0
 11
1211.704132843
 21
607.700094041
 31
0.0
  0
ARC
  5
10C
100
AcDbEntity
  8
AS88QU
  6
SOLID
 62
        7
100
AcDbCircle
 10
1203.069236438
 20
568.450614774
 30
0.0
 40
10.0
100
AcDbArc
 50
339.534781321
 51
24.570360812
  0
ARC
  5
10D
100
AcDbEntity
  8
AS88QU
  6
SOLID
 62
        7
100
AcDbCircle
 10
1211.254298408
 20
572.192908261
 30
0.0
 40
1.0
100
AcDbArc
 50
24.570360812
 51
101.708637829
  0
LINE
  5
10E
100
AcDbEntity
  8
AS88QU
  6
SOLID
 62
        7
100
AcDbLine
 10
954.153237128
 20
599.118595994
 30
0.0
 11
967.997975929
 21
597.211315066
 31
0.0
  0
ARC
  5
10F
100
AcDbEntity
  8
AS88QU
  6
SOLID
 62
        7
100
AcDbCircle
 10
953.79952866
 20
606.112197397
 30
0.0
 40
2.0
100
AcDbArc
 50
95.335924534
 51
170.821428645
  0
ARC
  5
110
100
AcDbEntity
  8
AS88QU
  6
SOLID
 62
        7
100
AcDbCircle
 10
1211.501197924
 20
565.303866372
 30
0.0
 40
1.0
100
AcDbArc
 50
281.708637829
 51
339.534781321
  0
LINE
  5
111
100
AcDbEntity
  8
AS88QU
  6
SOLID
 62
        7
100
AcDbLine
 10
1207.561692098
 20
563.730755793
 30
0.0
 11
1211.704132843
 21
564.324674145
 31
0.0
  0
ARC
  5
112
100
AcDbEntity
  8
AS88QU
  6
SOLID
 62
        7
100
AcDbCircle
 10
953.967247348
 20
601.109929166
 30
0.0
 40
2.0
100
AcDbArc
 50
193.019218852
 51
275.335924534
  0
LINE
  5
113
100
AcDbEntity
  8
AS88QU
  6
SOLID
 62
        7
100
AcDbLine
 10
1207.561692098
 20
572.671772298
 30
0.0
 11
1211.051363489
 21
573.172100488
 31
0.0
  0
LINE
  5
114
100
AcDbEntity
  8
AS88QU
  6
SOLID
 62
        7
100
AcDbLine
 10
937.194449887
 20
232.012150982
 30
0.0
 11
967.194443783
 21
225.512152304
 31
0.0
  0
DIMENSION
  5
124
100
AcDbEntity
  8
AS88QU
  6
SOLID
 62
        7
100
AcDbDimension
  2
*D3
 10
877.194335938
 20
823.09765625
 30
0.0
 11
948.69744873
 21
833.09765625
 31
0.0
 71
        5
 72
        1
 41
1.0
 42
0.0
  3
4
100
AcDbAlignedDimension
 13
1067.194458008
 23
755.204162598
 33
0.0
 14
877.194335938
 24
589.012390137
 34
0.0
100
AcDbRotatedDimension
  0
LINE
  5
125
100
AcDbEntity
  8
AS88QU
  6
SOLID
 62
        7
100
AcDbLine
 10
1065.194443783
 20
715.815430709
 30
0.0
 11
1037.194883641
 21
715.815430709
 31
0.0
  0
LINE
  5
126
100
AcDbEntity
  8
AS88QU
  6
SOLID
 62
        7
100
AcDbLine
 10
897.19444906
 20
678.012643859
 30
0.0
 11
897.19444906
 21
688.012643859
 31
0.0
  0
LINE
  5
127
100
AcDbEntity
  8
AS88QU
  6
SOLID
 62
        7
100
AcDbLine
 10
1107.194443783
 20
616.815900996
 30
0.0
 11
1107.194443783
 21
614.012023447
 31
0.0
  0
LINE
  5
128
100
AcDbEntity
  8
AS88QU
  6
SOLID
 62
        7
100
AcDbLine
 10
1027.194443783
 20
616.815900996
 30
0.0
 11
1027.194443783
 21
614.012023447
 31
0.0
  0
ARC
  5
129
100
AcDbEntity
  8
AS88QU
  6
SOLID
 62
        7
100
AcDbCircle
 10
896.19444906
 20
678.012643859
 30
0.0
 40
1.0
100
AcDbArc
 50
270.0
 51
360.0
  0
LINE
  5
12A
100
AcDbEntity
  8
AS88QU
  6
SOLID
 62
        7
100
AcDbLine
 10
1063.394443831
 20
724.215436549
 30
0.0
 11
1063.394443831
 21
725.415436597
 31
0.0
  0
LINE
  5
12B
100
AcDbEntity
  8
AS88QU
  6
SOLID
 62
        7
100
AcDbLine
 10
1063.394443831
 20
725.415436597
 30
0.0
 11
1061.894443831
 21
725.415436597
 31
0.0
  0
LINE
  5
12C
100
AcDbEntity
  8
AS88QU
  6
SOLID
 62
        7
100
AcDbLine
 10
1061.894443831
 20
725.415436597
 30
0.0
 11
1061.894443831
 21
728.89249091
 31
0.0
  0
LINE
  5
12D
100
AcDbEntity
  8
AS88QU
  6
SOLID
 62
        7
100
AcDbLine
 10
1061.894443831
 20
728.89249091
 30
0.0
 11
1065.194443783
 21
729.065436573
 31
0.0
  0
LINE
  5
12E
100
AcDbEntity
  8
AS88QU
  6
SOLID
 62
        7
100
AcDbLine
 10
1061.894443831
 20
720.738382236
 30
0.0
 11
1061.894443831
 21
724.215436549
 31
0.0
  0
LINE
  5
12F
100
AcDbEntity
  8
AS88QU
  6
SOLID
 62
        7
100
AcDbLine
 10
1061.894443831
 20
724.215436549
 30
0.0
 11
1063.394443831
 21
724.215436549
 31
0.0
  0
LINE
  5
130
100
AcDbEntity
  8
AS88QU
  6
SOLID
 62
        7
100
AcDbLine
 10
1065.194443783
 20
720.565436573
 30
0.0
 11
1061.894443831
 21
720.738382236
 31
0.0
  0
LINE
  5
131
100
AcDbEntity
  8
AS88QU
  6
SOLID
 62
        7
100
AcDbLine
 10
897.19444906
 20
694.012643859
 30
0.0
 11
897.19444906
 21
704.012643859
 31
0.0
  0
LINE
  5
132
100
AcDbEntity
  8
AS88QU
  6
SOLID
 62
        7
100
AcDbLine
 10
1038.194003925
 20
764.815430709
 30
0.0
 11
1038.194003925
 21
718.815430709
 31
0.0
  0
LINE
  5
133
100
AcDbEntity
  8
AS88QU
  6
SOLID
 62
        7
100
AcDbLine
 10
1027.194443783
 20
616.815900996
 30
0.0
 11
1107.194443783
 21
616.815900996
 31
0.0
  0
LINE
  5
134
100
AcDbEntity
  8
AS88QU
  6
SOLID
 62
        7
100
AcDbLine
 10
1096.194003925
 20
764.815430709
 30
0.0
 11
1038.194003925
 21
764.815430709
 31
0.0
  0
LINE
  5
135
100
AcDbEntity
  8
AS88QU
  6
SOLID
 62
        7
100
AcDbLine
 10
1037.194883641
 20
718.815430709
 30
0.0
 11
1065.194443783
 21
718.815430709
 31
0.0
  0
LINE
  5
136
100
AcDbEntity
  8
AS88QU
  6
SOLID
 62
        7
100
AcDbLine
 10
1042.116943724
 20
712.515430841
 30
0.0
 11
1041.943998061
 21
715.815430793
 31
0.0
  0
LINE
  5
137
100
AcDbEntity
  8
AS88QU
  6
SOLID
 62
        7
100
AcDbLine
 10
1069.194443783
 20
631.012643859
 30
0.0
 11
1165.194388434
 21
631.012643859
 31
0.0
  0
LINE
  5
138
100
AcDbEntity
  8
AS88QU
  6
SOLID
 62
        7
100
AcDbLine
 10
1045.593998037
 20
712.515430841
 30
0.0
 11
1042.116943724
 21
712.515430841
 31
0.0
  0
LINE
  5
139
100
AcDbEntity
  8
AS88QU
  6
SOLID
 62
        7
100
AcDbLine
 10
1045.593998037
 20
714.015430841
 30
0.0
 11
1045.593998037
 21
712.515430841
 31
0.0
  0
LINE
  5
13A
100
AcDbEntity
  8
AS88QU
  6
SOLID
 62
        7
100
AcDbLine
 10
1046.793998085
 20
712.515430841
 30
0.0
 11
1046.793998085
 21
714.015430841
 31
0.0
  0
LINE
  5
13B
100
AcDbEntity
  8
AS88QU
  6
SOLID
 62
        7
100
AcDbLine
 10
1050.271052398
 20
712.515430841
 30
0.0
 11
1046.793998085
 21
712.515430841
 31
0.0
  0
LINE
  5
13C
100
AcDbEntity
  8
AS88QU
  6
SOLID
 62
        7
100
AcDbLine
 10
1046.793998085
 20
714.015430841
 30
0.0
 11
1045.593998037
 21
714.015430841
 31
0.0
  0
LINE
  5
13D
100
AcDbEntity
  8
AS88QU
  6
SOLID
 62
        7
100
AcDbLine
 10
1063.194003925
 20
713.815449228
 30
0.0
 11
1063.194003925
 21
715.815430709
 31
0.0
  0
LINE
  5
13E
100
AcDbEntity
  8
AS88QU
  6
CENTER
 62
        7
100
AcDbLine
 10
1046.194004094
 20
715.815442437
 30
0.0
 11
1051.081504094
 21
715.815442437
 31
0.0
  0
LINE
  5
13F
100
AcDbEntity
  8
AS88QU
  6
CENTER
 62
        7
100
AcDbLine
 10
1046.194004094
 20
715.815442437
 30
0.0
 11
1041.306504284
 21
715.815442437
 31
0.0
  0
LINE
  5
140
100
AcDbEntity
  8
AS88QU
  6
SOLID
 62
        7
100
AcDbLine
 10
1041.943998061
 20
715.815430793
 30
0.0
 11
1050.443998061
 21
715.815430793
 31
0.0
  0
LINE
  5
141
100
AcDbEntity
  8
AS88QU
  6
SOLID
 62
        7
100
AcDbLine
 10
1050.443998061
 20
715.815430793
 30
0.0
 11
1050.271052398
 21
712.515430841
 31
0.0
  0
LINE
  5
142
100
AcDbEntity
  8
AS88QU
  6
CENTER
 62
        7
100
AcDbLine
 10
1046.194004094
 20
715.815442437
 30
0.0
 11
1041.094004141
 21
715.815442437
 31
0.0
  0
ARC
  5
143
100
AcDbEntity
  8
AS88QU
  6
SOLID
 62
        7
100
AcDbCircle
 10
822.426372086
 20
-15.010541066
 30
0.0
 40
1.0
100
AcDbArc
 50
179.999993521
 51
269.999993521
  0
LINE
  5
144
100
AcDbEntity
  8
AS88QU
  6
CENTER
 62
        7
100
AcDbLine
 10
1046.194004094
 20
715.815442437
 30
0.0
 11
1059.994004046
 21
715.815442437
 31
0.0
  0
LINE
  5
145
100
AcDbEntity
  8
AS88QU
  6
SOLID
 62
        7
100
AcDbLine
 10
1059.193912331
 20
713.815449228
 30
0.0
 11
1065.194443783
 21
713.815449228
 31
0.0
  0
LINE
  5
146
100
AcDbEntity
  8
AS88QU
  6
SOLID
 62
        7
100
AcDbLine
 10
1207.19447356
 20
503.316262375
 30
0.0
 11
1207.194482936
 21
493.816264349
 31
0.0
  0
LINE
  5
147
100
AcDbEntity
  8
AS88QU
  6
SOLID
 62
        7
100
AcDbLine
 10
927.19448491
 20
503.316262375
 30
0.0
 11
927.194465665
 21
493.816264349
 31
0.0
  0
LINE
  5
148
100
AcDbEntity
  8
AS88QU
  6
SOLID
 62
        7
100
AcDbLine
 10
1058.193912331
 20
712.815449228
 30
0.0
 11
1058.193912331
 21
708.815449228
 31
0.0
  0
ARC
  5
149
100
AcDbEntity
  8
AS88QU
  6
SOLID
 62
        7
100
AcDbCircle
 10
1059.193912331
 20
712.815449228
 30
0.0
 40
1.0
100
AcDbArc
 50
90.0
 51
180.0
  0
LINE
  5
14A
100
AcDbEntity
  8
AS88QU
  6
SOLID
 62
        7
100
AcDbLine
 10
1058.193912331
 20
708.815449228
 30
0.0
 11
1065.194443783
 21
708.815449228
 31
0.0
  0
LINE
  5
14B
100
AcDbEntity
  8
AS88QU
  6
SOLID
 62
        7
100
AcDbLine
 10
1059.693912331
 20
708.815449228
 30
0.0
 11
1059.693912331
 21
705.012643859
 31
0.0
  0
LINE
  5
14C
100
AcDbEntity
  8
AS88QU
  6
SOLID
 62
        7
100
AcDbLine
 10
1058.193912331
 20
708.315449228
 30
0.0
 11
1059.693912331
 21
708.315449228
 31
0.0
  0
LINE
  5
14D
100
AcDbEntity
  8
AS88QU
  6
SOLID
 62
        7
100
AcDbLine
 10
1059.693912331
 20
706.906358886
 30
0.0
 11
1058.193912331
 21
707.315449228
 31
0.0
  0
LINE
  5
14E
100
AcDbEntity
  8
AS88QU
  6
SOLID
 62
        7
100
AcDbLine
 10
972.562606663
 20
607.512436229
 30
0.0
 11
970.257911673
 21
608.635236353
 31
0.0
  0
LINE
  5
14F
100
AcDbEntity
  8
AS88QU
  6
SOLID
 62
        7
100
AcDbLine
 10
1058.193912331
 20
708.315449228
 30
0.0
 11
1058.193912331
 21
707.315449228
 31
0.0
  0
ARC
  5
150
100
AcDbEntity
  8
AS88QU
  6
SOLID
 62
        7
100
AcDbCircle
 10
896.19444906
 20
704.012643859
 30
0.0
 40
1.0
100
AcDbArc
 50
360.0
 51
90.0
  0
LINE
  5
151
100
AcDbEntity
  8
AS88QU
  6
SOLID
 62
        7
100
AcDbLine
 10
972.194443783
 20
689.012643859
 30
0.0
 11
898.19444906
 21
689.012643859
 31
0.0
  0
LINE
  5
152
100
AcDbEntity
  8
AS88QU
  6
SOLID
 62
        7
100
AcDbLine
 10
1067.194443783
 20
693.012643859
 30
0.0
 11
898.19444906
 21
693.012643859
 31
0.0
  0
LINE
  5
153
100
AcDbEntity
  8
AS88QU
  6
SOLID
 62
        7
100
AcDbLine
 10
973.194443783
 20
677.012643859
 30
0.0
 11
894.64447078
 21
677.012643859
 31
0.0
  0
LINE
  5
154
100
AcDbEntity
  8
AS88QU
  6
SOLID
 62
        7
100
AcDbLine
 10
1067.194443783
 20
705.012643859
 30
0.0
 11
894.64447078
 21
705.012643859
 31
0.0
  0
ARC
  5
155
100
AcDbEntity
  8
AS88QU
  6
SOLID
 62
        7
100
AcDbCircle
 10
898.19444906
 20
688.012643859
 30
0.0
 40
1.0
100
AcDbArc
 50
90.0
 51
180.0
  0
ARC
  5
156
100
AcDbEntity
  8
AS88QU
  6
SOLID
 62
        7
100
AcDbCircle
 10
898.19444906
 20
694.012643859
 30
0.0
 40
1.0
100
AcDbArc
 50
180.0
 51
270.0
  0
INSERT
  5
170
100
AcDbEntity
  8
0
100
AcDbBlockReference
  2
*H4
 10
0.0
 20
0.0
 30
0.0
  0
LINE
  5
171
100
AcDbEntity
  8
AS88QU
  6
SOLID
 62
        7
100
AcDbLine
 10
977.194443783
 20
636.012643859
 30
0.0
 11
977.194443783
 21
692.012643859
 31
0.0
  0
ARC
  5
172
100
AcDbEntity
  8
AS88QU
  6
SOLID
 62
        7
100
AcDbCircle
 10
976.194443783
 20
692.012643859
 30
0.0
 40
1.0
100
AcDbArc
 50
360.0
 51
90.0
  0
LINE
  5
173
100
AcDbEntity
  8
AS88QU
  6
SOLID
 62
        7
100
AcDbLine
 10
973.194443783
 20
632.012643859
 30
0.0
 11
973.194443783
 21
688.012643859
 31
0.0
  0
ARC
  5
174
100
AcDbEntity
  8
AS88QU
  6
SOLID
 62
        7
100
AcDbCircle
 10
972.194443783
 20
688.012643859
 30
0.0
 40
1.0
100
AcDbArc
 50
0.0
 51
90.0
  0
LINE
  5
175
100
AcDbEntity
  8
AS88QU
  6
SOLID
 62
        7
100
AcDbLine
 10
977.194143447
 20
691.51264322
 30
0.0
 11
975.694143455
 21
690.012643235
 31
0.0
  0
LINE
  5
176
100
AcDbEntity
  8
AS88QU
  6
SOLID
 62
        7
100
AcDbLine
 10
1037.194883641
 20
715.815430709
 30
0.0
 11
1037.194883641
 21
718.815430709
 31
0.0
  0
LINE
  5
177
100
AcDbEntity
  8
AS88QU
  6
SOLID
 62
        7
100
AcDbLine
 10
1033.19444906
 20
637.012643859
 30
0.0
 11
1033.19444906
 21
657.012643859
 31
0.0
  0
ARC
  5
178
100
AcDbEntity
  8
AS88QU
  6
SOLID
 62
        7
100
AcDbCircle
 10
1032.19444906
 20
657.012643859
 30
0.0
 40
1.0
100
AcDbArc
 50
360.0
 51
90.0
  0
LINE
  5
179
100
AcDbEntity
  8
AS88QU
  6
SOLID
 62
        7
100
AcDbLine
 10
997.19444906
 20
641.012643859
 30
0.0
 11
986.19444906
 21
641.012643859
 31
0.0
  0
ARC
  5
17A
100
AcDbEntity
  8
AS88QU
  6
SOLID
 62
        7
100
AcDbCircle
 10
986.19444906
 20
640.012643859
 30
0.0
 40
1.0
100
AcDbArc
 50
90.0
 51
180.0
  0
LINE
  5
17B
100
AcDbEntity
  8
AS88QU
  6
SOLID
 62
        7
100
AcDbLine
 10
1008.19444906
 20
641.012643859
 30
0.0
 11
989.19444906
 21
641.012643859
 31
0.0
  0
LINE
  5
17C
100
AcDbEntity
  8
AS88QU
  6
SOLID
 62
        7
100
AcDbLine
 10
1009.19444906
 20
636.012643859
 30
0.0
 11
1009.19444906
 21
640.012643859
 31
0.0
  0
ARC
  5
17D
100
AcDbEntity
  8
AS88QU
  6
SOLID
 62
        7
100
AcDbCircle
 10
1008.19444906
 20
640.012643859
 30
0.0
 40
1.0
100
AcDbArc
 50
360.0
 51
90.0
  0
LINE
  5
17E
100
AcDbEntity
  8
AS88QU
  6
SOLID
 62
        7
100
AcDbLine
 10
985.19444906
 20
636.012643859
 30
0.0
 11
985.19444906
 21
640.012643859
 31
0.0
  0
LINE
  5
17F
100
AcDbEntity
  8
AS88QU
  6
SOLID
 62
        7
100
AcDbLine
 10
1030.19444906
 20
658.012643859
 30
0.0
 11
1067.194443783
 21
658.012643859
 31
0.0
  0
LINE
  5
180
100
AcDbEntity
  8
AS88QU
  6
SOLID
 62
        7
100
AcDbLine
 10
1029.19444906
 20
636.012643859
 30
0.0
 11
1029.19444906
 21
657.012643859
 31
0.0
  0
ARC
  5
181
100
AcDbEntity
  8
AS88QU
  6
SOLID
 62
        7
100
AcDbCircle
 10
1030.19444906
 20
657.012643859
 30
0.0
 40
1.0
100
AcDbArc
 50
90.0
 51
180.0
  0
LINE
  5
182
100
AcDbEntity
  8
AS88QU
  6
SOLID
 62
        7
100
AcDbLine
 10
1034.19444906
 20
636.012643859
 30
0.0
 11
1067.194443783
 21
636.012643859
 31
0.0
  0
ARC
  5
183
100
AcDbEntity
  8
AS88QU
  6
SOLID
 62
        7
100
AcDbCircle
 10
1034.19444906
 20
637.012643859
 30
0.0
 40
1.0
100
AcDbArc
 50
180.0
 51
270.0
  0
LINE
  5
184
100
AcDbEntity
  8
AS88QU
  6
SOLID
 62
        7
100
AcDbLine
 10
1028.19444906
 20
635.012643859
 30
0.0
 11
1010.19444906
 21
635.012643859
 31
0.0
  0
ARC
  5
185
100
AcDbEntity
  8
AS88QU
  6
SOLID
 62
        7
100
AcDbCircle
 10
1028.19444906
 20
636.012643859
 30
0.0
 40
1.0
100
AcDbArc
 50
270.0
 51
360.0
  0
ARC
  5
186
100
AcDbEntity
  8
AS88QU
  6
SOLID
 62
        7
100
AcDbCircle
 10
1010.19444906
 20
636.012643859
 30
0.0
 40
1.0
100
AcDbArc
 50
180.0
 51
270.0
  0
LINE
  5
187
100
AcDbEntity
  8
AS88QU
  6
SOLID
 62
        7
100
AcDbLine
 10
984.19444906
 20
635.012643859
 30
0.0
 11
978.194443783
 21
635.012643859
 31
0.0
  0
ARC
  5
188
100
AcDbEntity
  8
AS88QU
  6
SOLID
 62
        7
100
AcDbCircle
 10
984.19444906
 20
636.012643859
 30
0.0
 40
1.0
100
AcDbArc
 50
270.0
 51
360.0
  0
ARC
  5
189
100
AcDbEntity
  8
AS88QU
  6
SOLID
 62
        7
100
AcDbCircle
 10
978.194443783
 20
636.012643859
 30
0.0
 40
1.0
100
AcDbArc
 50
180.0
 51
270.0
  0
LINE
  5
18A
100
AcDbEntity
  8
AS88QU
  6
CENTER
 62
        7
100
AcDbLine
 10
997.19444906
 20
615.010998062
 30
0.0
 11
997.19444906
 21
654.163130012
 31
0.0
  0
LINE
  5
18B
100
AcDbEntity
  8
AS88QU
  6
SOLID
 62
        7
100
AcDbLine
 10
991.69444906
 20
631.012643859
 30
0.0
 11
991.69444906
 21
641.012643859
 31
0.0
  0
LINE
  5
18C
100
AcDbEntity
  8
AS88QU
  6
SOLID
 62
        7
100
AcDbLine
 10
1002.69444906
 20
631.012643859
 30
0.0
 11
1002.69444906
 21
641.012643859
 31
0.0
  0
LINE
  5
18D
100
AcDbEntity
  8
AS88QU
  6
SOLID
 62
        7
100
AcDbLine
 10
1034.694443783
 20
631.012643859
 30
0.0
 11
1034.694443783
 21
636.012643859
 31
0.0
  0
INSERT
  5
199
100
AcDbEntity
  8
0
100
AcDbBlockReference
  2
*H5
 10
0.0
 20
0.0
 30
0.0
  0
ARC
  5
19A
100
AcDbEntity
  8
AS88QU
  6
SOLID
 62
        7
100
AcDbCircle
 10
894.64447078
 20
678.012643859
 30
0.0
 40
1.0
100
AcDbArc
 50
192.728943873
 51
270.0
  0
ARC
  5
19B
100
AcDbEntity
  8
AS88QU
  6
SOLID
 62
        7
100
AcDbCircle
 10
952.19444906
 20
691.012643859
 30
0.0
 40
60.0
100
AcDbArc
 50
167.271056127
 51
192.728943873
  0
ARC
  5
19C
100
AcDbEntity
  8
AS88QU
  6
SOLID
 62
        7
100
AcDbCircle
 10
894.64447078
 20
704.012643859
 30
0.0
 40
1.0
100
AcDbArc
 50
90.0
 51
167.271056127
  0
LINE
  5
19D
100
AcDbEntity
  8
AS88QU
  6
SOLID
 62
        7
100
AcDbLine
 10
1069.194443783
 20
748.815430709
 30
0.0
 11
1069.194443783
 21
616.815900996
 31
0.0
  0
LINE
  5
19E
100
AcDbEntity
  8
AS88QU
  6
SOLID
 62
        7
100
AcDbLine
 10
1069.194443783
 20
737.015430518
 30
0.0
 11
1071.194003925
 21
737.015430518
 31
0.0
  0
LINE
  5
19F
100
AcDbEntity
  8
AS88QU
  6
SOLID
 62
        7
100
AcDbLine
 10
1074.494443735
 20
724.215436549
 30
0.0
 11
1072.994443735
 21
724.215436549
 31
0.0
  0
LINE
  5
1A0
100
AcDbEntity
  8
AS88QU
  6
SOLID
 62
        7
100
AcDbLine
 10
1074.494443735
 20
720.738382236
 30
0.0
 11
1074.494443735
 21
724.215436549
 31
0.0
  0
LINE
  5
1A1
100
AcDbEntity
  8
AS88QU
  6
SOLID
 62
        7
100
AcDbLine
 10
1072.994443735
 20
724.215436549
 30
0.0
 11
1072.994443735
 21
725.415436597
 31
0.0
  0
LINE
  5
1A2
100
AcDbEntity
  8
AS88QU
  6
SOLID
 62
        7
100
AcDbLine
 10
1072.994443735
 20
725.415436597
 30
0.0
 11
1074.494443735
 21
725.415436597
 31
0.0
  0
LINE
  5
1A3
100
AcDbEntity
  8
AS88QU
  6
SOLID
 62
        7
100
AcDbLine
 10
1074.494443735
 20
725.415436597
 30
0.0
 11
1074.494443735
 21
728.89249091
 31
0.0
  0
LINE
  5
1A4
100
AcDbEntity
  8
AS88QU
  6
SOLID
 62
        7
100
AcDbLine
 10
1074.494443735
 20
728.89249091
 30
0.0
 11
1071.194443783
 21
729.065436573
 31
0.0
  0
LINE
  5
1A5
100
AcDbEntity
  8
AS88QU
  6
SOLID
 62
        7
100
AcDbLine
 10
1071.194443783
 20
720.565436573
 30
0.0
 11
1074.494443735
 21
720.738382236
 31
0.0
  0
LINE
  5
1A6
100
AcDbEntity
  8
AS88QU
  6
CENTER
 62
        7
100
AcDbLine
 10
1088.194883473
 20
715.815442437
 30
0.0
 11
1093.082383282
 21
715.815442437
 31
0.0
  0
LINE
  5
1A7
100
AcDbEntity
  8
AS88QU
  6
SOLID
 62
        7
100
AcDbLine
 10
1071.194443783
 20
729.065436573
 30
0.0
 11
1071.194443783
 21
720.565436573
 31
0.0
  0
LINE
  5
1A8
100
AcDbEntity
  8
AS88QU
  6
SOLID
 62
        7
100
AcDbLine
 10
1071.194443783
 20
718.815430709
 30
0.0
 11
1097.194003925
 21
718.815430709
 31
0.0
  0
LINE
  5
1A9
100
AcDbEntity
  8
AS88QU
  6
SOLID
 62
        7
100
AcDbLine
 10
1096.194003925
 20
764.815430709
 30
0.0
 11
1096.194003925
 21
718.815430709
 31
0.0
  0
LINE
  5
1AA
100
AcDbEntity
  8
AS88QU
  6
SOLID
 62
        7
100
AcDbLine
 10
1097.194003925
 20
715.815430709
 30
0.0
 11
1071.194443783
 21
715.815430709
 31
0.0
  0
LINE
  5
1AB
100
AcDbEntity
  8
AS88QU
  6
SOLID
 62
        7
100
AcDbLine
 10
1097.194003925
 20
715.815430709
 30
0.0
 11
1097.194003925
 21
718.815430709
 31
0.0
  0
LINE
  5
1AC
100
AcDbEntity
  8
AS88QU
  6
SOLID
 62
        7
100
AcDbLine
 10
1071.194003925
 20
713.815449228
 30
0.0
 11
1071.194003925
 21
737.015430518
 31
0.0
  0
LINE
  5
1AD
100
AcDbEntity
  8
AS88QU
  6
SOLID
 62
        7
100
AcDbLine
 10
1071.194001105
 20
705.012643859
 30
0.0
 11
1071.194001105
 21
715.815430709
 31
0.0
  0
LINE
  5
1AE
100
AcDbEntity
  8
AS88QU
  6
SOLID
 62
        7
100
AcDbLine
 10
1076.193927589
 20
712.815449228
 30
0.0
 11
1076.193927589
 21
708.815449228
 31
0.0
  0
LINE
  5
1AF
100
AcDbEntity
  8
AS88QU
  6
SOLID
 62
        7
100
AcDbLine
 10
1074.693927589
 20
708.815449228
 30
0.0
 11
1074.693927589
 21
705.012643859
 31
0.0
  0
LINE
  5
1B0
100
AcDbEntity
  8
AS88QU
  6
SOLID
 62
        7
100
AcDbLine
 10
1076.193927589
 20
708.315449228
 30
0.0
 11
1074.693927589
 21
708.315449228
 31
0.0
  0
LINE
  5
1B1
100
AcDbEntity
  8
AS88QU
  6
SOLID
 62
        7
100
AcDbLine
 10
1074.693927589
 20
706.906358886
 30
0.0
 11
1076.193927589
 21
707.315449228
 31
0.0
  0
LINE
  5
1B2
100
AcDbEntity
  8
AS88QU
  6
SOLID
 62
        7
100
AcDbLine
 10
1076.193927589
 20
708.315449228
 30
0.0
 11
1076.193927589
 21
707.315449228
 31
0.0
  0
LINE
  5
1B3
100
AcDbEntity
  8
AS88QU
  6
SOLID
 62
        7
100
AcDbLine
 10
1076.193927589
 20
708.815449228
 30
0.0
 11
1071.194001105
 21
708.815449228
 31
0.0
  0
LINE
  5
1B4
100
AcDbEntity
  8
AS88QU
  6
SOLID
 62
        7
100
AcDbLine
 10
1075.193927589
 20
713.815449228
 30
0.0
 11
1071.194001105
 21
713.815449228
 31
0.0
  0
ARC
  5
1B5
100
AcDbEntity
  8
AS88QU
  6
SOLID
 62
        7
100
AcDbCircle
 10
1075.193927589
 20
712.815449228
 30
0.0
 40
1.0
100
AcDbArc
 50
360.0
 51
90.0
  0
LINE
  5
1B6
100
AcDbEntity
  8
AS88QU
  6
SOLID
 62
        7
100
AcDbLine
 10
1237.194438506
 20
678.012643859
 30
0.0
 11
1237.194438506
 21
688.012643859
 31
0.0
  0
LINE
  5
1B7
100
AcDbEntity
  8
AS88QU
  6
SOLID
 62
        7
100
AcDbLine
 10
1237.194438506
 20
694.012643859
 30
0.0
 11
1237.194438506
 21
704.012643859
 31
0.0
  0
LINE
  5
1B8
100
AcDbEntity
  8
AS88QU
  6
SOLID
 62
        7
100
AcDbLine
 10
1161.194443783
 20
677.012643859
 30
0.0
 11
1239.744416786
 21
677.012643859
 31
0.0
  0
LINE
  5
1B9
100
AcDbEntity
  8
AS88QU
  6
SOLID
 62
        7
100
AcDbLine
 10
1167.194388628
 20
629.012643855
 30
0.0
 11
1165.194388628
 21
631.012643855
 31
0.0
  0
LINE
  5
1BA
100
AcDbEntity
  8
AS88QU
  6
SOLID
 62
        7
100
AcDbLine
 10
1167.194388628
 20
629.012643861
 30
0.0
 11
1167.194388628
 21
614.012023447
 31
0.0
  0
LINE
  5
1BB
100
AcDbEntity
  8
AS88QU
  6
SOLID
 62
        7
100
AcDbLine
 10
1099.694361731
 20
631.012643859
 30
0.0
 11
1165.194361731
 21
631.012643859
 31
0.0
  0
LINE
  5
1BC
100
AcDbEntity
  8
AS88QU
  6
SOLID
 62
        7
100
AcDbLine
 10
1065.194443783
 20
631.012643859
 30
0.0
 11
969.194361731
 21
631.012643859
 31
0.0
  0
LINE
  5
1BD
100
AcDbEntity
  8
AS88QU
  6
SOLID
 62
        7
100
AcDbLine
 10
1067.194443783
 20
693.012643859
 30
0.0
 11
1236.194438506
 21
693.012643859
 31
0.0
  0
LINE
  5
1BE
100
AcDbEntity
  8
AS88QU
  6
SOLID
 62
        7
100
AcDbLine
 10
1065.194443783
 20
631.012648172
 30
0.0
 11
969.194594413
 21
631.012855201
 31
0.0
  0
LINE
  5
1BF
100
AcDbEntity
  8
AS88QU
  6
SOLID
 62
        7
100
AcDbLine
 10
967.194589906
 20
629.012859516
 30
0.0
 11
967.194546884
 21
609.063392418
 31
0.0
  0
LINE
  5
1C0
100
AcDbEntity
  8
AS88QU
  6
SOLID
 62
        7
100
AcDbLine
 10
967.194589906
 20
629.01285951
 30
0.0
 11
969.194594219
 21
631.012855197
 31
0.0
  0
LINE
  5
1C1
100
AcDbEntity
  8
AS88QU
  6
SOLID
 62
        7
100
AcDbLine
 10
988.965034732
 20
631.012643859
 30
0.0
 11
969.194388282
 21
631.012643859
 31
0.0
  0
ARC
  5
1C2
100
AcDbEntity
  8
AS88QU
  6
SOLID
 62
        7
100
AcDbCircle
 10
930.644399222
 20
516.309906381
 30
0.0
 40
2.255088235
100
AcDbArc
 50
53.226998109
 51
126.773001891
  0
ARC
  5
1C3
100
AcDbEntity
  8
AS88QU
  6
SOLID
 62
        7
100
AcDbCircle
 10
930.644399222
 20
515.571350648
 30
0.0
 40
2.255088235
100
AcDbArc
 50
233.226998109
 51
306.773001891
  0
LINE
  5
1C4
100
AcDbEntity
  8
AS88QU
  6
SOLID
 62
        7
100
AcDbLine
 10
929.294399169
 20
515.764994425
 30
0.0
 11
929.294399169
 21
518.116262604
 31
0.0
  0
LINE
  5
1C5
100
AcDbEntity
  8
AS88QU
  6
CENTER
 62
        7
100
AcDbLine
 10
934.694399383
 20
509.272069145
 30
0.0
 11
934.694399383
 21
522.121400047
 31
0.0
  0
ARC
  5
1C6
100
AcDbEntity
  8
AS88QU
  6
SOLID
 62
        7
100
AcDbCircle
 10
938.744399544
 20
515.571350648
 30
0.0
 40
2.255088235
100
AcDbArc
 50
233.226998109
 51
306.773001891
  0
LINE
  5
1C7
100
AcDbEntity
  8
AS88QU
  6
SOLID
 62
        7
100
AcDbLine
 10
927.194399383
 20
513.316262413
 30
0.0
 11
971.031881207
 21
513.316262413
 31
0.0
  0
ARC
  5
1C8
100
AcDbEntity
  8
AS88QU
  6
SOLID
 62
        7
100
AcDbCircle
 10
934.694399383
 20
521.663517334
 30
0.0
 40
8.347254921
100
AcDbArc
 50
251.127720906
 51
288.872279094
  0
LINE
  5
1C9
100
AcDbEntity
  8
AS88QU
  6
SOLID
 62
        7
100
AcDbLine
 10
929.294399169
 20
518.116262604
 30
0.0
 11
929.294399169
 21
513.764994425
 31
0.0
  0
LINE
  5
1CA
100
AcDbEntity
  8
AS88QU
  6
SOLID
 62
        7
100
AcDbLine
 10
927.194399383
 20
503.316262375
 30
0.0
 11
927.194399383
 21
513.316262413
 31
0.0
  0
LINE
  5
1CB
100
AcDbEntity
  8
AS88QU
  6
SOLID
 62
        7
100
AcDbLine
 10
937.394399491
 20
518.116262604
 30
0.0
 11
937.394399491
 21
513.764994425
 31
0.0
  0
ARC
  5
1CC
100
AcDbEntity
  8
AS88QU
  6
SOLID
 62
        7
100
AcDbCircle
 10
938.744399544
 20
516.309906381
 30
0.0
 40
2.255088235
100
AcDbArc
 50
53.226998109
 51
126.773001891
  0
LINE
  5
1CD
100
AcDbEntity
  8
AS88QU
  6
SOLID
 62
        7
100
AcDbLine
 10
930.644399222
 20
518.564994616
 30
0.0
 11
938.744399544
 21
518.564994616
 31
0.0
  0
LINE
  5
1CE
100
AcDbEntity
  8
AS88QU
  6
SOLID
 62
        7
100
AcDbLine
 10
931.994399276
 20
518.116262604
 30
0.0
 11
931.994399276
 21
513.764994425
 31
0.0
  0
ARC
  5
1CF
100
AcDbEntity
  8
AS88QU
  6
SOLID
 62
        7
100
AcDbCircle
 10
934.694399383
 20
510.217739695
 30
0.0
 40
8.347254921
100
AcDbArc
 50
71.127720906
 51
108.872279094
  0
LINE
  5
1D0
100
AcDbEntity
  8
AS88QU
  6
SOLID
 62
        7
100
AcDbLine
 10
940.094399598
 20
518.116262604
 30
0.0
 11
940.094399598
 21
513.764994425
 31
0.0
  0
LINE
  5
1D1
100
AcDbEntity
  8
AS88QU
  6
CENTER
 62
        7
100
AcDbLine
 10
934.694399383
 20
509.272069145
 30
0.0
 11
934.694399383
 21
522.121400047
 31
0.0
  0
ARC
  5
1D2
100
AcDbEntity
  8
AS88QU
  6
SOLID
 62
        7
100
AcDbCircle
 10
930.644399222
 20
516.309906381
 30
0.0
 40
2.255088235
100
AcDbArc
 50
53.226998109
 51
126.773001891
  0
LINE
  5
1D3
100
AcDbEntity
  8
AS88QU
  6
SOLID
 62
        7
100
AcDbLine
 10
930.644399222
 20
518.564994616
 30
0.0
 11
938.744399544
 21
518.564994616
 31
0.0
  0
LINE
  5
1D4
100
AcDbEntity
  8
AS88QU
  6
SOLID
 62
        7
100
AcDbLine
 10
931.994399276
 20
518.116262604
 30
0.0
 11
931.994399276
 21
513.764994425
 31
0.0
  0
ARC
  5
1D5
100
AcDbEntity
  8
AS88QU
  6
SOLID
 62
        7
100
AcDbCircle
 10
934.694399383
 20
510.217739695
 30
0.0
 40
8.347254921
100
AcDbArc
 50
71.127720906
 51
108.872279094
  0
ARC
  5
1D6
100
AcDbEntity
  8
AS88QU
  6
SOLID
 62
        7
100
AcDbCircle
 10
934.694399383
 20
521.663517334
 30
0.0
 40
8.347254921
100
AcDbArc
 50
251.127720906
 51
288.872279094
  0
ARC
  5
1D7
100
AcDbEntity
  8
AS88QU
  6
SOLID
 62
        7
100
AcDbCircle
 10
930.644399222
 20
515.571350648
 30
0.0
 40
2.255088235
100
AcDbArc
 50
233.226998109
 51
306.773001891
  0
LINE
  5
1D8
100
AcDbEntity
  8
AS88QU
  6
SOLID
 62
        7
100
AcDbLine
 10
929.294399169
 20
515.764994425
 30
0.0
 11
929.294399169
 21
518.116262604
 31
0.0
  0
LINE
  5
1D9
100
AcDbEntity
  8
AS88QU
  6
SOLID
 62
        7
100
AcDbLine
 10
929.294399169
 20
518.116262604
 30
0.0
 11
929.294399169
 21
513.764994425
 31
0.0
  0
LINE
  5
1DA
100
AcDbEntity
  8
AS88QU
  6
SOLID
 62
        7
100
AcDbLine
 10
927.194399383
 20
507.816262413
 30
0.0
 11
927.194399383
 21
513.316262413
 31
0.0
  0
LINE
  5
1DB
100
AcDbEntity
  8
AS88QU
  6
SOLID
 62
        7
100
AcDbLine
 10
927.194399383
 20
513.316262413
 30
0.0
 11
950.062104862
 21
513.316262413
 31
0.0
  0
LINE
  5
1DC
100
AcDbEntity
  8
AS88QU
  6
SOLID
 62
        7
100
AcDbLine
 10
927.194399383
 20
507.816262413
 30
0.0
 11
927.194399383
 21
513.316262413
 31
0.0
  0
LINE
  5
1DD
100
AcDbEntity
  8
AS88QU
  6
CENTER
 62
        7
100
AcDbLine
 10
934.694399383
 20
509.272069145
 30
0.0
 11
934.694399383
 21
522.121400047
 31
0.0
  0
LINE
  5
1DE
100
AcDbEntity
  8
AS88QU
  6
SOLID
 62
        7
100
AcDbLine
 10
974.963276494
 20
552.117108034
 30
0.0
 11
973.029140277
 21
515.211590501
 31
0.0
  0
ARC
  5
1DF
100
AcDbEntity
  8
AS88QU
  6
SOLID
 62
        7
100
AcDbCircle
 10
976.960543384
 20
552.0124368
 30
0.0
 40
2.0
100
AcDbArc
 50
90.0
 51
177.0
  0
LINE
  5
1E0
100
AcDbEntity
  8
AS88QU
  6
SOLID
 62
        7
100
AcDbLine
 10
995.062606469
 20
554.012436121
 30
0.0
 11
976.960535797
 21
554.012436121
 31
0.0
  0
LINE
  5
1E1
100
AcDbEntity
  8
AS88QU
  6
SOLID
 62
        7
100
AcDbLine
 10
1008.062606494
 20
554.012436121
 30
0.0
 11
1008.062606494
 21
562.012023321
 31
0.0
  0
LINE
  5
1E2
100
AcDbEntity
  8
AS88QU
  6
SOLID
 62
        7
100
AcDbLine
 10
1015.161936444
 20
552.117108034
 30
0.0
 11
1016.666529399
 21
523.407764209
 31
0.0
  0
LINE
  5
1E3
100
AcDbEntity
  8
AS88QU
  6
SOLID
 62
        7
100
AcDbLine
 10
995.062606469
 20
554.012436121
 30
0.0
 11
1013.164677141
 21
554.012436121
 31
0.0
  0
ARC
  5
1E4
100
AcDbEntity
  8
AS88QU
  6
SOLID
 62
        7
100
AcDbCircle
 10
1013.164685117
 20
552.0124368
 30
0.0
 40
2.0
100
AcDbArc
 50
3.0
 51
90.0
  0
ARC
  5
1E5
100
AcDbEntity
  8
AS88QU
  6
SOLID
 62
        7
100
AcDbCircle
 10
1018.663796211
 20
523.5124368
 30
0.0
 40
2.0
100
AcDbArc
 50
183.0
 51
270.0
  0
LINE
  5
1E6
100
AcDbEntity
  8
AS88QU
  6
SOLID
 62
        7
100
AcDbLine
 10
1018.663788298
 20
521.512436058
 30
0.0
 11
1161.460510052
 21
521.512436058
 31
0.0
  0
LINE
  5
1E7
100
AcDbEntity
  8
AS88QU
  6
SOLID
 62
        7
100
AcDbLine
 10
995.062606663
 20
562.512436138
 30
0.0
 11
972.562606663
 21
562.512436138
 31
0.0
  0
LINE
  5
1E8
100
AcDbEntity
  8
AS88QU
  6
SOLID
 62
        7
100
AcDbLine
 10
982.062606444
 20
554.012436121
 30
0.0
 11
982.062606444
 21
562.012023321
 31
0.0
  0
LINE
  5
1E9
100
AcDbEntity
  8
AS88QU
  6
SOLID
 62
        7
100
AcDbLine
 10
995.062606275
 20
562.512436138
 30
0.0
 11
1017.562606275
 21
562.512436138
 31
0.0
  0
LINE
  5
1EA
100
AcDbEntity
  8
AS88QU
  6
CENTER
 62
        7
100
AcDbLine
 10
995.062606469
 20
547.434412133
 30
0.0
 11
995.062606469
 21
626.63309684
 31
0.0
  0
LINE
  5
1EB
100
AcDbEntity
  8
AS88QU
  6
SOLID
 62
        7
100
AcDbLine
 10
995.062606469
 20
614.012023447
 30
0.0
 11
1012.06260643
 21
614.012023447
 31
0.0
  0
LINE
  5
1EC
100
AcDbEntity
  8
AS88QU
  6
SOLID
 62
        7
100
AcDbLine
 10
1015.062606488
 20
611.012023441
 30
0.0
 11
995.062606469
 21
611.012023441
 31
0.0
  0
LINE
  5
1ED
100
AcDbEntity
  8
AS88QU
  6
SOLID
 62
        7
100
AcDbLine
 10
974.963284315
 20
552.117108712
 30
0.0
 11
964.899996109
 21
516.941017343
 31
0.0
  0
LINE
  5
1EE
100
AcDbEntity
  8
AS88QU
  6
SOLID
 62
        7
100
AcDbLine
 10
995.062606275
 20
609.512436229
 30
0.0
 11
1017.562606275
 21
609.512436229
 31
0.0
  0
LINE
  5
1EF
100
AcDbEntity
  8
AS88QU
  6
SOLID
 62
        7
100
AcDbLine
 10
1015.062606508
 20
611.012023441
 30
0.0
 11
1015.062606508
 21
609.512023441
 31
0.0
  0
LINE
  5
1F0
100
AcDbEntity
  8
AS88QU
  6
SOLID
 62
        7
100
AcDbLine
 10
1017.562606275
 20
609.512436229
 30
0.0
 11
1017.562606275
 21
562.512436138
 31
0.0
  0
LINE
  5
1F1
100
AcDbEntity
  8
AS88QU
  6
SOLID
 62
        7
100
AcDbLine
 10
975.062662003
 20
611.012023441
 30
0.0
 11
995.062606469
 21
611.012023441
 31
0.0
  0
LINE
  5
1F2
100
AcDbEntity
  8
AS88QU
  6
SOLID
 62
        7
100
AcDbLine
 10
995.062606663
 20
609.512436229
 30
0.0
 11
972.562606663
 21
609.512436229
 31
0.0
  0
LINE
  5
1F3
100
AcDbEntity
  8
AS88QU
  6
SOLID
 62
        7
100
AcDbLine
 10
975.062662003
 20
611.012491902
 30
0.0
 11
991.062220658
 21
611.012491902
 31
0.0
  0
LINE
  5
1F4
100
AcDbEntity
  8
AS88QU
  6
SOLID
 62
        7
100
AcDbLine
 10
978.06260643
 20
614.012023447
 30
0.0
 11
995.062606469
 21
614.012023447
 31
0.0
  0
LINE
  5
1F5
100
AcDbEntity
  8
AS88QU
  6
SOLID
 62
        7
100
AcDbLine
 10
1002.568146107
 20
615.21201359
 30
0.0
 11
987.557038662
 21
615.21201359
 31
0.0
  0
LINE
  5
1F6
100
AcDbEntity
  8
AS88QU
  6
SOLID
 62
        7
100
AcDbLine
 10
987.557038633
 20
615.21201359
 30
0.0
 11
987.557038633
 21
619.531457144
 31
0.0
  0
LINE
  5
1F7
100
AcDbEntity
  8
AS88QU
  6
SOLID
 62
        7
100
AcDbLine
 10
991.309815501
 20
619.531457152
 30
0.0
 11
991.309815501
 21
615.212013599
 31
0.0
  0
LINE
  5
1F8
100
AcDbEntity
  8
AS88QU
  6
SOLID
 62
        7
100
AcDbLine
 10
989.2476205
 20
615.21201359
 30
0.0
 11
989.2476205
 21
614.01202345
 31
0.0
  0
ARC
  5
1F9
100
AcDbEntity
  8
AS88QU
  6
SOLID
 62
        7
100
AcDbCircle
 10
989.43343486
 20
616.789444806
 30
0.0
 40
3.322569529
100
AcDbArc
 50
55.615750846
 51
124.384249154
  0
ARC
  5
1FA
100
AcDbEntity
  8
AS88QU
  6
SOLID
 62
        7
100
AcDbCircle
 10
995.062600151
 20
607.692571166
 30
0.0
 40
12.419443168
100
AcDbArc
 50
72.412045324
 51
107.587954676
  0
LINE
  5
1FB
100
AcDbEntity
  8
AS88QU
  6
SOLID
 62
        7
100
AcDbLine
 10
1000.691757673
 20
620.112013784
 30
0.0
 11
989.433427089
 21
620.112013784
 31
0.0
  0
LINE
  5
1FC
100
AcDbEntity
  8
AS88QU
  6
SOLID
 62
        7
100
AcDbLine
 10
967.194589906
 20
629.012859516
 30
0.0
 11
967.194570711
 21
620.112013784
 31
0.0
  0
LINE
  5
1FD
100
AcDbEntity
  8
AS88QU
  6
SOLID
 62
        7
100
AcDbLine
 10
998.815369238
 20
619.531457152
 30
0.0
 11
998.815369238
 21
615.212013599
 31
0.0
  0
ARC
  5
1FE
100
AcDbEntity
  8
AS88QU
  6
SOLID
 62
        7
100
AcDbCircle
 10
1000.691765443
 20
616.789444806
 30
0.0
 40
3.322569529
100
AcDbArc
 50
55.615750846
 51
124.384249154
  0
LINE
  5
1FF
100
AcDbEntity
  8
AS88QU
  6
SOLID
 62
        7
100
AcDbLine
 10
1000.877592438
 20
615.21201359
 30
0.0
 11
1000.877592438
 21
614.01202345
 31
0.0
  0
LINE
  5
200
100
AcDbEntity
  8
AS88QU
  6
SOLID
 62
        7
100
AcDbLine
 10
1002.568146107
 20
619.531457152
 30
0.0
 11
1002.568146107
 21
615.212013599
 31
0.0
  0
LINE
  5
201
100
AcDbEntity
  8
AS88QU
  6
SOLID
 62
        7
100
AcDbLine
 10
1205.194482936
 20
491.816262375
 30
0.0
 11
1067.194474301
 21
491.816262375
 31
0.0
  0
LINE
  5
202
100
AcDbEntity
  8
AS88QU
  6
SOLID
 62
        7
100
AcDbLine
 10
972.562606426
 20
562.512435245
 30
0.0
 11
972.562606426
 21
609.512435245
 31
0.0
  0
LINE
  5
203
100
AcDbEntity
  8
AS88QU
  6
SOLID
 62
        7
100
AcDbLine
 10
975.062662003
 20
609.51202348
 30
0.0
 11
975.062662003
 21
611.012491902
 31
0.0
  0
LINE
  5
204
100
AcDbEntity
  8
AS88QU
  6
SOLID
 62
        7
100
AcDbLine
 10
1008.062606494
 20
554.012436121
 30
0.0
 11
1008.062606494
 21
562.012023321
 31
0.0
  0
LINE
  5
205
100
AcDbEntity
  8
AS88QU
  6
SOLID
 62
        7
100
AcDbLine
 10
1162.561692249
 20
609.512436229
 30
0.0
 11
1162.561692249
 21
562.512436138
 31
0.0
  0
LINE
  5
206
100
AcDbEntity
  8
AS88QU
  6
SOLID
 62
        7
100
AcDbLine
 10
1205.16102203
 20
552.117108034
 30
0.0
 11
1207.194488183
 21
513.316262413
 31
0.0
  0
ARC
  5
207
100
AcDbEntity
  8
AS88QU
  6
SOLID
 62
        7
100
AcDbCircle
 10
1197.194474301
 20
486.816262375
 30
0.0
 40
5.0
100
AcDbArc
 50
90.0
 51
180.0
  0
ARC
  5
208
100
AcDbEntity
  8
AS88QU
  6
SOLID
 62
        7
100
AcDbCircle
 10
1203.16375514
 20
552.0124368
 30
0.0
 40
2.0
100
AcDbArc
 50
3.0
 51
90.0
  0
LINE
  5
209
100
AcDbEntity
  8
AS88QU
  6
SOLID
 62
        7
100
AcDbLine
 10
1185.061692055
 20
554.012436121
 30
0.0
 11
1203.163762727
 21
554.012436121
 31
0.0
  0
LINE
  5
20A
100
AcDbEntity
  8
AS88QU
  6
SOLID
 62
        7
100
AcDbLine
 10
1172.061692029
 20
554.012436121
 30
0.0
 11
1172.061692029
 21
562.012023321
 31
0.0
  0
LINE
  5
20B
100
AcDbEntity
  8
AS88QU
  6
CENTER
 62
        7
100
AcDbLine
 10
957.194443783
 20
-17.183849117
 30
0.0
 11
1000.022599301
 21
-17.183849117
 31
0.0
  0
LINE
  5
20C
100
AcDbEntity
  8
AS88QU
  6
SOLID
 62
        7
100
AcDbLine
 10
962.688049008
 20
196.876150518
 30
0.0
 11
967.194443783
 21
196.876150518
 31
0.0
  0
LINE
  5
20D
100
AcDbEntity
  8
AS88QU
  6
SOLID
 62
        7
100
AcDbLine
 10
962.688049008
 20
205.786151065
 30
0.0
 11
967.194443783
 21
205.786151065
 31
0.0
  0
LINE
  5
20E
100
AcDbEntity
  8
AS88QU
  6
SOLID
 62
        7
100
AcDbLine
 10
967.194443783
 20
208.756151247
 30
0.0
 11
962.688049008
 21
208.756151247
 31
0.0
  0
LINE
  5
20F
100
AcDbEntity
  8
AS88QU
  6
SOLID
 62
        7
100
AcDbLine
 10
962.688049008
 20
208.756151247
 30
0.0
 11
967.194443783
 21
208.756151247
 31
0.0
  0
LINE
  5
210
100
AcDbEntity
  8
AS88QU
  6
SOLID
 62
        7
100
AcDbLine
 10
967.194443783
 20
208.756151247
 30
0.0
 11
962.688049008
 21
208.756151247
 31
0.0
  0
LINE
  5
211
100
AcDbEntity
  8
AS88QU
  6
SOLID
 62
        7
100
AcDbLine
 10
962.688049008
 20
208.756151247
 30
0.0
 11
967.194443783
 21
208.756151247
 31
0.0
  0
LINE
  5
212
100
AcDbEntity
  8
AS88QU
  6
SOLID
 62
        7
100
AcDbLine
 10
962.688049008
 20
205.786151065
 30
0.0
 11
967.194443783
 21
205.786151065
 31
0.0
  0
ARC
  5
213
100
AcDbEntity
  8
AS88QU
  6
SOLID
 62
        7
100
AcDbCircle
 10
964.675040895
 20
198.361150609
 30
0.0
 40
2.480597112
100
AcDbArc
 50
143.226998109
 51
216.773001891
  0
LINE
  5
214
100
AcDbEntity
  8
AS88QU
  6
SOLID
 62
        7
100
AcDbLine
 10
962.688049008
 20
199.8461507
 30
0.0
 11
967.194443783
 21
199.8461507
 31
0.0
  0
LINE
  5
215
100
AcDbEntity
  8
AS88QU
  6
SOLID
 62
        7
100
AcDbLine
 10
1029.494364891
 20
248.616320112
 30
0.0
 11
1104.894522676
 21
248.616320112
 31
0.0
  0
LINE
  5
216
100
AcDbEntity
  8
AS88QU
  6
SOLID
 62
        7
100
AcDbLine
 10
1029.494364891
 20
299.016151646
 30
0.0
 11
1104.894522676
 21
299.016151646
 31
0.0
  0
LINE
  5
217
100
AcDbEntity
  8
AS88QU
  6
SOLID
 62
        7
100
AcDbLine
 10
1113.881789625
 20
299.016151646
 30
0.0
 11
1113.881789625
 21
248.616320112
 31
0.0
  0
LINE
  5
218
100
AcDbEntity
  8
AS88QU
  6
SOLID
 62
        7
100
AcDbLine
 10
1122.581245709
 20
299.016151646
 30
0.0
 11
1122.581245709
 21
248.616320112
 31
0.0
  0
LINE
  5
219
100
AcDbEntity
  8
AS88QU
  6
SOLID
 62
        7
100
AcDbLine
 10
1104.894491231
 20
299.016151646
 30
0.0
 11
1104.894491231
 21
248.616320112
 31
0.0
  0
LINE
  5
21A
100
AcDbEntity
  8
AS88QU
  6
SOLID
 62
        7
100
AcDbLine
 10
1095.674760079
 20
299.016151646
 30
0.0
 11
1095.674760079
 21
248.616320112
 31
0.0
  0
LINE
  5
21B
100
AcDbEntity
  8
AS88QU
  6
SOLID
 62
        7
100
AcDbLine
 10
1086.279438734
 20
299.016151646
 30
0.0
 11
1086.279438734
 21
248.616320112
 31
0.0
  0
LINE
  5
21C
100
AcDbEntity
  8
AS88QU
  6
SOLID
 62
        7
100
AcDbLine
 10
1076.766452324
 20
299.016151646
 30
0.0
 11
1076.766452324
 21
248.616320112
 31
0.0
  0
LINE
  5
21D
100
AcDbEntity
  8
AS88QU
  6
SOLID
 62
        7
100
AcDbLine
 10
1116.51542004
 20
257.943149803
 30
0.0
 11
974.482556038
 21
257.943149803
 31
0.0
  0
LINE
  5
21E
100
AcDbEntity
  8
AS88QU
  6
SOLID
 62
        7
100
AcDbLine
 10
1116.51542004
 20
268.023150258
 30
0.0
 11
974.468158984
 21
268.023150258
 31
0.0
  0
LINE
  5
21F
100
AcDbEntity
  8
AS88QU
  6
SOLID
 62
        7
100
AcDbLine
 10
1017.873467526
 20
257.943149803
 30
0.0
 11
1159.906331528
 21
257.943149803
 31
0.0
  0
LINE
  5
220
100
AcDbEntity
  8
AS88QU
  6
SOLID
 62
        7
100
AcDbLine
 10
1017.873467526
 20
268.023150258
 30
0.0
 11
1159.920728582
 21
268.023150258
 31
0.0
  0
LINE
  5
221
100
AcDbEntity
  8
AS88QU
  6
SOLID
 62
        7
100
AcDbLine
 10
1017.873467526
 20
257.943096397
 30
0.0
 11
1159.906331528
 21
257.943096397
 31
0.0
  0
LINE
  5
222
100
AcDbEntity
  8
AS88QU
  6
SOLID
 62
        7
100
AcDbLine
 10
1116.51542004
 20
288.183151169
 30
0.0
 11
974.439364876
 21
288.183151169
 31
0.0
  0
LINE
  5
223
100
AcDbEntity
  8
AS88QU
  6
SOLID
 62
        7
100
AcDbLine
 10
1020.507097941
 20
299.016151646
 30
0.0
 11
1020.507097941
 21
248.616320112
 31
0.0
  0
LINE
  5
224
100
AcDbEntity
  8
AS88QU
  6
SOLID
 62
        7
100
AcDbLine
 10
1011.807641858
 20
299.016151646
 30
0.0
 11
1011.807641858
 21
248.616320112
 31
0.0
  0
LINE
  5
225
100
AcDbEntity
  8
AS88QU
  6
SOLID
 62
        7
100
AcDbLine
 10
1003.449663011
 20
299.016151646
 30
0.0
 11
1003.449663011
 21
248.616320112
 31
0.0
  0
LINE
  5
226
100
AcDbEntity
  8
AS88QU
  6
SOLID
 62
        7
100
AcDbLine
 10
1116.51542004
 20
278.103150714
 30
0.0
 11
974.45376193
 21
278.103150714
 31
0.0
  0
LINE
  5
227
100
AcDbEntity
  8
AS88QU
  6
SOLID
 62
        7
100
AcDbLine
 10
1020.507066574
 20
299.016151646
 30
0.0
 11
1020.507061358
 21
248.616320112
 31
0.0
  0
LINE
  5
228
100
AcDbEntity
  8
AS88QU
  6
SOLID
 62
        7
100
AcDbLine
 10
1029.494364969
 20
299.016151646
 30
0.0
 11
1029.494359752
 21
248.616320112
 31
0.0
  0
LINE
  5
229
100
AcDbEntity
  8
AS88QU
  6
SOLID
 62
        7
100
AcDbLine
 10
1038.714096121
 20
299.016151646
 30
0.0
 11
1038.714090904
 21
248.616320112
 31
0.0
  0
LINE
  5
22A
100
AcDbEntity
  8
AS88QU
  6
SOLID
 62
        7
100
AcDbLine
 10
1048.109417465
 20
299.016151646
 30
0.0
 11
1048.109412249
 21
248.616320112
 31
0.0
  0
LINE
  5
22B
100
AcDbEntity
  8
AS88QU
  6
SOLID
 62
        7
100
AcDbLine
 10
1057.622403876
 20
299.016151646
 30
0.0
 11
1057.622398659
 21
248.616320112
 31
0.0
  0
LINE
  5
22C
100
AcDbEntity
  8
AS88QU
  6
SOLID
 62
        7
100
AcDbLine
 10
1017.873467526
 20
278.103150714
 30
0.0
 11
1159.935125636
 21
278.103150714
 31
0.0
  0
LINE
  5
22D
100
AcDbEntity
  8
AS88QU
  6
SOLID
 62
        7
100
AcDbLine
 10
1017.873467526
 20
288.183151169
 30
0.0
 11
1159.94952269
 21
288.183151169
 31
0.0
  0
LINE
  5
22E
100
AcDbEntity
  8
AS88QU
  6
SOLID
 62
        7
100
AcDbLine
 10
1029.494364969
 20
299.016151646
 30
0.0
 11
1029.494359752
 21
248.616320112
 31
0.0
  0
LINE
  5
22F
100
AcDbEntity
  8
AS88QU
  6
SOLID
 62
        7
100
AcDbLine
 10
1038.714096121
 20
299.016151646
 30
0.0
 11
1038.714090904
 21
248.616320112
 31
0.0
  0
LINE
  5
230
100
AcDbEntity
  8
AS88QU
  6
SOLID
 62
        7
100
AcDbLine
 10
1164.96236208
 20
552.117108034
 30
0.0
 11
1163.457769122
 21
523.407764145
 31
0.0
  0
LINE
  5
231
100
AcDbEntity
  8
AS88QU
  6
SOLID
 62
        7
100
AcDbLine
 10
1185.061692055
 20
554.012436121
 30
0.0
 11
1166.959621382
 21
554.012436121
 31
0.0
  0
ARC
  5
232
100
AcDbEntity
  8
AS88QU
  6
SOLID
 62
        7
100
AcDbCircle
 10
1166.959613407
 20
552.0124368
 30
0.0
 40
2.0
100
AcDbArc
 50
90.0
 51
177.0
  0
LINE
  5
233
100
AcDbEntity
  8
AS88QU
  6
SOLID
 62
        7
100
AcDbLine
 10
1185.061691861
 20
562.512436138
 30
0.0
 11
1207.561691861
 21
562.512436138
 31
0.0
  0
LINE
  5
234
100
AcDbEntity
  8
AS88QU
  6
SOLID
 62
        7
100
AcDbLine
 10
1198.06169208
 20
554.012436121
 30
0.0
 11
1198.06169208
 21
562.012023321
 31
0.0
  0
LINE
  5
235
100
AcDbEntity
  8
AS88QU
  6
SOLID
 62
        7
100
AcDbLine
 10
1185.061692249
 20
562.512436138
 30
0.0
 11
1162.561692249
 21
562.512436138
 31
0.0
  0
LINE
  5
236
100
AcDbEntity
  8
AS88QU
  6
CENTER
 62
        7
100
AcDbLine
 10
1185.061692054
 20
547.434412133
 30
0.0
 11
1185.061692054
 21
626.63309684
 31
0.0
  0
LINE
  5
237
100
AcDbEntity
  8
AS88QU
  6
SOLID
 62
        7
100
AcDbLine
 10
1207.561692098
 20
562.512435245
 30
0.0
 11
1207.561692098
 21
609.512435245
 31
0.0
  0
LINE
  5
238
100
AcDbEntity
  8
AS88QU
  6
SOLID
 62
        7
100
AcDbLine
 10
1172.061692029
 20
554.012436121
 30
0.0
 11
1172.061692029
 21
562.012023321
 31
0.0
  0
LINE
  5
239
100
AcDbEntity
  8
AS88QU
  6
SOLID
 62
        7
100
AcDbLine
 10
1202.061692087
 20
614.012023441
 30
0.0
 11
1202.061692087
 21
611.012023441
 31
0.0
  0
LINE
  5
23A
100
AcDbEntity
  8
AS88QU
  6
SOLID
 62
        7
100
AcDbLine
 10
1185.061692055
 20
614.012023447
 30
0.0
 11
1012.062606502
 21
614.012023447
 31
0.0
  0
LINE
  5
23B
100
AcDbEntity
  8
AS88QU
  6
SOLID
 62
        7
100
AcDbLine
 10
1015.062606508
 20
611.012023441
 30
0.0
 11
1185.061692055
 21
611.012023441
 31
0.0
  0
LINE
  5
23C
100
AcDbEntity
  8
AS88QU
  6
SOLID
 62
        7
100
AcDbLine
 10
978.062606437
 20
614.012023441
 30
0.0
 11
978.062606437
 21
611.012023441
 31
0.0
  0
LINE
  5
23D
100
AcDbEntity
  8
AS88QU
  6
SOLID
 62
        7
100
AcDbLine
 10
1185.061692249
 20
609.512436229
 30
0.0
 11
1162.561692249
 21
609.512436229
 31
0.0
  0
LINE
  5
23E
100
AcDbEntity
  8
AS88QU
  6
SOLID
 62
        7
100
AcDbLine
 10
1165.061692016
 20
611.012023441
 30
0.0
 11
1165.061692016
 21
609.512023441
 31
0.0
  0
LINE
  5
23F
100
AcDbEntity
  8
AS88QU
  6
SOLID
 62
        7
100
AcDbLine
 10
969.194498938
 20
551.011971748
 30
0.0
 11
974.647123214
 21
551.011971748
 31
0.0
  0
LINE
  5
240
100
AcDbEntity
  8
AS88QU
  6
SOLID
 62
        7
100
AcDbLine
 10
1205.061636521
 20
611.012023441
 30
0.0
 11
1185.061692055
 21
611.012023441
 31
0.0
  0
LINE
  5
241
100
AcDbEntity
  8
AS88QU
  6
SOLID
 62
        7
100
AcDbLine
 10
1185.061691861
 20
609.512436229
 30
0.0
 11
1207.561691861
 21
609.512436229
 31
0.0
  0
LINE
  5
242
100
AcDbEntity
  8
AS88QU
  6
SOLID
 62
        7
100
AcDbLine
 10
1205.061636521
 20
611.012491902
 30
0.0
 11
1189.062077866
 21
611.012491902
 31
0.0
  0
LINE
  5
243
100
AcDbEntity
  8
AS88QU
  6
SOLID
 62
        7
100
AcDbLine
 10
1202.061692094
 20
614.012023447
 30
0.0
 11
1185.061692055
 21
614.012023447
 31
0.0
  0
LINE
  5
244
100
AcDbEntity
  8
AS88QU
  6
SOLID
 62
        7
100
AcDbLine
 10
929.194465665
 20
491.816262375
 30
0.0
 11
1067.194474301
 21
491.816262375
 31
0.0
  0
LINE
  5
245
100
AcDbEntity
  8
AS88QU
  6
SOLID
 62
        7
100
AcDbLine
 10
1048.109417465
 20
299.016151646
 30
0.0
 11
1048.109412249
 21
248.616320112
 31
0.0
  0
LINE
  5
246
100
AcDbEntity
  8
AS88QU
  6
SOLID
 62
        7
100
AcDbLine
 10
1177.556152417
 20
615.21201359
 30
0.0
 11
1192.567259862
 21
615.21201359
 31
0.0
  0
LINE
  5
247
100
AcDbEntity
  8
AS88QU
  6
SOLID
 62
        7
100
AcDbLine
 10
1192.567259891
 20
615.21201359
 30
0.0
 11
1192.567259891
 21
619.531457144
 31
0.0
  0
LINE
  5
248
100
AcDbEntity
  8
AS88QU
  6
SOLID
 62
        7
100
AcDbLine
 10
1188.814475234
 20
619.531457704
 30
0.0
 11
1188.814475234
 21
615.21201415
 31
0.0
  0
LINE
  5
249
100
AcDbEntity
  8
AS88QU
  6
SOLID
 62
        7
100
AcDbLine
 10
1190.876698434
 20
614.012024
 30
0.0
 11
1190.876698434
 21
615.212014141
 31
0.0
  0
LINE
  5
24A
100
AcDbEntity
  8
AS88QU
  6
SOLID
 62
        7
100
AcDbLine
 10
1181.308929286
 20
619.531457152
 30
0.0
 11
1181.308929286
 21
615.212013599
 31
0.0
  0
LINE
  5
24B
100
AcDbEntity
  8
AS88QU
  6
SOLID
 62
        7
100
AcDbLine
 10
1179.246706085
 20
615.21201359
 30
0.0
 11
1179.246706085
 21
614.01202345
 31
0.0
  0
LINE
  5
24C
100
AcDbEntity
  8
AS88QU
  6
SOLID
 62
        7
100
AcDbLine
 10
1177.556152417
 20
619.531457152
 30
0.0
 11
1177.556152417
 21
615.212013599
 31
0.0
  0
LINE
  5
24D
100
AcDbEntity
  8
AS88QU
  6
SOLID
 62
        7
100
AcDbLine
 10
1205.061636521
 20
609.51202348
 30
0.0
 11
1205.061636521
 21
611.012491902
 31
0.0
  0
LINE
  5
24E
100
AcDbEntity
  8
AS88QU
  6
SOLID
 62
        7
100
AcDbLine
 10
1167.194297661
 20
629.012859516
 30
0.0
 11
1167.194330011
 21
614.012023447
 31
0.0
  0
ARC
  5
24F
100
AcDbEntity
  8
AS88QU
  6
SOLID
 62
        7
100
AcDbCircle
 10
1190.690863664
 20
616.789444806
 30
0.0
 40
3.322569529
100
AcDbArc
 50
55.615750846
 51
124.384249154
  0
ARC
  5
250
100
AcDbEntity
  8
AS88QU
  6
SOLID
 62
        7
100
AcDbCircle
 10
1185.061698372
 20
607.692571166
 30
0.0
 40
12.419443168
100
AcDbArc
 50
72.412045324
 51
107.587954676
  0
LINE
  5
251
100
AcDbEntity
  8
AS88QU
  6
SOLID
 62
        7
100
AcDbLine
 10
942.194474301
 20
491.816262375
 30
0.0
 11
942.194474301
 21
260.816150883
 31
0.0
  0
LINE
  5
252
100
AcDbEntity
  8
AS88QU
  6
SOLID
 62
        7
100
AcDbLine
 10
1179.432540851
 20
620.112013784
 30
0.0
 11
1190.690871435
 21
620.112013784
 31
0.0
  0
LINE
  5
253
100
AcDbEntity
  8
AS88QU
  6
SOLID
 62
        7
100
AcDbLine
 10
1281.694442649
 20
-121.987946293
 30
0.0
 11
1281.694442649
 21
123.012053707
 31
0.0
  0
LINE
  5
254
100
AcDbEntity
  8
AS88QU
  6
SOLID
 62
        7
100
AcDbLine
 10
1212.694442649
 20
-121.987946293
 30
0.0
 11
1218.576857286
 21
-108.863634846
 31
0.0
  0
LINE
  5
255
100
AcDbEntity
  8
AS88QU
  6
SOLID
 62
        7
100
AcDbLine
 10
1275.812028012
 20
-108.863634846
 30
0.0
 11
1275.812028012
 21
123.012053707
 31
0.0
  0
LINE
  5
256
100
AcDbEntity
  8
AS88QU
  6
SOLID
 62
        7
100
AcDbLine
 10
1272.576857286
 20
-108.863634846
 30
0.0
 11
1272.576857286
 21
123.012053707
 31
0.0
  0
LINE
  5
257
100
AcDbEntity
  8
AS88QU
  6
SOLID
 62
        7
100
AcDbLine
 10
1266.694442649
 20
-121.987946293
 30
0.0
 11
1266.694442649
 21
123.012053707
 31
0.0
  0
LINE
  5
258
100
AcDbEntity
  8
AS88QU
  6
SOLID
 62
        7
100
AcDbLine
 10
1263.694442649
 20
-121.987946293
 30
0.0
 11
1263.694442649
 21
123.012053707
 31
0.0
  0
LINE
  5
259
100
AcDbEntity
  8
AS88QU
  6
SOLID
 62
        7
100
AcDbLine
 10
1257.812028012
 20
-108.863634846
 30
0.0
 11
1257.812028012
 21
123.012053707
 31
0.0
  0
LINE
  5
25A
100
AcDbEntity
  8
AS88QU
  6
SOLID
 62
        7
100
AcDbLine
 10
1254.576857286
 20
-108.863634846
 30
0.0
 11
1254.576857286
 21
123.012053707
 31
0.0
  0
LINE
  5
25B
100
AcDbEntity
  8
AS88QU
  6
SOLID
 62
        7
100
AcDbLine
 10
1287.194381137
 20
-121.987946293
 30
0.0
 11
1281.694442649
 21
-121.987946293
 31
0.0
  0
LINE
  5
25C
100
AcDbEntity
  8
AS88QU
  6
SOLID
 62
        7
100
AcDbLine
 10
1266.694442649
 20
-121.987946293
 30
0.0
 11
1263.694442649
 21
-121.987946293
 31
0.0
  0
LINE
  5
25D
100
AcDbEntity
  8
AS88QU
  6
SOLID
 62
        7
100
AcDbLine
 10
1207.194442649
 20
-121.987946293
 30
0.0
 11
1207.194442649
 21
123.012053707
 31
0.0
  0
LINE
  5
25E
100
AcDbEntity
  8
AS88QU
  6
SOLID
 62
        7
100
AcDbLine
 10
1248.694442649
 20
-121.987946293
 30
0.0
 11
1248.694442649
 21
123.012053707
 31
0.0
  0
LINE
  5
25F
100
AcDbEntity
  8
AS88QU
  6
SOLID
 62
        7
100
AcDbLine
 10
1218.576857286
 20
-98.863634846
 30
0.0
 11
1221.812028012
 21
-98.863634846
 31
0.0
  0
LINE
  5
260
100
AcDbEntity
  8
AS88QU
  6
SOLID
 62
        7
100
AcDbLine
 10
1239.812028012
 20
-98.863634846
 30
0.0
 11
1236.576857286
 21
-98.863634846
 31
0.0
  0
LINE
  5
261
100
AcDbEntity
  8
AS88QU
  6
SOLID
 62
        7
100
AcDbLine
 10
1230.694442649
 20
-121.987946293
 30
0.0
 11
1236.576857286
 21
-108.863634846
 31
0.0
  0
LINE
  5
262
100
AcDbEntity
  8
AS88QU
  6
SOLID
 62
        7
100
AcDbLine
 10
1281.694442649
 20
-121.987946293
 30
0.0
 11
1275.812028012
 21
-108.863634846
 31
0.0
  0
LINE
  5
263
100
AcDbEntity
  8
AS88QU
  6
SOLID
 62
        7
100
AcDbLine
 10
1266.694442649
 20
-121.987946293
 30
0.0
 11
1272.576857286
 21
-108.863634846
 31
0.0
  0
LINE
  5
264
100
AcDbEntity
  8
AS88QU
  6
SOLID
 62
        7
100
AcDbLine
 10
1275.812028012
 20
-98.863634846
 30
0.0
 11
1272.576857286
 21
-98.863634846
 31
0.0
  0
LINE
  5
265
100
AcDbEntity
  8
AS88QU
  6
SOLID
 62
        7
100
AcDbLine
 10
1248.694442649
 20
-121.987946293
 30
0.0
 11
1254.576857286
 21
-108.863634846
 31
0.0
  0
LINE
  5
266
100
AcDbEntity
  8
AS88QU
  6
SOLID
 62
        7
100
AcDbLine
 10
1254.576857286
 20
-98.863634846
 30
0.0
 11
1257.812028012
 21
-98.863634846
 31
0.0
  0
LINE
  5
267
100
AcDbEntity
  8
AS88QU
  6
SOLID
 62
        7
100
AcDbLine
 10
1263.694442649
 20
-121.987946293
 30
0.0
 11
1257.812028012
 21
-108.863634846
 31
0.0
  0
LINE
  5
268
100
AcDbEntity
  8
AS88QU
  6
SOLID
 62
        7
100
AcDbLine
 10
1192.194474301
 20
240.816214592
 30
0.0
 11
1192.194474301
 21
488.816262375
 31
0.0
  0
LINE
  5
269
100
AcDbEntity
  8
AS88QU
  6
SOLID
 62
        7
100
AcDbLine
 10
1227.694442649
 20
-121.987946293
 30
0.0
 11
1221.812028012
 21
-108.863634846
 31
0.0
  0
LINE
  5
26A
100
AcDbEntity
  8
AS88QU
  6
SOLID
 62
        7
100
AcDbLine
 10
1248.694442649
 20
-121.987946293
 30
0.0
 11
1245.694442649
 21
-121.987946293
 31
0.0
  0
LINE
  5
26B
100
AcDbEntity
  8
AS88QU
  6
SOLID
 62
        7
100
AcDbLine
 10
1207.194504161
 20
-121.987946293
 30
0.0
 11
1212.694442649
 21
-121.987946293
 31
0.0
  0
LINE
  5
26C
100
AcDbEntity
  8
AS88QU
  6
SOLID
 62
        7
100
AcDbLine
 10
1227.694442649
 20
-121.987946293
 30
0.0
 11
1230.694442649
 21
-121.987946293
 31
0.0
  0
LINE
  5
26D
100
AcDbEntity
  8
AS88QU
  6
SOLID
 62
        7
100
AcDbLine
 10
1239.812028012
 20
-108.863634846
 30
0.0
 11
1239.812028012
 21
123.012053707
 31
0.0
  0
LINE
  5
26E
100
AcDbEntity
  8
AS88QU
  6
SOLID
 62
        7
100
AcDbLine
 10
1236.576857286
 20
-108.863634846
 30
0.0
 11
1236.576857286
 21
123.012053707
 31
0.0
  0
LINE
  5
26F
100
AcDbEntity
  8
AS88QU
  6
SOLID
 62
        7
100
AcDbLine
 10
1230.694442649
 20
-121.987946293
 30
0.0
 11
1230.694442649
 21
123.012053707
 31
0.0
  0
LINE
  5
270
100
AcDbEntity
  8
AS88QU
  6
SOLID
 62
        7
100
AcDbLine
 10
1227.694442649
 20
-121.987946293
 30
0.0
 11
1227.694442649
 21
123.012053707
 31
0.0
  0
LINE
  5
271
100
AcDbEntity
  8
AS88QU
  6
SOLID
 62
        7
100
AcDbLine
 10
1221.812028012
 20
-108.863634846
 30
0.0
 11
1221.812028012
 21
123.012053707
 31
0.0
  0
LINE
  5
272
100
AcDbEntity
  8
AS88QU
  6
SOLID
 62
        7
100
AcDbLine
 10
1218.576857286
 20
-108.863634846
 30
0.0
 11
1218.576857286
 21
123.012053707
 31
0.0
  0
LINE
  5
273
100
AcDbEntity
  8
AS88QU
  6
SOLID
 62
        7
100
AcDbLine
 10
1245.694442649
 20
-121.987946293
 30
0.0
 11
1239.812028012
 21
-108.863634846
 31
0.0
  0
LINE
  5
274
100
AcDbEntity
  8
AS88QU
  6
SOLID
 62
        7
100
AcDbLine
 10
1212.694442649
 20
-121.987946293
 30
0.0
 11
1212.694442649
 21
123.012053707
 31
0.0
  0
LINE
  5
275
100
AcDbEntity
  8
AS88QU
  6
SOLID
 62
        7
100
AcDbLine
 10
1212.694505952
 20
328.012141445
 30
0.0
 11
1212.694505952
 21
83.012141445
 31
0.0
  0
LINE
  5
276
100
AcDbEntity
  8
AS88QU
  6
SOLID
 62
        7
100
AcDbLine
 10
1218.57692059
 20
314.887829998
 30
0.0
 11
1218.57692059
 21
83.012141445
 31
0.0
  0
LINE
  5
277
100
AcDbEntity
  8
AS88QU
  6
SOLID
 62
        7
100
AcDbLine
 10
1221.812091315
 20
314.887829998
 30
0.0
 11
1221.812091315
 21
83.012141445
 31
0.0
  0
LINE
  5
278
100
AcDbEntity
  8
AS88QU
  6
SOLID
 62
        7
100
AcDbLine
 10
1227.694505952
 20
328.012141445
 30
0.0
 11
1227.694505952
 21
83.012141445
 31
0.0
  0
LINE
  5
279
100
AcDbEntity
  8
AS88QU
  6
SOLID
 62
        7
100
AcDbLine
 10
1230.694505952
 20
328.012141445
 30
0.0
 11
1230.694505952
 21
83.012141445
 31
0.0
  0
LINE
  5
27A
100
AcDbEntity
  8
AS88QU
  6
SOLID
 62
        7
100
AcDbLine
 10
1236.57692059
 20
314.887829998
 30
0.0
 11
1236.57692059
 21
83.012141445
 31
0.0
  0
LINE
  5
27B
100
AcDbEntity
  8
AS88QU
  6
SOLID
 62
        7
100
AcDbLine
 10
1239.812091315
 20
314.887829998
 30
0.0
 11
1239.812091315
 21
83.012141445
 31
0.0
  0
LINE
  5
27C
100
AcDbEntity
  8
AS88QU
  6
SOLID
 62
        7
100
AcDbLine
 10
1207.194567464
 20
328.012141445
 30
0.0
 11
1212.694505952
 21
328.012141445
 31
0.0
  0
LINE
  5
27D
100
AcDbEntity
  8
AS88QU
  6
SOLID
 62
        7
100
AcDbLine
 10
1227.694505952
 20
328.012141445
 30
0.0
 11
1230.694505952
 21
328.012141445
 31
0.0
  0
LINE
  5
27E
100
AcDbEntity
  8
AS88QU
  6
SOLID
 62
        7
100
AcDbLine
 10
1287.194505952
 20
328.012141445
 30
0.0
 11
1287.194505952
 21
83.012141445
 31
0.0
  0
LINE
  5
27F
100
AcDbEntity
  8
AS88QU
  6
SOLID
 62
        7
100
AcDbLine
 10
1245.694505952
 20
328.012141445
 30
0.0
 11
1245.694505952
 21
83.012141445
 31
0.0
  0
LINE
  5
280
100
AcDbEntity
  8
AS88QU
  6
SOLID
 62
        7
100
AcDbLine
 10
1266.694505952
 20
328.012141445
 30
0.0
 11
1272.57692059
 21
314.887829998
 31
0.0
  0
LINE
  5
281
100
AcDbEntity
  8
AS88QU
  6
SOLID
 62
        7
100
AcDbLine
 10
1275.812091315
 20
304.691829899
 30
0.0
 11
1272.57692059
 21
304.691829899
 31
0.0
  0
LINE
  5
282
100
AcDbEntity
  8
AS88QU
  6
SOLID
 62
        7
100
AcDbLine
 10
1254.57692059
 20
304.691829899
 30
0.0
 11
1257.812091315
 21
304.691829899
 31
0.0
  0
LINE
  5
283
100
AcDbEntity
  8
AS88QU
  6
SOLID
 62
        7
100
AcDbLine
 10
1263.694505952
 20
328.012141445
 30
0.0
 11
1257.812091315
 21
314.887829998
 31
0.0
  0
LINE
  5
284
100
AcDbEntity
  8
AS88QU
  6
SOLID
 62
        7
100
AcDbLine
 10
1212.694505952
 20
328.012141445
 30
0.0
 11
1218.57692059
 21
314.887829998
 31
0.0
  0
LINE
  5
285
100
AcDbEntity
  8
AS88QU
  6
SOLID
 62
        7
100
AcDbLine
 10
1227.694505952
 20
328.012141445
 30
0.0
 11
1221.812091315
 21
314.887829998
 31
0.0
  0
LINE
  5
286
100
AcDbEntity
  8
AS88QU
  6
SOLID
 62
        7
100
AcDbLine
 10
1218.57692059
 20
304.691829899
 30
0.0
 11
1221.812091315
 21
304.691829899
 31
0.0
  0
LINE
  5
287
100
AcDbEntity
  8
AS88QU
  6
SOLID
 62
        7
100
AcDbLine
 10
1245.694505952
 20
328.012141445
 30
0.0
 11
1239.812091315
 21
314.887829998
 31
0.0
  0
LINE
  5
288
100
AcDbEntity
  8
AS88QU
  6
SOLID
 62
        7
100
AcDbLine
 10
1239.812091315
 20
304.691829899
 30
0.0
 11
1236.57692059
 21
304.691829899
 31
0.0
  0
LINE
  5
289
100
AcDbEntity
  8
AS88QU
  6
SOLID
 62
        7
100
AcDbLine
 10
1230.694505952
 20
328.012141445
 30
0.0
 11
1236.57692059
 21
314.887829998
 31
0.0
  0
LINE
  5
28A
100
AcDbEntity
  8
AS88QU
  6
SOLID
 62
        7
100
AcDbLine
 10
1281.694505952
 20
328.012141445
 30
0.0
 11
1275.812091315
 21
314.887829998
 31
0.0
  0
LINE
  5
28B
100
AcDbEntity
  8
AS88QU
  6
SOLID
 62
        7
100
AcDbLine
 10
1245.694505952
 20
328.012141445
 30
0.0
 11
1248.694505952
 21
328.012141445
 31
0.0
  0
LINE
  5
28C
100
AcDbEntity
  8
AS88QU
  6
SOLID
 62
        7
100
AcDbLine
 10
1287.19444444
 20
328.012141445
 30
0.0
 11
1281.694505952
 21
328.012141445
 31
0.0
  0
LINE
  5
28D
100
AcDbEntity
  8
AS88QU
  6
SOLID
 62
        7
100
AcDbLine
 10
1266.694505952
 20
328.012141445
 30
0.0
 11
1263.694505952
 21
328.012141445
 31
0.0
  0
LINE
  5
28E
100
AcDbEntity
  8
AS88QU
  6
SOLID
 62
        7
100
AcDbLine
 10
1254.57692059
 20
314.887829998
 30
0.0
 11
1254.57692059
 21
83.012141445
 31
0.0
  0
LINE
  5
28F
100
AcDbEntity
  8
AS88QU
  6
SOLID
 62
        7
100
AcDbLine
 10
1257.812091315
 20
314.887829998
 30
0.0
 11
1257.812091315
 21
83.012141445
 31
0.0
  0
LINE
  5
290
100
AcDbEntity
  8
AS88QU
  6
SOLID
 62
        7
100
AcDbLine
 10
1263.694505952
 20
328.012141445
 30
0.0
 11
1263.694505952
 21
83.012141445
 31
0.0
  0
LINE
  5
291
100
AcDbEntity
  8
AS88QU
  6
SOLID
 62
        7
100
AcDbLine
 10
1266.694505952
 20
328.012141445
 30
0.0
 11
1266.694505952
 21
83.012141445
 31
0.0
  0
LINE
  5
292
100
AcDbEntity
  8
AS88QU
  6
SOLID
 62
        7
100
AcDbLine
 10
1272.57692059
 20
314.887829998
 30
0.0
 11
1272.57692059
 21
83.012141445
 31
0.0
  0
LINE
  5
293
100
AcDbEntity
  8
AS88QU
  6
SOLID
 62
        7
100
AcDbLine
 10
1275.812091315
 20
314.887829998
 30
0.0
 11
1275.812091315
 21
83.012141445
 31
0.0
  0
LINE
  5
294
100
AcDbEntity
  8
AS88QU
  6
SOLID
 62
        7
100
AcDbLine
 10
1248.694505952
 20
328.012141445
 30
0.0
 11
1254.57692059
 21
314.887829998
 31
0.0
  0
LINE
  5
295
100
AcDbEntity
  8
AS88QU
  6
SOLID
 62
        7
100
AcDbLine
 10
1167.194297661
 20
629.012859516
 30
0.0
 11
1167.194330011
 21
614.012023447
 31
0.0
  0
LINE
  5
296
100
AcDbEntity
  8
AS88QU
  6
SOLID
 62
        7
100
AcDbLine
 10
1281.694505952
 20
328.012141445
 30
0.0
 11
1281.694505952
 21
83.012141445
 31
0.0
  0
LINE
  5
297
100
AcDbEntity
  8
AS88QU
  6
SOLID
 62
        7
100
AcDbLine
 10
1248.694505952
 20
328.012141445
 30
0.0
 11
1248.694505952
 21
83.012141445
 31
0.0
  0
ARC
  5
298
100
AcDbEntity
  8
AS88QU
  6
SOLID
 62
        7
100
AcDbCircle
 10
1179.432533081
 20
616.789444806
 30
0.0
 40
3.322569529
100
AcDbArc
 50
55.615750846
 51
124.384249154
  0
LINE
  5
299
100
AcDbEntity
  8
AS88QU
  6
SOLID
 62
        7
100
AcDbLine
 10
1245.694442649
 20
-121.987946293
 30
0.0
 11
1245.694442649
 21
123.012053707
 31
0.0
  0
ARC
  5
29A
100
AcDbEntity
  8
AS88QU
  6
SOLID
 62
        7
100
AcDbCircle
 10
1172.194443783
 20
230.816206629
 30
0.0
 40
5.0
100
AcDbArc
 50
90.000030419
 51
180.0
  0
LINE
  5
29B
100
AcDbEntity
  8
AS88QU
  6
SOLID
 62
        7
100
AcDbLine
 10
1247.194443783
 20
-145.804385922
 30
0.0
 11
1247.194443783
 21
-146.232608578
 31
0.0
  0
ARC
  5
29C
100
AcDbEntity
  8
AS88QU
  6
SOLID
 62
        7
100
AcDbCircle
 10
964.675040895
 20
207.271151156
 30
0.0
 40
2.480597112
100
AcDbArc
 50
143.226998109
 51
216.773001891
  0
ARC
  5
29D
100
AcDbEntity
  8
AS88QU
  6
SOLID
 62
        7
100
AcDbCircle
 10
964.675040895
 20
207.271151156
 30
0.0
 40
2.480597112
100
AcDbArc
 50
143.226998109
 51
216.773001891
  0
LINE
  5
29E
100
AcDbEntity
  8
AS88QU
  6
SOLID
 62
        7
100
AcDbLine
 10
962.194443783
 20
207.271151156
 30
0.0
 11
962.194443783
 21
198.361150609
 31
0.0
  0
ARC
  5
29F
100
AcDbEntity
  8
AS88QU
  6
SOLID
 62
        7
100
AcDbCircle
 10
971.376424395
 20
202.816150883
 30
0.0
 40
9.181980612
100
AcDbArc
 50
161.127720906
 51
198.872279094
  0
LINE
  5
2A0
100
AcDbEntity
  8
AS88QU
  6
SOLID
 62
        7
100
AcDbLine
 10
962.194443783
 20
207.271151156
 30
0.0
 11
962.194443783
 21
198.361150609
 31
0.0
  0
ARC
  5
2A1
100
AcDbEntity
  8
AS88QU
  6
SOLID
 62
        7
100
AcDbCircle
 10
971.376424395
 20
202.816150883
 30
0.0
 40
9.181980612
100
AcDbArc
 50
161.127720906
 51
198.872279094
  0
LINE
  5
2A2
100
AcDbEntity
  8
AS88QU
  6
SOLID
 62
        7
100
AcDbLine
 10
962.688049008
 20
-14.213848935
 30
0.0
 11
967.194443783
 21
-14.213848935
 31
0.0
  0
LINE
  5
2A3
100
AcDbEntity
  8
AS88QU
  6
SOLID
 62
        7
100
AcDbLine
 10
962.688049008
 20
-11.243848753
 30
0.0
 11
967.194443783
 21
-11.243848753
 31
0.0
  0
ARC
  5
2A4
100
AcDbEntity
  8
AS88QU
  6
SOLID
 62
        7
100
AcDbCircle
 10
964.675040895
 20
-12.728848844
 30
0.0
 40
2.480597112
100
AcDbArc
 50
143.226998109
 51
216.773001891
  0
LINE
  5
2A5
100
AcDbEntity
  8
AS88QU
  6
SOLID
 62
        7
100
AcDbLine
 10
962.688049008
 20
-20.1538493
 30
0.0
 11
967.194443783
 21
-20.1538493
 31
0.0
  0
LINE
  5
2A6
100
AcDbEntity
  8
AS88QU
  6
SOLID
 62
        7
100
AcDbLine
 10
962.688049008
 20
-20.1538493
 30
0.0
 11
967.194443783
 21
-20.1538493
 31
0.0
  0
LINE
  5
2A7
100
AcDbEntity
  8
AS88QU
  6
SOLID
 62
        7
100
AcDbLine
 10
962.688049008
 20
-23.123849482
 30
0.0
 11
967.194443783
 21
-23.123849482
 31
0.0
  0
LINE
  5
2A8
100
AcDbEntity
  8
AS88QU
  6
SOLID
 62
        7
100
AcDbLine
 10
967.194443783
 20
-23.123849482
 30
0.0
 11
962.688049008
 21
-23.123849482
 31
0.0
  0
LINE
  5
2A9
100
AcDbEntity
  8
AS88QU
  6
SOLID
 62
        7
100
AcDbLine
 10
962.688049008
 20
-23.123849482
 30
0.0
 11
967.194443783
 21
-23.123849482
 31
0.0
  0
LINE
  5
2AA
100
AcDbEntity
  8
AS88QU
  6
SOLID
 62
        7
100
AcDbLine
 10
967.194443783
 20
-23.123849482
 30
0.0
 11
962.688049008
 21
-23.123849482
 31
0.0
  0
ARC
  5
2AB
100
AcDbEntity
  8
AS88QU
  6
SOLID
 62
        7
100
AcDbCircle
 10
964.675040895
 20
-21.638849391
 30
0.0
 40
2.480597112
100
AcDbArc
 50
143.226998109
 51
216.773001891
  0
ARC
  5
2AC
100
AcDbEntity
  8
AS88QU
  6
SOLID
 62
        7
100
AcDbCircle
 10
964.675040895
 20
-21.638849391
 30
0.0
 40
2.480597112
100
AcDbArc
 50
143.226998109
 51
216.773001891
  0
LINE
  5
2AD
100
AcDbEntity
  8
AS88QU
  6
SOLID
 62
        7
100
AcDbLine
 10
962.194443783
 20
-21.638849391
 30
0.0
 11
962.194443783
 21
-12.728848844
 31
0.0
  0
ARC
  5
2AE
100
AcDbEntity
  8
AS88QU
  6
SOLID
 62
        7
100
AcDbCircle
 10
971.376424395
 20
-17.183849117
 30
0.0
 40
9.181980612
100
AcDbArc
 50
161.127720906
 51
198.872279094
  0
LINE
  5
2AF
100
AcDbEntity
  8
AS88QU
  6
SOLID
 62
        7
100
AcDbLine
 10
962.194443783
 20
-21.638849391
 30
0.0
 11
962.194443783
 21
-12.728848844
 31
0.0
  0
ARC
  5
2B0
100
AcDbEntity
  8
AS88QU
  6
SOLID
 62
        7
100
AcDbCircle
 10
971.376424395
 20
-17.183849117
 30
0.0
 40
9.181980612
100
AcDbArc
 50
161.127720906
 51
198.872279094
  0
ARC
  5
2B1
100
AcDbEntity
  8
AS88QU
  6
SOLID
 62
        7
100
AcDbCircle
 10
962.194443783
 20
230.816206629
 30
0.0
 40
5.0
100
AcDbArc
 50
0.0
 51
89.999969581
  0
LINE
  5
2B2
100
AcDbEntity
  8
AS88QU
  6
SOLID
 62
        7
100
AcDbLine
 10
942.194443783
 20
491.816262375
 30
0.0
 11
942.194443783
 21
257.816150883
 31
0.0
  0
ARC
  5
2B3
100
AcDbEntity
  8
AS88QU
  6
SOLID
 62
        7
100
AcDbCircle
 10
1161.460510052
 20
523.512436058
 30
0.0
 40
2.0
100
AcDbArc
 50
270.0
 51
357.0
  0
ARC
  5
2B4
100
AcDbEntity
  8
AS88QU
  6
SOLID
 62
        7
100
AcDbCircle
 10
960.092845082
 20
518.316262413
 30
0.0
 40
5.0
100
AcDbArc
 50
270.0
 51
344.035064903
  0
LINE
  5
2B5
100
AcDbEntity
  8
AS88QU
  6
SOLID
 62
        7
100
AcDbLine
 10
967.194498938
 20
561.01222974
 30
0.0
 11
967.194498938
 21
553.011971901
 31
0.0
  0
LINE
  5
2B6
100
AcDbEntity
  8
AS88QU
  6
SOLID
 62
        7
100
AcDbLine
 10
967.194426006
 20
553.01204468
 30
0.0
 11
969.194498938
 21
551.011971748
 31
0.0
  0
LINE
  5
2B7
100
AcDbEntity
  8
AS88QU
  6
SOLID
 62
        7
100
AcDbLine
 10
987.062602469
 20
503.316262375
 30
0.0
 11
987.062602469
 21
554.012436121
 31
0.0
  0
ARC
  5
2B8
100
AcDbEntity
  8
AS88QU
  6
SOLID
 62
        7
100
AcDbCircle
 10
971.031881207
 20
515.316262413
 30
0.0
 40
2.0
100
AcDbArc
 50
270.0
 51
357.0
  0
LINE
  5
2B9
100
AcDbEntity
  8
AS88QU
  6
SOLID
 62
        7
100
AcDbLine
 10
1164.904444341
 20
551.011971744
 30
0.0
 11
1067.194388434
 21
551.011971744
 31
0.0
  0
LINE
  5
2BA
100
AcDbEntity
  8
AS88QU
  6
SOLID
 62
        7
100
AcDbLine
 10
1167.194388628
 20
562.512436138
 30
0.0
 11
1167.194388628
 21
554.012436121
 31
0.0
  0
LINE
  5
2BB
100
AcDbEntity
  8
AS88QU
  6
SOLID
 62
        7
100
AcDbLine
 10
1003.062602469
 20
503.316262375
 30
0.0
 11
1003.062602469
 21
554.012436121
 31
0.0
  0
LINE
  5
2BC
100
AcDbEntity
  8
AS88QU
  6
SOLID
 62
        7
100
AcDbLine
 10
1207.194488183
 20
503.316262375
 30
0.0
 11
1207.194488183
 21
513.316262413
 31
0.0
  0
LINE
  5
2BD
100
AcDbEntity
  8
AS88QU
  6
SOLID
 62
        7
100
AcDbLine
 10
1104.694388507
 20
521.512436058
 30
0.0
 11
1104.694388507
 21
551.011971744
 31
0.0
  0
LINE
  5
2BF
100
AcDbEntity
  8
AS88QU
  6
L_DASH
 62
        7
100
AcDbLine
 10
1140.194443783
 20
-15.183849117
 30
0.0
 11
1147.194443783
 21
-11.142397233
 31
0.0
  0
LINE
  5
2C0
100
AcDbEntity
  8
AS88QU
  6
SOLID
 62
        7
100
AcDbLine
 10
1015.219848309
 20
551.01208383
 30
0.0
 11
1067.194421887
 21
551.011971744
 31
0.0
  0
LINE
  5
2C1
100
AcDbEntity
  8
AS88QU
  6
SOLID
 62
        7
100
AcDbLine
 10
1029.694358197
 20
521.512436058
 30
0.0
 11
1029.694421814
 21
551.012052615
 31
0.0
  0
LINE
  5
2C2
100
AcDbEntity
  8
AS88QU
  6
SOLID
 62
        7
100
AcDbLine
 10
1157.194443783
 20
636.012643859
 30
0.0
 11
1157.194443783
 21
692.012643859
 31
0.0
  0
CIRCLE
  5
2C3
100
AcDbEntity
  8
AS88QU
  6
SOLID
 62
        7
100
AcDbCircle
 10
995.040822668
 20
533.852467152
 30
0.0
 40
5.831999578
  0
LINE
  5
2C4
100
AcDbEntity
  8
AS88QU
  6
SOLID
 62
        7
100
AcDbLine
 10
989.238411882
 20
530.43462371
 30
0.0
 11
995.099556442
 21
527.11851038
 31
0.0
  0
LINE
  5
2C5
100
AcDbEntity
  8
AS88QU
  6
SOLID
 62
        7
100
AcDbLine
 10
995.099556614
 20
527.118510403
 30
0.0
 11
1000.901967398
 21
530.536354013
 31
0.0
  0
LINE
  5
2C6
100
AcDbEntity
  8
AS88QU
  6
SOLID
 62
        7
100
AcDbLine
 10
1000.901967398
 20
530.536354013
 30
0.0
 11
1000.843233452
 21
537.270310689
 31
0.0
  0
LINE
  5
2C7
100
AcDbEntity
  8
AS88QU
  6
SOLID
 62
        7
100
AcDbLine
 10
1000.843233452
 20
537.270310689
 30
0.0
 11
994.982088893
 21
540.586424019
 31
0.0
  0
LINE
  5
2C8
100
AcDbEntity
  8
AS88QU
  6
L_DASH
 62
        7
100
AcDbLine
 10
1139.194443783
 20
-57.183849117
 30
0.0
 11
1139.194443783
 21
-22.183849117
 31
0.0
  0
LINE
  5
2C9
100
AcDbEntity
  8
AS88QU
  6
L_DASH
 62
        7
100
AcDbLine
 10
1140.194443783
 20
-57.183849117
 30
0.0
 11
1140.194443783
 21
-15.183849117
 31
0.0
  0
LINE
  5
2CA
100
AcDbEntity
  8
AS88QU
  6
L_DASH
 62
        7
100
AcDbLine
 10
1155.194443783
 20
-22.183849117
 30
0.0
 11
1139.194443783
 21
-22.183849117
 31
0.0
  0
LINE
  5
2CB
100
AcDbEntity
  8
AS88QU
  6
L_DASH
 62
        7
100
AcDbLine
 10
1154.194443783
 20
-15.183849117
 30
0.0
 11
1140.194443783
 21
-15.183849117
 31
0.0
  0
LINE
  5
2CC
100
AcDbEntity
  8
AS88QU
  6
CENTER
 62
        7
100
AcDbLine
 10
957.194443783
 20
202.816150883
 30
0.0
 11
971.094370922
 21
202.816150883
 31
0.0
  0
LINE
  5
2CD
100
AcDbEntity
  8
AS88QU
  6
SOLID
 62
        7
100
AcDbLine
 10
962.194443783
 20
48.012150982
 30
0.0
 11
967.194443783
 21
48.012150982
 31
0.0
  0
LINE
  5
2CE
100
AcDbEntity
  8
AS88QU
  6
SOLID
 62
        7
100
AcDbLine
 10
962.194443783
 20
48.012150982
 30
0.0
 11
962.194443783
 21
102.4936497
 31
0.0
  0
LINE
  5
2CF
100
AcDbEntity
  8
AS88QU
  6
SOLID
 62
        7
100
AcDbLine
 10
962.194443783
 20
158.012150982
 30
0.0
 11
967.194443783
 21
158.012150982
 31
0.0
  0
LINE
  5
2D0
100
AcDbEntity
  8
AS88QU
  6
SOLID
 62
        7
100
AcDbLine
 10
1007.194443783
 20
-57.183849117
 30
0.0
 11
1167.194443783
 21
-57.183849117
 31
0.0
  0
LINE
  5
2D1
100
AcDbEntity
  8
AS88QU
  6
SOLID
 62
        7
100
AcDbLine
 10
962.194443783
 20
158.012150982
 30
0.0
 11
962.194443783
 21
103.530652264
 31
0.0
  0
LINE
  5
2D2
100
AcDbEntity
  8
AS88QU
  6
SOLID
 62
        7
100
AcDbLine
 10
1020.507097941
 20
299.016151646
 30
0.0
 11
1020.507097941
 21
248.616320112
 31
0.0
  0
LINE
  5
2D3
100
AcDbEntity
  8
AS88QU
  6
SOLID
 62
        7
100
AcDbLine
 10
1003.449663011
 20
299.016151646
 30
0.0
 11
1003.449663011
 21
248.616320112
 31
0.0
  0
LINE
  5
2D4
100
AcDbEntity
  8
AS88QU
  6
SOLID
 62
        7
100
AcDbLine
 10
995.484691028
 20
299.016151646
 30
0.0
 11
995.484691028
 21
248.616320112
 31
0.0
  0
LINE
  5
2D5
100
AcDbEntity
  8
AS88QU
  6
SOLID
 62
        7
100
AcDbLine
 10
987.961832535
 20
299.016151646
 30
0.0
 11
987.961832535
 21
248.616320112
 31
0.0
  0
LINE
  5
2D6
100
AcDbEntity
  8
AS88QU
  6
SOLID
 62
        7
100
AcDbLine
 10
1011.807610491
 20
299.016151646
 30
0.0
 11
1011.807605274
 21
248.616320112
 31
0.0
  0
LINE
  5
2D7
100
AcDbEntity
  8
AS88QU
  6
SOLID
 62
        7
100
AcDbLine
 10
942.670520388
 20
299.016151646
 30
0.0
 11
942.670520388
 21
248.616320112
 31
0.0
  0
LINE
  5
2D8
100
AcDbEntity
  8
AS88QU
  6
SOLID
 62
        7
100
AcDbLine
 10
943.070520394
 20
299.016151646
 30
0.0
 11
943.070520394
 21
248.616320112
 31
0.0
  0
LINE
  5
2D9
100
AcDbEntity
  8
AS88QU
  6
SOLID
 62
        7
100
AcDbLine
 10
1029.494360717
 20
257.943149803
 30
0.0
 11
942.194443783
 21
257.943149803
 31
0.0
  0
LINE
  5
2DA
100
AcDbEntity
  8
AS88QU
  6
SOLID
 62
        7
100
AcDbLine
 10
1029.494361761
 20
268.023150258
 30
0.0
 11
942.194443783
 21
268.023150258
 31
0.0
  0
LINE
  5
2DB
100
AcDbEntity
  8
AS88QU
  6
SOLID
 62
        7
100
AcDbLine
 10
1029.494362804
 20
278.103150714
 30
0.0
 11
942.194443783
 21
278.103150714
 31
0.0
  0
LINE
  5
2DC
100
AcDbEntity
  8
AS88QU
  6
SOLID
 62
        7
100
AcDbLine
 10
1029.494363847
 20
288.183151169
 30
0.0
 11
942.194443783
 21
288.183151169
 31
0.0
  0
LINE
  5
2DD
100
AcDbEntity
  8
AS88QU
  6
SOLID
 62
        7
100
AcDbLine
 10
946.696451904
 20
299.016151646
 30
0.0
 11
946.696446688
 21
248.616320112
 31
0.0
  0
LINE
  5
2DE
100
AcDbEntity
  8
AS88QU
  6
SOLID
 62
        7
100
AcDbLine
 10
948.56530702
 20
299.016151646
 30
0.0
 11
948.565301804
 21
248.616320112
 31
0.0
  0
LINE
  5
2DF
100
AcDbEntity
  8
AS88QU
  6
SOLID
 62
        7
100
AcDbLine
 10
951.165549467
 20
299.016151646
 30
0.0
 11
951.16554425
 21
248.616320112
 31
0.0
  0
LINE
  5
2E0
100
AcDbEntity
  8
AS88QU
  6
SOLID
 62
        7
100
AcDbLine
 10
954.481147752
 20
299.016151646
 30
0.0
 11
954.481142535
 21
248.616320112
 31
0.0
  0
LINE
  5
2E1
100
AcDbEntity
  8
AS88QU
  6
SOLID
 62
        7
100
AcDbLine
 10
968.494389485
 20
299.016151646
 30
0.0
 11
968.494384268
 21
248.616320112
 31
0.0
  0
LINE
  5
2E2
100
AcDbEntity
  8
AS88QU
  6
SOLID
 62
        7
100
AcDbLine
 10
974.424936455
 20
299.016151646
 30
0.0
 11
974.424931238
 21
248.616320112
 31
0.0
  0
LINE
  5
2E3
100
AcDbEntity
  8
AS88QU
  6
SOLID
 62
        7
100
AcDbLine
 10
980.927437043
 20
299.016151646
 30
0.0
 11
980.927431827
 21
248.616320112
 31
0.0
  0
LINE
  5
2E4
100
AcDbEntity
  8
AS88QU
  6
SOLID
 62
        7
100
AcDbLine
 10
958.491659993
 20
299.016151646
 30
0.0
 11
958.491654776
 21
248.616320112
 31
0.0
  0
LINE
  5
2E5
100
AcDbEntity
  8
AS88QU
  6
SOLID
 62
        7
100
AcDbLine
 10
963.172359953
 20
299.016151646
 30
0.0
 11
963.172354736
 21
248.616320112
 31
0.0
  0
LINE
  5
2E6
100
AcDbEntity
  8
AS88QU
  6
SOLID
 62
        7
100
AcDbLine
 10
987.961801168
 20
299.016151646
 30
0.0
 11
987.961795952
 21
248.616320112
 31
0.0
  0
LINE
  5
2E7
100
AcDbEntity
  8
AS88QU
  6
SOLID
 62
        7
100
AcDbLine
 10
943.4705204
 20
299.016151646
 30
0.0
 11
943.4705204
 21
248.616320112
 31
0.0
  0
LINE
  5
2E8
100
AcDbEntity
  8
AS88QU
  6
SOLID
 62
        7
100
AcDbLine
 10
943.870520406
 20
299.016151646
 30
0.0
 11
943.870520406
 21
248.616320112
 31
0.0
  0
LINE
  5
2E9
100
AcDbEntity
  8
AS88QU
  6
SOLID
 62
        7
100
AcDbLine
 10
944.570520394
 20
299.016151646
 30
0.0
 11
944.570520394
 21
248.616320112
 31
0.0
  0
LINE
  5
2EA
100
AcDbEntity
  8
AS88QU
  6
SOLID
 62
        7
100
AcDbLine
 10
1020.507066574
 20
299.016151646
 30
0.0
 11
1020.507061358
 21
248.616320112
 31
0.0
  0
LINE
  5
2EB
100
AcDbEntity
  8
AS88QU
  6
SOLID
 62
        7
100
AcDbLine
 10
1029.494364969
 20
299.016151646
 30
0.0
 11
1029.494359752
 21
248.616320112
 31
0.0
  0
LINE
  5
2EC
100
AcDbEntity
  8
AS88QU
  6
SOLID
 62
        7
100
AcDbLine
 10
958.491604305
 20
299.016151646
 30
0.0
 11
958.491604305
 21
248.616320112
 31
0.0
  0
LINE
  5
2ED
100
AcDbEntity
  8
AS88QU
  6
SOLID
 62
        7
100
AcDbLine
 10
954.481102516
 20
299.016151646
 30
0.0
 11
954.481102516
 21
248.616320112
 31
0.0
  0
LINE
  5
2EE
100
AcDbEntity
  8
AS88QU
  6
SOLID
 62
        7
100
AcDbLine
 10
951.165516757
 20
299.016151646
 30
0.0
 11
951.165516757
 21
248.616320112
 31
0.0
  0
LINE
  5
2EF
100
AcDbEntity
  8
AS88QU
  6
SOLID
 62
        7
100
AcDbLine
 10
948.565288602
 20
299.016151646
 30
0.0
 11
948.565288602
 21
248.616320112
 31
0.0
  0
LINE
  5
2F0
100
AcDbEntity
  8
AS88QU
  6
SOLID
 62
        7
100
AcDbLine
 10
946.696449191
 20
299.016151646
 30
0.0
 11
946.696449191
 21
248.616320112
 31
0.0
  0
LINE
  5
2F1
100
AcDbEntity
  8
AS88QU
  6
SOLID
 62
        7
100
AcDbLine
 10
945.570520394
 20
299.016151646
 30
0.0
 11
945.570520394
 21
248.616320112
 31
0.0
  0
LINE
  5
2F2
100
AcDbEntity
  8
AS88QU
  6
SOLID
 62
        7
100
AcDbLine
 10
1029.494364891
 20
299.016151646
 30
0.0
 11
1029.494364891
 21
248.616320112
 31
0.0
  0
LINE
  5
2F3
100
AcDbEntity
  8
AS88QU
  6
SOLID
 62
        7
100
AcDbLine
 10
1191.718367178
 20
299.016151646
 30
0.0
 11
1191.718367178
 21
248.616320112
 31
0.0
  0
LINE
  5
2F4
100
AcDbEntity
  8
AS88QU
  6
SOLID
 62
        7
100
AcDbLine
 10
1191.318367172
 20
299.016151646
 30
0.0
 11
1191.318367172
 21
248.616320112
 31
0.0
  0
LINE
  5
2F5
100
AcDbEntity
  8
AS88QU
  6
SOLID
 62
        7
100
AcDbLine
 10
1190.918367166
 20
299.016151646
 30
0.0
 11
1190.918367166
 21
248.616320112
 31
0.0
  0
LINE
  5
2F6
100
AcDbEntity
  8
AS88QU
  6
SOLID
 62
        7
100
AcDbLine
 10
1190.51836716
 20
299.016151646
 30
0.0
 11
1190.51836716
 21
248.616320112
 31
0.0
  0
LINE
  5
2F7
100
AcDbEntity
  8
AS88QU
  6
SOLID
 62
        7
100
AcDbLine
 10
1104.894523719
 20
288.183151169
 30
0.0
 11
1192.194443783
 21
288.183151169
 31
0.0
  0
LINE
  5
2F8
100
AcDbEntity
  8
AS88QU
  6
SOLID
 62
        7
100
AcDbLine
 10
1104.894524762
 20
278.103150714
 30
0.0
 11
1192.194443783
 21
278.103150714
 31
0.0
  0
LINE
  5
2F9
100
AcDbEntity
  8
AS88QU
  6
SOLID
 62
        7
100
AcDbLine
 10
1104.894525806
 20
268.023150258
 30
0.0
 11
1192.194443783
 21
268.023150258
 31
0.0
  0
LINE
  5
2FA
100
AcDbEntity
  8
AS88QU
  6
SOLID
 62
        7
100
AcDbLine
 10
1104.894526849
 20
257.943149803
 30
0.0
 11
1192.194443783
 21
257.943149803
 31
0.0
  0
LINE
  5
2FB
100
AcDbEntity
  8
AS88QU
  6
SOLID
 62
        7
100
AcDbLine
 10
1113.881789625
 20
299.016151646
 30
0.0
 11
1113.881789625
 21
248.616320112
 31
0.0
  0
LINE
  5
2FC
100
AcDbEntity
  8
AS88QU
  6
SOLID
 62
        7
100
AcDbLine
 10
1122.581277075
 20
299.016151646
 30
0.0
 11
1122.581282292
 21
248.616320112
 31
0.0
  0
LINE
  5
2FD
100
AcDbEntity
  8
AS88QU
  6
SOLID
 62
        7
100
AcDbLine
 10
1130.939224555
 20
299.016151646
 30
0.0
 11
1130.939224555
 21
248.616320112
 31
0.0
  0
LINE
  5
2FE
100
AcDbEntity
  8
AS88QU
  6
SOLID
 62
        7
100
AcDbLine
 10
1138.904196539
 20
299.016151646
 30
0.0
 11
1138.904196539
 21
248.616320112
 31
0.0
  0
LINE
  5
2FF
100
AcDbEntity
  8
AS88QU
  6
SOLID
 62
        7
100
AcDbLine
 10
1146.427055031
 20
299.016151646
 30
0.0
 11
1146.427055031
 21
248.616320112
 31
0.0
  0
LINE
  5
300
100
AcDbEntity
  8
AS88QU
  6
SOLID
 62
        7
100
AcDbLine
 10
1104.894522676
 20
248.616320112
 30
0.0
 11
1192.194443783
 21
248.616320112
 31
0.0
  0
LINE
  5
301
100
AcDbEntity
  8
AS88QU
  6
SOLID
 62
        7
100
AcDbLine
 10
1104.894522676
 20
299.016151646
 30
0.0
 11
1192.194443783
 21
299.016151646
 31
0.0
  0
LINE
  5
302
100
AcDbEntity
  8
AS88QU
  6
SOLID
 62
        7
100
AcDbLine
 10
1057.622403876
 20
299.016151646
 30
0.0
 11
1057.622398659
 21
248.616320112
 31
0.0
  0
LINE
  5
303
100
AcDbEntity
  8
AS88QU
  6
SOLID
 62
        7
100
AcDbLine
 10
1116.51542004
 20
257.943149803
 30
0.0
 11
1104.894526849
 21
257.943149803
 31
0.0
  0
LINE
  5
304
100
AcDbEntity
  8
AS88QU
  6
SOLID
 62
        7
100
AcDbLine
 10
1116.51542004
 20
268.023150258
 30
0.0
 11
1104.894525806
 21
268.023150258
 31
0.0
  0
LINE
  5
305
100
AcDbEntity
  8
AS88QU
  6
SOLID
 62
        7
100
AcDbLine
 10
1116.51542004
 20
278.103150714
 30
0.0
 11
1104.894524762
 21
278.103150714
 31
0.0
  0
LINE
  5
306
100
AcDbEntity
  8
AS88QU
  6
SOLID
 62
        7
100
AcDbLine
 10
1116.51542004
 20
288.183151169
 30
0.0
 11
1104.894523719
 21
288.183151169
 31
0.0
  0
LINE
  5
307
100
AcDbEntity
  8
AS88QU
  6
SOLID
 62
        7
100
AcDbLine
 10
1187.692435662
 20
299.016151646
 30
0.0
 11
1187.692440879
 21
248.616320112
 31
0.0
  0
LINE
  5
308
100
AcDbEntity
  8
AS88QU
  6
SOLID
 62
        7
100
AcDbLine
 10
1185.823580546
 20
299.016151646
 30
0.0
 11
1185.823585762
 21
248.616320112
 31
0.0
  0
LINE
  5
309
100
AcDbEntity
  8
AS88QU
  6
SOLID
 62
        7
100
AcDbLine
 10
1183.2233381
 20
299.016151646
 30
0.0
 11
1183.223343316
 21
248.616320112
 31
0.0
  0
LINE
  5
30A
100
AcDbEntity
  8
AS88QU
  6
SOLID
 62
        7
100
AcDbLine
 10
1179.907739815
 20
299.016151646
 30
0.0
 11
1179.907745031
 21
248.616320112
 31
0.0
  0
LINE
  5
30B
100
AcDbEntity
  8
AS88QU
  6
SOLID
 62
        7
100
AcDbLine
 10
1165.894498082
 20
299.016151646
 30
0.0
 11
1165.894503298
 21
248.616320112
 31
0.0
  0
LINE
  5
30C
100
AcDbEntity
  8
AS88QU
  6
SOLID
 62
        7
100
AcDbLine
 10
1159.963951111
 20
299.016151646
 30
0.0
 11
1159.963956328
 21
248.616320112
 31
0.0
  0
LINE
  5
30D
100
AcDbEntity
  8
AS88QU
  6
SOLID
 62
        7
100
AcDbLine
 10
1153.461450523
 20
299.016151646
 30
0.0
 11
1153.46145574
 21
248.616320112
 31
0.0
  0
LINE
  5
30E
100
AcDbEntity
  8
AS88QU
  6
SOLID
 62
        7
100
AcDbLine
 10
1175.897227574
 20
299.016151646
 30
0.0
 11
1175.89723279
 21
248.616320112
 31
0.0
  0
LINE
  5
30F
100
AcDbEntity
  8
AS88QU
  6
SOLID
 62
        7
100
AcDbLine
 10
1171.216527614
 20
299.016151646
 30
0.0
 11
1171.21653283
 21
248.616320112
 31
0.0
  0
LINE
  5
310
100
AcDbEntity
  8
AS88QU
  6
SOLID
 62
        7
100
AcDbLine
 10
1146.427086398
 20
299.016151646
 30
0.0
 11
1146.427091614
 21
248.616320112
 31
0.0
  0
LINE
  5
311
100
AcDbEntity
  8
AS88QU
  6
SOLID
 62
        7
100
AcDbLine
 10
1189.818367172
 20
299.016151646
 30
0.0
 11
1189.818367172
 21
248.616320112
 31
0.0
  0
LINE
  5
312
100
AcDbEntity
  8
AS88QU
  6
SOLID
 62
        7
100
AcDbLine
 10
1113.881820992
 20
299.016151646
 30
0.0
 11
1113.881826209
 21
248.616320112
 31
0.0
  0
LINE
  5
313
100
AcDbEntity
  8
AS88QU
  6
SOLID
 62
        7
100
AcDbLine
 10
1175.897283261
 20
299.016151646
 30
0.0
 11
1175.897283261
 21
248.616320112
 31
0.0
  0
LINE
  5
314
100
AcDbEntity
  8
AS88QU
  6
SOLID
 62
        7
100
AcDbLine
 10
1179.907785051
 20
299.016151646
 30
0.0
 11
1179.907785051
 21
248.616320112
 31
0.0
  0
LINE
  5
315
100
AcDbEntity
  8
AS88QU
  6
SOLID
 62
        7
100
AcDbLine
 10
1183.223370809
 20
299.016151646
 30
0.0
 11
1183.223370809
 21
248.616320112
 31
0.0
  0
LINE
  5
316
100
AcDbEntity
  8
AS88QU
  6
SOLID
 62
        7
100
AcDbLine
 10
1185.823598964
 20
299.016151646
 30
0.0
 11
1185.823598964
 21
248.616320112
 31
0.0
  0
LINE
  5
317
100
AcDbEntity
  8
AS88QU
  6
SOLID
 62
        7
100
AcDbLine
 10
1187.692438375
 20
299.016151646
 30
0.0
 11
1187.692438375
 21
248.616320112
 31
0.0
  0
LINE
  5
318
100
AcDbEntity
  8
AS88QU
  6
L_DASH
 62
        7
100
AcDbLine
 10
995.194443783
 20
-22.183849117
 30
0.0
 11
979.194443783
 21
-22.183849117
 31
0.0
  0
LINE
  5
319
100
AcDbEntity
  8
AS88QU
  6
L_DASH
 62
        7
100
AcDbLine
 10
994.194443783
 20
-15.183849117
 30
0.0
 11
980.194443783
 21
-15.183849117
 31
0.0
  0
LINE
  5
31A
100
AcDbEntity
  8
AS88QU
  6
L_DASH
 62
        7
100
AcDbLine
 10
980.194443783
 20
-15.183849117
 30
0.0
 11
987.194443783
 21
-11.142397233
 31
0.0
  0
LINE
  5
31B
100
AcDbEntity
  8
AS88QU
  6
L_DASH
 62
        7
100
AcDbLine
 10
994.194443783
 20
-15.183849117
 30
0.0
 11
987.194443783
 21
-11.142397233
 31
0.0
  0
LINE
  5
31C
100
AcDbEntity
  8
AS88QU
  6
L_DASH
 62
        7
100
AcDbLine
 10
979.194443783
 20
-57.183849117
 30
0.0
 11
979.194443783
 21
-22.183849117
 31
0.0
  0
LINE
  5
31D
100
AcDbEntity
  8
AS88QU
  6
L_DASH
 62
        7
100
AcDbLine
 10
995.194443783
 20
-57.183849117
 30
0.0
 11
995.194443783
 21
-22.183849117
 31
0.0
  0
LINE
  5
31E
100
AcDbEntity
  8
AS88QU
  6
L_DASH
 62
        7
100
AcDbLine
 10
980.194443783
 20
-57.183849117
 30
0.0
 11
980.194443783
 21
-15.183849117
 31
0.0
  0
LINE
  5
31F
100
AcDbEntity
  8
AS88QU
  6
L_DASH
 62
        7
100
AcDbLine
 10
994.194443783
 20
-57.183849117
 30
0.0
 11
994.194443783
 21
-15.183849117
 31
0.0
  0
LINE
  5
320
100
AcDbEntity
  8
AS88QU
  6
SOLID
 62
        7
100
AcDbLine
 10
1029.494364891
 20
248.616320112
 30
0.0
 11
942.194443783
 21
248.616320112
 31
0.0
  0
LINE
  5
321
100
AcDbEntity
  8
AS88QU
  6
L_DASH
 62
        7
100
AcDbLine
 10
1154.194443783
 20
-15.183849117
 30
0.0
 11
1147.194443783
 21
-11.142397233
 31
0.0
  0
LINE
  5
322
100
AcDbEntity
  8
AS88QU
  6
SOLID
 62
        7
100
AcDbLine
 10
1029.494364891
 20
299.016151646
 30
0.0
 11
942.194443783
 21
299.016151646
 31
0.0
  0
LINE
  5
323
100
AcDbEntity
  8
AS88QU
  6
SOLID
 62
        7
100
AcDbLine
 10
1188.818367172
 20
299.016151646
 30
0.0
 11
1188.818367172
 21
248.616320112
 31
0.0
  0
LINE
  5
324
100
AcDbEntity
  8
AS88QU
  6
SOLID
 62
        7
100
AcDbLine
 10
1029.494364891
 20
299.016151646
 30
0.0
 11
1029.494364891
 21
248.616320112
 31
0.0
  0
LINE
  5
325
100
AcDbEntity
  8
AS88QU
  6
L_DASH
 62
        7
100
AcDbLine
 10
1155.194443783
 20
-57.183849117
 30
0.0
 11
1155.194443783
 21
-22.183849117
 31
0.0
  0
LINE
  5
326
100
AcDbEntity
  8
AS88QU
  6
SOLID
 62
        7
100
AcDbLine
 10
994.98208872
 20
540.586423996
 30
0.0
 11
989.179678108
 21
537.168580487
 31
0.0
  0
LINE
  5
327
100
AcDbEntity
  8
AS88QU
  6
SOLID
 62
        7
100
AcDbLine
 10
989.179677935
 20
537.168580507
 30
0.0
 11
989.238411882
 21
530.43462371
 31
0.0
  0
CIRCLE
  5
328
100
AcDbEntity
  8
AS88QU
  6
SOLID
 62
        7
100
AcDbCircle
 10
1185.039908253
 20
533.852467152
 30
0.0
 40
5.831999578
  0
LINE
  5
329
100
AcDbEntity
  8
AS88QU
  6
CENTER
 62
        7
100
AcDbLine
 10
1299.826310238
 20
103.012150982
 30
0.0
 11
941.793961605
 21
103.012150982
 31
0.0
  0
LINE
  5
32A
100
AcDbEntity
  8
AS88QU
  6
SOLID
 62
        7
100
AcDbLine
 10
1007.194443783
 20
-57.183849117
 30
0.0
 11
967.194443783
 21
-57.183849117
 31
0.0
  0
LINE
  5
32B
100
AcDbEntity
  8
AS88QU
  6
SOLID
 62
        7
100
AcDbLine
 10
942.194443783
 20
257.816150883
 30
0.0
 11
942.194443783
 21
247.316215654
 31
0.0
  0
LINE
  5
32C
100
AcDbEntity
  8
AS88QU
  6
SOLID
 62
        7
100
AcDbLine
 10
942.194443783
 20
491.816262375
 30
0.0
 11
942.194443783
 21
238.816215654
 31
0.0
  0
LINE
  5
32D
100
AcDbEntity
  8
AS88QU
  6
SOLID
 62
        7
100
AcDbLine
 10
1067.194443783
 20
235.816150882
 30
0.0
 11
945.19444219
 21
235.816215654
 31
0.0
  0
ARC
  5
32E
100
AcDbEntity
  8
AS88QU
  6
SOLID
 62
        7
100
AcDbCircle
 10
945.194443783
 20
238.816215654
 30
0.0
 40
3.0
100
AcDbArc
 50
180.0
 51
269.999969581
  0
LINE
  5
32F
100
AcDbEntity
  8
AS88QU
  6
SOLID
 62
        7
100
AcDbLine
 10
1184.981174305
 20
540.586423996
 30
0.0
 11
1179.178763693
 21
537.168580487
 31
0.0
  0
LINE
  5
330
100
AcDbEntity
  8
AS88QU
  6
SOLID
 62
        7
100
AcDbLine
 10
1190.842319037
 20
537.270310689
 30
0.0
 11
1184.981174478
 21
540.586424019
 31
0.0
  0
LINE
  5
331
100
AcDbEntity
  8
AS88QU
  6
SOLID
 62
        7
100
AcDbLine
 10
1193.061688054
 20
503.316262375
 30
0.0
 11
1193.061688054
 21
554.012436121
 31
0.0
  0
LINE
  5
332
100
AcDbEntity
  8
AS88QU
  6
SOLID
 62
        7
100
AcDbLine
 10
1207.194443783
 20
92.816150883
 30
0.0
 11
1207.194443783
 21
52.816150883
 31
0.0
  0
LINE
  5
333
100
AcDbEntity
  8
AS88QU
  6
SOLID
 62
        7
100
AcDbLine
 10
1287.194443783
 20
-121.987946293
 30
0.0
 11
1287.194443783
 21
328.012141445
 31
0.0
  0
LINE
  5
334
100
AcDbEntity
  8
AS88QU
  6
SOLID
 62
        7
100
AcDbLine
 10
1207.194567464
 20
328.012141445
 30
0.0
 11
1207.194567464
 21
123.012053707
 31
0.0
  0
LINE
  5
335
100
AcDbEntity
  8
AS88QU
  6
CENTER
 62
        7
100
AcDbLine
 10
1247.194443783
 20
-123.935174576
 30
0.0
 11
1247.194443783
 21
395.412710874
 31
0.0
  0
LINE
  5
336
100
AcDbEntity
  8
AS88QU
  6
SOLID
 62
        7
100
AcDbLine
 10
1198.694441133
 20
78.012150624
 30
0.0
 11
1207.194443783
 21
78.012150624
 31
0.0
  0
LINE
  5
337
100
AcDbEntity
  8
AS88QU
  6
SOLID
 62
        7
100
AcDbLine
 10
1207.194488183
 20
507.816262413
 30
0.0
 11
1207.194488183
 21
513.316262413
 31
0.0
  0
LINE
  5
338
100
AcDbEntity
  8
AS88QU
  6
SOLID
 62
        7
100
AcDbLine
 10
1192.194443783
 20
257.816150883
 30
0.0
 11
1192.194443783
 21
249.316214592
 31
0.0
  0
LINE
  5
339
100
AcDbEntity
  8
AS88QU
  6
SOLID
 62
        7
100
AcDbLine
 10
1067.194443783
 20
235.816150882
 30
0.0
 11
1187.194446438
 21
235.816214592
 31
0.0
  0
LINE
  5
33A
100
AcDbEntity
  8
AS88QU
  6
SOLID
 62
        7
100
AcDbLine
 10
1167.194443783
 20
-57.183849117
 30
0.0
 11
1167.194443783
 21
230.816206629
 31
0.0
  0
LINE
  5
33B
100
AcDbEntity
  8
AS88QU
  6
CENTER
 62
        7
100
AcDbLine
 10
975.780875706
 20
202.816150883
 30
0.0
 11
999.095993975
 21
202.816150883
 31
0.0
  0
LINE
  5
33C
100
AcDbEntity
  8
AS88QU
  6
SOLID
 62
        7
100
AcDbLine
 10
1198.694441133
 20
128.012151339
 30
0.0
 11
1207.194443783
 21
128.012151339
 31
0.0
  0
LINE
  5
33D
100
AcDbEntity
  8
AS88QU
  6
SOLID
 62
        7
100
AcDbLine
 10
967.194443973
 20
56.084100075
 30
0.0
 11
967.194443973
 21
102.816150883
 31
0.0
  0
LINE
  5
33E
100
AcDbEntity
  8
AS88QU
  6
SOLID
 62
        7
100
AcDbLine
 10
967.194443973
 20
47.816150883
 30
0.0
 11
967.194443973
 21
56.084100075
 31
0.0
  0
LINE
  5
33F
100
AcDbEntity
  8
AS88QU
  6
SOLID
 62
        7
100
AcDbLine
 10
1177.061688054
 20
503.316262375
 30
0.0
 11
1177.061688054
 21
554.012436121
 31
0.0
  0
LINE
  5
340
100
AcDbEntity
  8
AS88QU
  6
SOLID
 62
        7
100
AcDbLine
 10
967.194443783
 20
-57.183849117
 30
0.0
 11
967.194443783
 21
230.816206629
 31
0.0
  0
LINE
  5
341
100
AcDbEntity
  8
AS88QU
  6
CENTER
 62
        7
100
AcDbLine
 10
1147.194443783
 20
-97.086978695
 30
0.0
 11
1147.194443783
 21
-12.235468418
 31
0.0
  0
LINE
  5
342
100
AcDbEntity
  8
AS88QU
  6
CENTER
 62
        7
100
AcDbLine
 10
987.194443783
 20
-98.220523617
 30
0.0
 11
987.194443783
 21
-9.156910134
 31
0.0
  0
ARC
  5
343
100
AcDbEntity
  8
AS88QU
  6
SOLID
 62
        7
100
AcDbCircle
 10
1193.694441133
 20
168.012150982
 30
0.0
 40
5.0
100
AcDbArc
 50
0.0
 51
90.0
  0
LINE
  5
344
100
AcDbEntity
  8
AS88QU
  6
SOLID
 62
        7
100
AcDbLine
 10
1198.694441133
 20
168.012150982
 30
0.0
 11
1198.694441133
 21
103.012150982
 31
0.0
  0
LINE
  5
345
100
AcDbEntity
  8
AS88QU
  6
SOLID
 62
        7
100
AcDbLine
 10
1179.265511595
 20
173.012150982
 30
0.0
 11
1193.694441133
 21
173.012150982
 31
0.0
  0
ARC
  5
346
100
AcDbEntity
  8
AS88QU
  6
SOLID
 62
        7
100
AcDbCircle
 10
1193.694441133
 20
38.012150982
 30
0.0
 40
5.0
100
AcDbArc
 50
270.0
 51
0.0
  0
LINE
  5
347
100
AcDbEntity
  8
AS88QU
  6
SOLID
 62
        7
100
AcDbLine
 10
1198.694441133
 20
38.012150982
 30
0.0
 11
1198.694441133
 21
103.012150982
 31
0.0
  0
LINE
  5
348
100
AcDbEntity
  8
AS88QU
  6
SOLID
 62
        7
100
AcDbLine
 10
1179.265511595
 20
33.012150982
 30
0.0
 11
1193.694441133
 21
33.012150982
 31
0.0
  0
LINE
  5
349
100
AcDbEntity
  8
AS88QU
  6
CENTER
 62
        7
100
AcDbLine
 10
987.194504818
 20
184.506059389
 30
0.0
 11
987.194504818
 21
221.061862107
 31
0.0
  0
LINE
  5
34A
100
AcDbEntity
  8
AS88QU
  6
SOLID
 62
        7
100
AcDbLine
 10
967.194443973
 20
-19.183849117
 30
0.0
 11
1167.194443783
 21
-19.183849117
 31
0.0
  0
ARC
  5
34B
100
AcDbEntity
  8
AS88QU
  6
SOLID
 62
        7
100
AcDbCircle
 10
987.194474301
 20
202.816150883
 30
0.0
 40
8.0
100
AcDbArc
 50
15.0
 51
325.0
  0
ARC
  5
34C
100
AcDbEntity
  8
AS88QU
  6
SOLID
 62
        7
100
AcDbCircle
 10
1147.194474301
 20
202.816150883
 30
0.0
 40
8.0
100
AcDbArc
 50
15.0
 51
325.0
  0
CIRCLE
  5
34D
100
AcDbEntity
  8
AS88QU
  6
SOLID
 62
        7
100
AcDbCircle
 10
1147.194474301
 20
202.816150883
 30
0.0
 40
7.0
  0
CIRCLE
  5
34E
100
AcDbEntity
  8
AS88QU
  6
SOLID
 62
        7
100
AcDbCircle
 10
987.194474301
 20
202.816150883
 30
0.0
 40
7.0
  0
LINE
  5
34F
100
AcDbEntity
  8
AS88QU
  6
SOLID
 62
        7
100
AcDbLine
 10
1207.194488183
 20
507.816262413
 30
0.0
 11
1207.194488183
 21
513.316262413
 31
0.0
  0
LINE
  5
350
100
AcDbEntity
  8
AS88QU
  6
SOLID
 62
        7
100
AcDbLine
 10
1179.237497467
 20
530.43462371
 30
0.0
 11
1185.098642027
 21
527.11851038
 31
0.0
  0
LINE
  5
351
100
AcDbEntity
  8
AS88QU
  6
SOLID
 62
        7
100
AcDbLine
 10
967.194443973
 20
20.816150883
 30
0.0
 11
1167.194443783
 21
20.816150883
 31
0.0
  0
LINE
  5
352
100
AcDbEntity
  8
AS88QU
  6
SOLID
 62
        7
100
AcDbLine
 10
1167.194443783
 20
228.816150883
 30
0.0
 11
967.194443783
 21
228.816150883
 31
0.0
  0
LINE
  5
353
100
AcDbEntity
  8
AS88QU
  6
SOLID
 62
        7
100
AcDbLine
 10
1167.194443783
 20
173.816204288
 30
0.0
 11
967.194443783
 21
173.816204288
 31
0.0
  0
LINE
  5
354
100
AcDbEntity
  8
AS88QU
  6
SOLID
 62
        7
100
AcDbLine
 10
1179.17876352
 20
537.168580507
 30
0.0
 11
1179.237497467
 21
530.43462371
 31
0.0
  0
LINE
  5
355
100
AcDbEntity
  8
AS88QU
  6
SOLID
 62
        7
100
AcDbLine
 10
1185.098642199
 20
527.118510403
 30
0.0
 11
1190.901052983
 21
530.536354013
 31
0.0
  0
LINE
  5
356
100
AcDbEntity
  8
AS88QU
  6
SOLID
 62
        7
100
AcDbLine
 10
1190.901052983
 20
530.536354013
 30
0.0
 11
1190.842319037
 21
537.270310689
 31
0.0
  0
LINE
  5
357
100
AcDbEntity
  8
AS88QU
  6
CENTER
 62
        7
100
AcDbLine
 10
1131.502838466
 20
202.816097477
 30
0.0
 11
1162.301821859
 21
202.816097477
 31
0.0
  0
LINE
  5
358
100
AcDbEntity
  8
AS88QU
  6
CENTER
 62
        7
100
AcDbLine
 10
1147.194504818
 20
187.960150984
 30
0.0
 11
1147.194504818
 21
219.334816309
 31
0.0
  0
LINE
  5
359
100
AcDbEntity
  8
AS88QU
  6
L_DASH
 62
        7
100
AcDbLine
 10
1154.194443783
 20
-57.183849117
 30
0.0
 11
1154.194443783
 21
-15.183849117
 31
0.0
  0
ARC
  5
35A
100
AcDbEntity
  8
AS88QU
  6
SOLID
 62
        7
100
AcDbCircle
 10
929.194465665
 20
493.816262375
 30
0.0
 40
2.0
100
AcDbArc
 50
179.999943452
 51
270.0
  0
ARC
  5
35B
100
AcDbEntity
  8
AS88QU
  6
SOLID
 62
        7
100
AcDbCircle
 10
1205.194482936
 20
493.816262375
 30
0.0
 40
2.0
100
AcDbArc
 50
270.0
 51
0.000056548
  0
LINE
  5
35C
100
AcDbEntity
  8
AS88QU
  6
SOLID
 62
        7
100
AcDbLine
 10
927.194399383
 20
503.316262375
 30
0.0
 11
1207.194488183
 21
503.316262375
 31
0.0
  0
LINE
  5
35D
100
AcDbEntity
  8
AS88QU
  6
SOLID
 62
        7
100
AcDbLine
 10
1017.873467526
 20
257.943149803
 30
0.0
 11
1029.494360717
 21
257.943149803
 31
0.0
  0
LINE
  5
35E
100
AcDbEntity
  8
AS88QU
  6
SOLID
 62
        7
100
AcDbLine
 10
1017.873467526
 20
268.023150258
 30
0.0
 11
1029.494361761
 21
268.023150258
 31
0.0
  0
ARC
  5
35F
100
AcDbEntity
  8
AS88QU
  6
SOLID
 62
        7
100
AcDbCircle
 10
1187.194443783
 20
240.816214592
 30
0.0
 40
5.0
100
AcDbArc
 50
270.000030419
 51
0.0
  0
LINE
  5
360
100
AcDbEntity
  8
AS88QU
  6
SOLID
 62
        7
100
AcDbLine
 10
1017.873467526
 20
278.103150714
 30
0.0
 11
1029.494362804
 21
278.103150714
 31
0.0
  0
LINE
  5
361
100
AcDbEntity
  8
AS88QU
  6
SOLID
 62
        7
100
AcDbLine
 10
1017.873467526
 20
288.183151169
 30
0.0
 11
1029.494363847
 21
288.183151169
 31
0.0
  0
LINE
  5
362
100
AcDbEntity
  8
AS88QU
  6
CENTER
 62
        7
100
AcDbLine
 10
1067.194443783
 20
755.204177976
 30
0.0
 11
1067.194443783
 21
-109.276675961
 31
0.0
  0
DIMENSION
  5
372
100
AcDbEntity
  8
AS88QU
  6
SOLID
 62
        7
100
AcDbDimension
  2
*D6
 10
1207.194458008
 20
386.913330078
 30
0.0
 11
1232.529785156
 21
396.913330078
 31
0.0
 71
        5
 72
        1
 41
1.0
 42
0.0
  3
5
100
AcDbAlignedDimension
 13
1287.194458008
 23
328.012207031
 33
0.0
 14
1207.194458008
 24
328.012207031
 34
0.0
100
AcDbRotatedDimension
  0
DIMENSION
  5
382
100
AcDbEntity
  8
AS88QU
  6
SOLID
 62
        7
100
AcDbDimension
  2
*D7
 10
1067.194335938
 20
-239.966064453
 30
0.0
 11
1133.697509766
 21
-229.966064453
 31
0.0
 71
        5
 72
        1
 41
1.0
 42
0.0
  3
6
100
AcDbAlignedDimension
 13
1247.194458008
 23
-123.988037109
 33
0.0
 14
1067.194335938
 24
-197.458251953
 34
0.0
100
AcDbRotatedDimension
  0
DIMENSION
  5
392
100
AcDbEntity
  8
AS88QU
  6
SOLID
 62
        7
100
AcDbDimension
  2
*D8
 10
987.194396973
 20
-144.593704224
 30
0.0
 11
1043.697509766
 21
-134.593704224
 31
0.0
 71
        5
 72
        1
 41
1.0
 42
0.0
  1
  150   
  3
7
100
AcDbAlignedDimension
 13
1147.194458008
 23
-97.086914063
 33
0.0
 14
987.194396973
 24
-98.220458984
 34
0.0
100
AcDbRotatedDimension
  0
CIRCLE
  5
393
100
AcDbEntity
  8
AS88QU
  6
SOLID
 62
        7
100
AcDbCircle
 10
1246.832490958
 20
386.874463287
 30
0.0
 40
3.221020349
  0
INSERT
  5
3B7
100
AcDbEntity
  8
0
100
AcDbBlockReference
  2
*H9
 10
0.0
 20
0.0
 30
0.0
  0
LINE
  5
3B8
100
AcDbEntity
  8
AS88QU
  6
SOLID
 62
        7
100
AcDbLine
 10
1230.047703561
 20
378.432157717
 30
0.0
 11
1240.047703561
 21
378.432157717
 31
0.0
  0
LINE
  5
3B9
100
AcDbEntity
  8
AS88QU
  6
SOLID
 62
        7
100
AcDbLine
 10
1230.047703561
 20
373.432157717
 30
0.0
 11
1240.047703561
 21
373.432157717
 31
0.0
  0
DIMENSION
  5
3CB
100
AcDbEntity
  8
AS88QU
  6
SOLID
 62
        7
100
AcDbDimension
  2
*D10
 10
1121.580078125
 20
-57.183837891
 30
0.0
 11
1113.580078125
 21
-51.415531158
 31
0.0
 71
        5
 72
        1
 41
1.0
 42
0.0
  3
8
100
AcDbAlignedDimension
 13
1155.194458008
 23
-22.183837891
 33
0.0
 14
1167.194458008
 24
-57.183837891
 34
0.0
 50
90.0
100
AcDbRotatedDimension
  0
ARC
  5
3CC
100
AcDbEntity
  8
AS88QU
  6
SOLID
 62
        7
100
AcDbCircle
 10
822.426371623
 20
-19.1001832
 30
0.0
 40
1.0
100
AcDbArc
 50
179.999993521
 51
269.999993521
  0
DIMENSION
  5
3DE
100
AcDbEntity
  8
AS88QU
  6
SOLID
 62
        7
100
AcDbDimension
  2
*D11
 10
979.194396973
 20
-49.045410156
 30
0.0
 11
1018.494384766
 21
-41.045410156
 31
0.0
 71
        5
 72
        1
 41
1.0
 42
0.0
  1
  M16   
  3
9
100
AcDbAlignedDimension
 13
995.194396973
 23
-22.183837891
 33
0.0
 14
979.194396973
 24
-22.183837891
 34
0.0
100
AcDbRotatedDimension
  0
LINE
  5
3DF
100
AcDbEntity
  8
AS88QU
  6
SOLID
 62
        7
100
AcDbLine
 10
1264.341308344
 20
378.432157717
 30
0.0
 11
1254.341308344
 21
378.432157717
 31
0.0
  0
LINE
  5
3E0
100
AcDbEntity
  8
AS88QU
  6
SOLID
 62
        7
100
AcDbLine
 10
1264.341308344
 20
373.432157717
 30
0.0
 11
1254.341308344
 21
373.432157717
 31
0.0
  0
LINE
  5
3E1
100
AcDbEntity
  8
AS88QU
  6
SOLID
 62
        7
100
AcDbLine
 10
821.426356196
 20
-19.100180745
 30
0.0
 11
821.426356658
 21
-15.010538611
 31
0.0
  0
LINE
  5
3E2
100
AcDbEntity
  8
AS88QU
  6
SOLID
 62
        7
100
AcDbLine
 10
833.926369808
 20
103.512161409
 30
0.0
 11
833.926371448
 21
118.012161409
 31
0.0
  0
DIMENSION
  5
3F4
100
AcDbEntity
  8
AS88QU
  6
SOLID
 62
        7
100
AcDbDimension
  2
*D12
 10
962.194396973
 20
-193.389892578
 30
0.0
 11
930.286376953
 21
-183.389892578
 31
0.0
 71
        5
 72
        1
 41
1.0
 42
0.0
  3
10
100
AcDbAlignedDimension
 13
967.194396973
 23
-67.183837891
 33
0.0
 14
962.194396973
 24
-21.638916016
 34
0.0
100
AcDbRotatedDimension
  0
CIRCLE
  5
3F5
100
AcDbEntity
  8
AS88QU
  6
SOLID
 62
        7
100
AcDbCircle
 10
1067.151090467
 20
-144.634200853
 30
0.0
 40
2.528900133
  0
INSERT
  5
40F
100
AcDbEntity
  8
0
100
AcDbBlockReference
  2
*H13
 10
0.0
 20
0.0
 30
0.0
  0
LINE
  5
410
100
AcDbEntity
  8
AS88QU
  6
SOLID
 62
        7
100
AcDbLine
 10
1040.419285592
 20
-152.146943845
 30
0.0
 11
1050.419285592
 21
-152.146943845
 31
0.0
  0
LINE
  5
411
100
AcDbEntity
  8
AS88QU
  6
SOLID
 62
        7
100
AcDbLine
 10
1040.419285592
 20
-157.146943845
 30
0.0
 11
1050.419285592
 21
-157.146943845
 31
0.0
  0
LINE
  5
412
100
AcDbEntity
  8
AS88QU
  6
SOLID
 62
        7
100
AcDbLine
 10
1094.712890375
 20
-152.146943845
 30
0.0
 11
1084.712890375
 21
-152.146943845
 31
0.0
  0
LINE
  5
413
100
AcDbEntity
  8
AS88QU
  6
SOLID
 62
        7
100
AcDbLine
 10
1094.712890375
 20
-157.146943845
 30
0.0
 11
1084.712890375
 21
-157.146943845
 31
0.0
  0
LINE
  5
414
100
AcDbEntity
  8
AS88QU
  6
CENTER
 62
        7
100
AcDbLine
 10
1067.194443783
 20
-139.253692351
 30
0.0
 11
1067.194443783
 21
-197.457965505
 31
0.0
  0
LINE
  5
415
100
AcDbEntity
  8
AS88QU
  6
CENTER
 62
        7
100
AcDbLine
 10
874.232684674
 20
586.012384093
 30
0.0
 11
975.622164627
 21
586.012384093
 31
0.0
  0
LINE
  5
416
100
AcDbEntity
  8
AS88QU
  6
SOLID
 62
        7
100
AcDbLine
 10
897.894213784
 20
592.513344788
 30
0.0
 11
897.894264139
 21
591.308886398
 31
0.0
  0
LINE
  5
417
100
AcDbEntity
  8
AS88QU
  6
SOLID
 62
        7
100
AcDbLine
 10
897.194213975
 20
592.513315523
 30
0.0
 11
897.194269368
 21
591.188360987
 31
0.0
  0
LINE
  5
418
100
AcDbEntity
  8
AS88QU
  6
SOLID
 62
        7
100
AcDbLine
 10
897.194213975
 20
592.513315523
 30
0.0
 11
897.894213784
 21
592.513344788
 31
0.0
  0
LINE
  5
419
100
AcDbEntity
  8
AS88QU
  6
SOLID
 62
        7
100
AcDbLine
 10
890.394315382
 20
590.012945621
 30
0.0
 11
878.194273622
 21
590.01242663
 31
0.0
  0
LINE
  5
41A
100
AcDbEntity
  8
AS88QU
  6
SOLID
 62
        7
100
AcDbLine
 10
890.394349414
 20
589.212945668
 30
0.0
 11
877.394307702
 21
589.212392646
 31
0.0
  0
ARC
  5
41B
100
AcDbEntity
  8
AS88QU
  6
SOLID
 62
        7
100
AcDbCircle
 10
917.695097631
 20
571.014084966
 30
0.0
 40
2.5
100
AcDbArc
 50
173.348012321
 51
353.348012321
  0
ARC
  5
41C
100
AcDbEntity
  8
AS88QU
  6
SOLID
 62
        7
100
AcDbCircle
 10
924.695097624
 20
571.014382746
 30
0.0
 40
2.5
100
AcDbArc
 50
173.348012321
 51
353.348012321
  0
ARC
  5
41D
100
AcDbEntity
  8
AS88QU
  6
SOLID
 62
        7
100
AcDbCircle
 10
892.275039319
 20
586.013025623
 30
0.0
 40
12.419446412
100
AcDbArc
 50
342.414487434
 51
17.5903873
  0
LINE
  5
41E
100
AcDbEntity
  8
AS88QU
  6
SOLID
 62
        7
100
AcDbLine
 10
915.211952109
 20
570.724277583
 30
0.0
 11
914.194739187
 21
579.440024196
 31
0.0
  0
LINE
  5
41F
100
AcDbEntity
  8
AS88QU
  6
SOLID
 62
        7
100
AcDbLine
 10
922.211952103
 20
570.724575364
 30
0.0
 11
921.194739181
 21
579.440321976
 31
0.0
  0
LINE
  5
420
100
AcDbEntity
  8
AS88QU
  6
SOLID
 62
        7
100
AcDbLine
 10
929.211952096
 20
570.724873144
 30
0.0
 11
928.194739175
 21
579.440619757
 31
0.0
  0
LINE
  5
421
100
AcDbEntity
  8
AS88QU
  6
SOLID
 62
        7
100
AcDbLine
 10
904.693826349
 20
601.513553933
 30
0.0
 11
905.693783808
 21
602.513596472
 31
0.0
  0
LINE
  5
422
100
AcDbEntity
  8
AS88QU
  6
SOLID
 62
        7
100
AcDbLine
 10
904.693826349
 20
601.513553933
 30
0.0
 11
904.69448572
 21
586.013553947
 31
0.0
  0
LINE
  5
423
100
AcDbEntity
  8
AS88QU
  6
SOLID
 62
        7
100
AcDbLine
 10
908.693783805
 20
602.513724092
 30
0.0
 11
905.693783808
 21
602.513596472
 31
0.0
  0
LINE
  5
424
100
AcDbEntity
  8
AS88QU
  6
SOLID
 62
        7
100
AcDbLine
 10
908.694485716
 20
586.013724107
 30
0.0
 11
908.693783805
 21
602.513724092
 31
0.0
  0
LINE
  5
425
100
AcDbEntity
  8
AS88QU
  6
SOLID
 62
        7
100
AcDbLine
 10
905.694485719
 20
586.013596487
 30
0.0
 11
905.693783808
 21
602.513596472
 31
0.0
  0
LINE
  5
426
100
AcDbEntity
  8
AS88QU
  6
SOLID
 62
        7
100
AcDbLine
 10
905.693783808
 20
602.513596472
 30
0.0
 11
905.694485719
 21
586.013596487
 31
0.0
  0
LINE
  5
427
100
AcDbEntity
  8
AS88QU
  6
SOLID
 62
        7
100
AcDbLine
 10
878.194273622
 20
590.012426629
 30
0.0
 11
877.194316163
 21
589.01238409
 31
0.0
  0
LINE
  5
428
100
AcDbEntity
  8
AS88QU
  6
SOLID
 62
        7
100
AcDbLine
 10
897.194762237
 20
579.513234902
 30
0.0
 11
897.894762046
 21
579.51326468
 31
0.0
  0
LINE
  5
429
100
AcDbEntity
  8
AS88QU
  6
SOLID
 62
        7
100
AcDbLine
 10
897.894762046
 20
579.51326468
 30
0.0
 11
897.894710808
 21
580.71772307
 31
0.0
  0
LINE
  5
42A
100
AcDbEntity
  8
AS88QU
  6
SOLID
 62
        7
100
AcDbLine
 10
897.194762237
 20
579.513234902
 30
0.0
 11
897.194705874
 21
580.838189438
 31
0.0
  0
LINE
  5
42B
100
AcDbEntity
  8
AS88QU
  6
SOLID
 62
        7
100
AcDbLine
 10
890.394655702
 20
582.012945627
 30
0.0
 11
878.194613943
 21
582.012426637
 31
0.0
  0
LINE
  5
42C
100
AcDbEntity
  8
AS88QU
  6
SOLID
 62
        7
100
AcDbLine
 10
890.39462167
 20
582.812945579
 30
0.0
 11
877.394579959
 21
582.812392556
 31
0.0
  0
ARC
  5
42D
100
AcDbEntity
  8
AS88QU
  6
SOLID
 62
        7
100
AcDbCircle
 10
910.695097637
 20
571.013787185
 30
0.0
 40
2.5
100
AcDbArc
 50
216.872335013
 51
353.348012321
  0
LINE
  5
42E
100
AcDbEntity
  8
AS88QU
  6
SOLID
 62
        7
100
AcDbLine
 10
911.326995237
 20
598.013836105
 30
0.0
 11
908.693975235
 21
598.013724096
 31
0.0
  0
LINE
  5
42F
100
AcDbEntity
  8
AS88QU
  6
SOLID
 62
        7
100
AcDbLine
 10
890.394725007
 20
580.383780337
 30
0.0
 11
890.394246077
 21
591.64211091
 31
0.0
  0
LINE
  5
430
100
AcDbEntity
  8
AS88QU
  6
SOLID
 62
        7
100
AcDbLine
 10
896.614088899
 20
582.260433342
 30
0.0
 11
890.975201657
 21
582.260193463
 31
0.0
  0
LINE
  5
431
100
AcDbEntity
  8
AS88QU
  6
SOLID
 62
        7
100
AcDbLine
 10
897.194246262
 20
591.642400183
 30
0.0
 11
897.194725192
 21
580.38406961
 31
0.0
  0
LINE
  5
432
100
AcDbEntity
  8
AS88QU
  6
SOLID
 62
        7
100
AcDbLine
 10
896.613769612
 20
589.765987057
 30
0.0
 11
890.97488237
 21
589.765747178
 31
0.0
  0
ARC
  5
433
100
AcDbEntity
  8
AS88QU
  6
SOLID
 62
        7
100
AcDbCircle
 10
893.716816354
 20
591.642252253
 30
0.0
 40
3.32257028
100
AcDbArc
 50
145.618197078
 51
214.386677656
  0
ARC
  5
434
100
AcDbEntity
  8
AS88QU
  6
SOLID
 62
        7
100
AcDbCircle
 10
902.813931943
 20
586.013473948
 30
0.0
 40
12.419446412
100
AcDbArc
 50
162.414487434
 51
197.5903873
  0
ARC
  5
435
100
AcDbEntity
  8
AS88QU
  6
SOLID
 62
        7
100
AcDbCircle
 10
893.717295284
 20
580.383921679
 30
0.0
 40
3.32257028
100
AcDbArc
 50
145.618197078
 51
214.386677656
  0
LINE
  5
436
100
AcDbEntity
  8
AS88QU
  6
SOLID
 62
        7
100
AcDbLine
 10
896.614248542
 20
578.507656484
 30
0.0
 11
890.9753613
 21
578.507416605
 31
0.0
  0
ARC
  5
437
100
AcDbEntity
  8
AS88QU
  6
SOLID
 62
        7
100
AcDbCircle
 10
893.872154915
 20
580.383928267
 30
0.0
 40
3.32257028
100
AcDbArc
 50
325.618197078
 51
34.386677656
  0
ARC
  5
438
100
AcDbEntity
  8
AS88QU
  6
SOLID
 62
        7
100
AcDbCircle
 10
884.775039326
 20
586.012706572
 30
0.0
 40
12.419446412
100
AcDbArc
 50
342.414487434
 51
17.5903873
  0
ARC
  5
439
100
AcDbEntity
  8
AS88QU
  6
SOLID
 62
        7
100
AcDbCircle
 10
893.871675985
 20
591.642258841
 30
0.0
 40
3.32257028
100
AcDbArc
 50
325.618197078
 51
34.386677656
  0
LINE
  5
43A
100
AcDbEntity
  8
AS88QU
  6
SOLID
 62
        7
100
AcDbLine
 10
890.974722727
 20
593.518524036
 30
0.0
 11
896.613609968
 21
593.518763915
 31
0.0
  0
LINE
  5
43B
100
AcDbEntity
  8
AS88QU
  6
SOLID
 62
        7
100
AcDbLine
 10
878.194273622
 20
590.012426629
 30
0.0
 11
878.194613943
 21
582.012426637
 31
0.0
  0
LINE
  5
43C
100
AcDbEntity
  8
AS88QU
  6
SOLID
 62
        7
100
AcDbLine
 10
877.194316163
 20
589.01238409
 30
0.0
 11
877.194571403
 21
583.012384096
 31
0.0
  0
LINE
  5
43D
100
AcDbEntity
  8
AS88QU
  6
SOLID
 62
        7
100
AcDbLine
 10
878.194613943
 20
582.012426637
 30
0.0
 11
877.194571403
 21
583.012384096
 31
0.0
  0
LINE
  5
43E
100
AcDbEntity
  8
AS88QU
  6
SOLID
 62
        7
100
AcDbLine
 10
909.927505719
 20
586.01377656
 30
0.0
 11
908.694909141
 21
575.44475683
 31
0.0
  0
ARC
  5
43F
100
AcDbEntity
  8
AS88QU
  6
SOLID
 62
        7
100
AcDbCircle
 10
914.193821431
 20
601.013936048
 30
0.0
 40
2.5
100
AcDbArc
 50
353.348012321
 51
173.348012321
  0
LINE
  5
440
100
AcDbEntity
  8
AS88QU
  6
SOLID
 62
        7
100
AcDbLine
 10
914.961418484
 20
586.013990703
 30
0.0
 11
913.178267806
 21
570.72419107
 31
0.0
  0
ARC
  5
441
100
AcDbEntity
  8
AS88QU
  6
SOLID
 62
        7
100
AcDbCircle
 10
921.193821425
 20
601.014233829
 30
0.0
 40
2.5
100
AcDbArc
 50
353.348012321
 51
173.348012321
  0
LINE
  5
442
100
AcDbEntity
  8
AS88QU
  6
SOLID
 62
        7
100
AcDbLine
 10
921.961418478
 20
586.014288484
 30
0.0
 11
920.1782678
 21
570.724488851
 31
0.0
  0
LINE
  5
443
100
AcDbEntity
  8
AS88QU
  6
SOLID
 62
        7
100
AcDbLine
 10
916.927505712
 20
586.01407434
 30
0.0
 11
915.211927461
 21
571.303681081
 31
0.0
  0
ARC
  5
444
100
AcDbEntity
  8
AS88QU
  6
SOLID
 62
        7
100
AcDbCircle
 10
928.193821419
 20
601.014531609
 30
0.0
 40
2.5
100
AcDbArc
 50
353.348012321
 51
173.348012321
  0
LINE
  5
445
100
AcDbEntity
  8
AS88QU
  6
SOLID
 62
        7
100
AcDbLine
 10
928.961418472
 20
586.014586264
 30
0.0
 11
927.178267794
 21
570.724786631
 31
0.0
  0
LINE
  5
446
100
AcDbEntity
  8
AS88QU
  6
SOLID
 62
        7
100
AcDbLine
 10
923.927505706
 20
586.014372121
 30
0.0
 11
922.211927455
 21
571.303978861
 31
0.0
  0
LINE
  5
447
100
AcDbEntity
  8
AS88QU
  6
SOLID
 62
        7
100
AcDbLine
 10
961.237560463
 20
586.014669902
 30
0.0
 11
959.799515819
 21
573.684015662
 31
0.0
  0
LINE
  5
448
100
AcDbEntity
  8
AS88QU
  6
SOLID
 62
        7
100
AcDbLine
 10
917.694179875
 20
592.587996818
 30
0.0
 11
916.676966953
 21
601.303743431
 31
0.0
  0
LINE
  5
449
100
AcDbEntity
  8
AS88QU
  6
SOLID
 62
        7
100
AcDbLine
 10
924.694179868
 20
592.588294599
 30
0.0
 11
923.676966947
 21
601.304041211
 31
0.0
  0
LINE
  5
44A
100
AcDbEntity
  8
AS88QU
  6
SOLID
 62
        7
100
AcDbLine
 10
962.004234625
 20
592.58859238
 30
0.0
 11
961.357958179
 21
598.12605816
 31
0.0
  0
LINE
  5
44B
100
AcDbEntity
  8
AS88QU
  6
SOLID
 62
        7
100
AcDbLine
 10
904.695145091
 20
570.513553961
 30
0.0
 11
904.69448572
 21
586.013553947
 31
0.0
  0
LINE
  5
44C
100
AcDbEntity
  8
AS88QU
  6
SOLID
 62
        7
100
AcDbLine
 10
905.69518763
 20
569.513596502
 30
0.0
 11
905.694485719
 21
586.013596487
 31
0.0
  0
LINE
  5
44D
100
AcDbEntity
  8
AS88QU
  6
SOLID
 62
        7
100
AcDbLine
 10
905.694485719
 20
586.013596487
 30
0.0
 11
905.69518763
 21
569.513596502
 31
0.0
  0
LINE
  5
44E
100
AcDbEntity
  8
AS88QU
  6
SOLID
 62
        7
100
AcDbLine
 10
908.694485716
 20
586.013724107
 30
0.0
 11
908.695187628
 21
569.513724122
 31
0.0
  0
LINE
  5
44F
100
AcDbEntity
  8
AS88QU
  6
SOLID
 62
        7
100
AcDbLine
 10
908.695187628
 20
569.513724122
 30
0.0
 11
905.69518763
 21
569.513596502
 31
0.0
  0
LINE
  5
450
100
AcDbEntity
  8
AS88QU
  6
SOLID
 62
        7
100
AcDbLine
 10
904.695145091
 20
570.513553961
 30
0.0
 11
905.69518763
 21
569.513596502
 31
0.0
  0
LINE
  5
451
100
AcDbEntity
  8
AS88QU
  6
SOLID
 62
        7
100
AcDbLine
 10
898.47472272
 20
593.518843087
 30
0.0
 11
904.113609962
 21
593.519082966
 31
0.0
  0
ARC
  5
452
100
AcDbEntity
  8
AS88QU
  6
SOLID
 62
        7
100
AcDbCircle
 10
901.371675978
 20
591.642577891
 30
0.0
 40
3.32257028
100
AcDbArc
 50
325.618197078
 51
34.386677656
  0
ARC
  5
453
100
AcDbEntity
  8
AS88QU
  6
SOLID
 62
        7
100
AcDbCircle
 10
901.372154908
 20
580.384247318
 30
0.0
 40
3.32257028
100
AcDbArc
 50
325.618197078
 51
34.386677656
  0
LINE
  5
454
100
AcDbEntity
  8
AS88QU
  6
SOLID
 62
        7
100
AcDbLine
 10
904.114248535
 20
578.507975534
 30
0.0
 11
898.475361294
 21
578.507735656
 31
0.0
  0
ARC
  5
455
100
AcDbEntity
  8
AS88QU
  6
SOLID
 62
        7
100
AcDbCircle
 10
901.217295277
 20
580.38424073
 30
0.0
 40
3.32257028
100
AcDbArc
 50
145.618197078
 51
214.386677656
  0
ARC
  5
456
100
AcDbEntity
  8
AS88QU
  6
SOLID
 62
        7
100
AcDbCircle
 10
910.313931936
 20
586.013792999
 30
0.0
 40
12.419446412
100
AcDbArc
 50
162.414487434
 51
197.5903873
  0
ARC
  5
457
100
AcDbEntity
  8
AS88QU
  6
SOLID
 62
        7
100
AcDbCircle
 10
901.216816347
 20
591.642571303
 30
0.0
 40
3.32257028
100
AcDbArc
 50
145.618197078
 51
214.386677656
  0
LINE
  5
458
100
AcDbEntity
  8
AS88QU
  6
SOLID
 62
        7
100
AcDbLine
 10
904.113769605
 20
589.766306108
 30
0.0
 11
898.474882363
 21
589.766066229
 31
0.0
  0
LINE
  5
459
100
AcDbEntity
  8
AS88QU
  6
SOLID
 62
        7
100
AcDbLine
 10
904.114088892
 20
582.260752392
 30
0.0
 11
898.47520165
 21
582.260512513
 31
0.0
  0
LINE
  5
45A
100
AcDbEntity
  8
AS88QU
  6
SOLID
 62
        7
100
AcDbLine
 10
897.894725
 20
580.384099388
 30
0.0
 11
897.89424607
 21
591.642429961
 31
0.0
  0
LINE
  5
45B
100
AcDbEntity
  8
AS88QU
  6
SOLID
 62
        7
100
AcDbLine
 10
962.629602892
 20
597.950873656
 30
0.0
 11
961.237560463
 21
586.014669902
 31
0.0
  0
LINE
  5
45C
100
AcDbEntity
  8
AS88QU
  6
SOLID
 62
        7
100
AcDbLine
 10
930.676991588
 20
600.724935495
 30
0.0
 11
928.961418472
 21
586.014586264
 31
0.0
  0
LINE
  5
45D
100
AcDbEntity
  8
AS88QU
  6
SOLID
 62
        7
100
AcDbLine
 10
925.710651249
 20
601.304127724
 30
0.0
 11
923.927505706
 21
586.014372121
 31
0.0
  0
LINE
  5
45E
100
AcDbEntity
  8
AS88QU
  6
SOLID
 62
        7
100
AcDbLine
 10
923.676991594
 20
600.724637714
 30
0.0
 11
921.961418478
 21
586.014288484
 31
0.0
  0
LINE
  5
45F
100
AcDbEntity
  8
AS88QU
  6
SOLID
 62
        7
100
AcDbLine
 10
918.710651256
 20
601.303829944
 30
0.0
 11
916.927505712
 21
586.01407434
 31
0.0
  0
LINE
  5
460
100
AcDbEntity
  8
AS88QU
  6
SOLID
 62
        7
100
AcDbLine
 10
916.676991601
 20
600.724339933
 30
0.0
 11
914.961418484
 21
586.013990703
 31
0.0
  0
LINE
  5
461
100
AcDbEntity
  8
AS88QU
  6
SOLID
 62
        7
100
AcDbLine
 10
911.710651262
 20
601.303532163
 30
0.0
 11
909.927505719
 21
586.01377656
 31
0.0
  0
ARC
  5
462
100
AcDbEntity
  8
AS88QU
  6
SOLID
 62
        7
100
AcDbCircle
 10
967.698659592
 20
577.804833363
 30
0.0
 40
3.0
100
AcDbArc
 50
275.906480685
 51
309.411573364
  0
LINE
  5
463
100
AcDbEntity
  8
AS88QU
  6
SOLID
 62
        7
100
AcDbLine
 10
967.194447462
 20
562.961452154
 30
0.0
 11
967.194426006
 21
553.01204468
 31
0.0
  0
LINE
  5
464
100
AcDbEntity
  8
AS88QU
  6
SOLID
 62
        7
100
AcDbLine
 10
966.075769908
 20
574.548645894
 30
0.0
 11
965.504793931
 21
579.440917537
 31
0.0
  0
LINE
  5
465
100
AcDbEntity
  8
AS88QU
  6
SOLID
 62
        7
100
AcDbLine
 10
966.271473228
 20
586.014884045
 30
0.0
 11
964.915600209
 21
574.388818426
 31
0.0
  0
ARC
  5
466
100
AcDbEntity
  8
AS88QU
  6
SOLID
 62
        7
100
AcDbCircle
 10
931.695097618
 20
571.014680527
 30
0.0
 40
2.5
100
AcDbArc
 50
173.348012321
 51
237.848075536
  0
LINE
  5
467
100
AcDbEntity
  8
AS88QU
  6
SOLID
 62
        7
100
AcDbLine
 10
967.202000813
 20
593.993783698
 30
0.0
 11
966.271473228
 21
586.014884045
 31
0.0
  0
LINE
  5
468
100
AcDbEntity
  8
AS88QU
  6
CENTER
 62
        7
100
AcDbLine
 10
1237.771756961
 20
586.012384093
 30
0.0
 11
1158.766722939
 21
586.012384093
 31
0.0
  0
ARC
  5
469
100
AcDbEntity
  8
AS88QU
  6
SOLID
 62
        7
100
AcDbCircle
 10
968.068064556
 20
604.140287008
 30
0.0
 40
5.0
100
AcDbArc
 50
64.025606038
 51
105.708637829
  0
ARC
  5
46A
100
AcDbEntity
  8
AS88QU
  6
SOLID
 62
        7
100
AcDbCircle
 10
966.857315049
 20
579.665469233
 30
0.0
 40
5.0
100
AcDbArc
 50
303.312205955
 51
10.0
  0
LINE
  5
46B
100
AcDbEntity
  8
AS88QU
  6
SOLID
 62
        7
100
AcDbLine
 10
1213.684517421
 20
590.012945621
 30
0.0
 11
1225.884559181
 21
590.01242663
 31
0.0
  0
LINE
  5
46C
100
AcDbEntity
  8
AS88QU
  6
SOLID
 62
        7
100
AcDbLine
 10
1213.684483389
 20
589.212945668
 30
0.0
 11
1226.684525101
 21
589.212392646
 31
0.0
  0
LINE
  5
46D
100
AcDbEntity
  8
AS88QU
  6
SOLID
 62
        7
100
AcDbLine
 10
1225.884559181
 20
590.012426629
 30
0.0
 11
1226.88451664
 21
589.01238409
 31
0.0
  0
LINE
  5
46E
100
AcDbEntity
  8
AS88QU
  6
SOLID
 62
        7
100
AcDbLine
 10
967.586536868
 20
597.291025649
 30
0.0
 11
966.271473228
 21
586.014884045
 31
0.0
  0
LINE
  5
46F
100
AcDbEntity
  8
AS88QU
  6
SOLID
 62
        7
100
AcDbLine
 10
969.004234619
 20
592.58889016
 30
0.0
 11
968.474954555
 21
597.123900305
 31
0.0
  0
LINE
  5
470
100
AcDbEntity
  8
AS88QU
  6
SOLID
 62
        7
100
AcDbLine
 10
1213.684177101
 20
582.012945627
 30
0.0
 11
1225.884218861
 21
582.012426637
 31
0.0
  0
LINE
  5
471
100
AcDbEntity
  8
AS88QU
  6
SOLID
 62
        7
100
AcDbLine
 10
1213.684211133
 20
582.812945579
 30
0.0
 11
1226.684252844
 21
582.812392556
 31
0.0
  0
LINE
  5
472
100
AcDbEntity
  8
AS88QU
  6
SOLID
 62
        7
100
AcDbLine
 10
1213.684107796
 20
580.383780337
 30
0.0
 11
1213.684586726
 21
591.64211091
 31
0.0
  0
LINE
  5
473
100
AcDbEntity
  8
AS88QU
  6
SOLID
 62
        7
100
AcDbLine
 10
1207.561692098
 20
582.260429217
 30
0.0
 11
1213.103631146
 21
582.260193463
 31
0.0
  0
LINE
  5
474
100
AcDbEntity
  8
AS88QU
  6
SOLID
 62
        7
100
AcDbLine
 10
966.075769908
 20
574.548645894
 30
0.0
 11
965.504793931
 21
579.440917537
 31
0.0
  0
LINE
  5
475
100
AcDbEntity
  8
AS88QU
  6
SOLID
 62
        7
100
AcDbLine
 10
1207.561692098
 20
589.765982947
 30
0.0
 11
1213.103950433
 21
589.765747178
 31
0.0
  0
ARC
  5
476
100
AcDbEntity
  8
AS88QU
  6
SOLID
 62
        7
100
AcDbCircle
 10
1210.362016449
 20
591.642252253
 30
0.0
 40
3.32257028
100
AcDbArc
 50
325.613322344
 51
34.381802922
  0
ARC
  5
477
100
AcDbEntity
  8
AS88QU
  6
SOLID
 62
        7
100
AcDbCircle
 10
1201.26490086
 20
586.013473948
 30
0.0
 40
12.419446412
100
AcDbArc
 50
342.4096127
 51
17.585512566
  0
ARC
  5
478
100
AcDbEntity
  8
AS88QU
  6
SOLID
 62
        7
100
AcDbCircle
 10
1210.361537519
 20
580.383921679
 30
0.0
 40
3.32257028
100
AcDbArc
 50
325.613322344
 51
34.381802922
  0
LINE
  5
479
100
AcDbEntity
  8
AS88QU
  6
SOLID
 62
        7
100
AcDbLine
 10
1207.561692098
 20
578.507652353
 30
0.0
 11
1213.103471503
 21
578.507416605
 31
0.0
  0
LINE
  5
47A
100
AcDbEntity
  8
AS88QU
  6
SOLID
 62
        7
100
AcDbLine
 10
966.271473228
 20
586.014884045
 30
0.0
 11
964.915600209
 21
574.388818426
 31
0.0
  0
ARC
  5
47B
100
AcDbEntity
  8
AS88QU
  6
SOLID
 62
        7
100
AcDbCircle
 10
931.695097618
 20
571.014680527
 30
0.0
 40
2.5
100
AcDbArc
 50
173.348012321
 51
237.848075537
  0
LINE
  5
47C
100
AcDbEntity
  8
AS88QU
  6
SOLID
 62
        7
100
AcDbLine
 10
961.237560463
 20
586.014669902
 30
0.0
 11
959.799515819
 21
573.684015662
 31
0.0
  0
LINE
  5
47D
100
AcDbEntity
  8
AS88QU
  6
SOLID
 62
        7
100
AcDbLine
 10
1213.104110076
 20
593.518524036
 30
0.0
 11
1207.561692098
 21
593.518759811
 31
0.0
  0
LINE
  5
47E
100
AcDbEntity
  8
AS88QU
  6
SOLID
 62
        7
100
AcDbLine
 10
1225.884559181
 20
590.012426629
 30
0.0
 11
1225.884218861
 21
582.012426637
 31
0.0
  0
LINE
  5
47F
100
AcDbEntity
  8
AS88QU
  6
SOLID
 62
        7
100
AcDbLine
 10
1226.88451664
 20
589.01238409
 30
0.0
 11
1226.8842614
 21
583.012384096
 31
0.0
  0
LINE
  5
480
100
AcDbEntity
  8
AS88QU
  6
SOLID
 62
        7
100
AcDbLine
 10
1225.884218861
 20
582.012426637
 30
0.0
 11
1226.8842614
 21
583.012384096
 31
0.0
  0
ARC
  5
481
100
AcDbEntity
  8
AS88QU
  6
SOLID
 62
        7
100
AcDbCircle
 10
968.068078818
 20
567.884537391
 30
0.0
 40
5.0
100
AcDbArc
 50
254.291407243
 51
295.974439035
  0
LINE
  5
482
100
AcDbEntity
  8
AS88QU
  6
SOLID
 62
        7
100
AcDbLine
 10
972.562623578
 20
564.512391706
 30
0.0
 11
970.257929471
 21
563.38958977
 31
0.0
  0
ARC
  5
483
100
AcDbEntity
  8
AS88QU
  6
SOLID
 62
        7
100
AcDbCircle
 10
968.068073027
 20
574.944002652
 30
0.0
 40
3.0
100
AcDbArc
 50
254.291407243
 51
299.411573364
  0
ARC
  5
484
100
AcDbEntity
  8
AS88QU
  6
SOLID
 62
        7
100
AcDbCircle
 10
968.068064319
 20
597.080821748
 30
0.0
 40
3.0
100
AcDbArc
 50
60.588405294
 51
105.708637829
  0
ARC
  5
485
100
AcDbEntity
  8
AS88QU
  6
SOLID
 62
        7
100
AcDbCircle
 10
967.697438225
 20
594.226406844
 30
0.0
 40
3.0
100
AcDbArc
 50
50.588405294
 51
84.250508299
  0
ARC
  5
486
100
AcDbEntity
  8
AS88QU
  6
SOLID
 62
        7
100
AcDbCircle
 10
966.856101583
 20
592.36576564
 30
0.0
 40
5.0
100
AcDbArc
 50
350.0
 51
56.687890558
  0
ARC
  5
487
100
AcDbEntity
  8
AS88QU
  6
SOLID
 62
        7
100
AcDbCircle
 10
967.562606426
 20
595.102351289
 30
0.0
 40
5.0
100
AcDbArc
 50
0.0
 51
66.687890558
  0
LINE
  5
488
100
AcDbEntity
  8
AS88QU
  6
SOLID
 62
        7
100
AcDbLine
 10
971.780140348
 20
591.497524751
 30
0.0
 11
971.781353814
 21
580.533710122
 31
0.0
  0
ARC
  5
489
100
AcDbEntity
  8
AS88QU
  6
SOLID
 62
        7
100
AcDbCircle
 10
967.562606426
 20
576.922469229
 30
0.0
 40
5.0
100
AcDbArc
 50
293.312205955
 51
0.0
  0
LINE
  5
48A
100
AcDbEntity
  8
AS88QU
  6
SOLID
 62
        7
100
AcDbLine
 10
968.237560456
 20
586.014967682
 30
0.0
 11
966.90653998
 21
574.602002617
 31
0.0
  0
LINE
  5
48B
100
AcDbEntity
  8
AS88QU
  6
SOLID
 62
        7
100
AcDbLine
 10
969.476885871
 20
596.641684484
 30
0.0
 11
968.237560456
 21
586.014967682
 31
0.0
  0
ARC
  5
48C
100
AcDbEntity
  8
AS88QU
  6
SOLID
 62
        7
100
AcDbCircle
 10
1211.501197924
 20
606.720901813
 30
0.0
 40
1.0
100
AcDbArc
 50
20.465218679
 51
78.291362171
  0
ARC
  5
48D
100
AcDbEntity
  8
AS88QU
  6
SOLID
 62
        7
100
AcDbCircle
 10
1203.069236438
 20
603.574153412
 30
0.0
 40
10.0
100
AcDbArc
 50
335.429639188
 51
20.465218679
  0
ARC
  5
48E
100
AcDbEntity
  8
AS88QU
  6
SOLID
 62
        7
100
AcDbCircle
 10
1211.254298408
 20
599.831859925
 30
0.0
 40
1.0
100
AcDbArc
 50
258.291362171
 51
335.429639188
  0
LINE
  5
48F
100
AcDbEntity
  8
AS88QU
  6
SOLID
 62
        7
100
AcDbLine
 10
823.722199936
 20
103.512162563
 30
0.0
 11
824.466515425
 21
111.414891563
 31
0.0
  0
LINE
  5
490
100
AcDbEntity
  8
AS88QU
  6
SOLID
 62
        7
100
AcDbLine
 10
845.426369576
 20
103.512160109
 30
0.0
 11
821.148669484
 21
103.512162854
 31
0.0
  0
DIMENSION
  5
49F
100
AcDbEntity
  8
AS88QU
  6
SOLID
 62
        7
100
AcDbDimension
  2
*D14
 10
1067.194458008
 20
-193.389892578
 30
0.0
 11
1102.529785156
 21
-183.389892578
 31
0.0
 71
        5
 72
        1
 41
1.0
 42
0.0
  1
  95   
  3
11
100
AcDbAlignedDimension
 13
1167.194458008
 23
-57.183849335
 33
0.0
 14
1067.194458008
 24
-197.457962036
 34
0.0
100
AcDbRotatedDimension
  0
LINE
  5
4A0
100
AcDbEntity
  8
AS88QU
  6
SOLID
 62
        7
100
AcDbLine
 10
835.926371407
 20
118.01216089
 30
0.0
 11
884.926371407
 21
118.012155349
 31
0.0
  0
LINE
  5
4A1
100
AcDbEntity
  8
AS88QU
  6
SOLID
 62
        7
100
AcDbLine
 10
817.394434541
 20
100.314060104
 30
0.0
 11
818.492952024
 21
111.97750941
 31
0.0
  0
DIMENSION
  5
4B0
100
AcDbEntity
  8
AS88QU
  6
SOLID
 62
        7
100
AcDbDimension
  2
*D15
 10
967.194458008
 20
-193.389892578
 30
0.0
 11
1002.529846191
 21
-183.389892578
 31
0.0
 71
        5
 72
        1
 41
1.0
 42
0.0
  1
  95   
  3
12
100
AcDbAlignedDimension
 13
1067.194458008
 23
-197.457962036
 33
0.0
 14
967.194458008
 24
-57.183849335
 34
0.0
100
AcDbRotatedDimension
  0
LINE
  5
4B1
100
AcDbEntity
  8
AS88QU
  6
SOLID
 62
        7
100
AcDbLine
 10
833.926376604
 20
163.611091165
 30
0.0
 11
833.926376156
 21
159.643007267
 31
0.0
  0
LINE
  5
4B2
100
AcDbEntity
  8
AS88QU
  6
SOLID
 62
        7
100
AcDbLine
 10
1161.194443783
 20
632.012643859
 30
0.0
 11
1161.194443783
 21
688.012643859
 31
0.0
  0
LINE
  5
4B3
100
AcDbEntity
  8
AS88QU
  6
SOLID
 62
        7
100
AcDbLine
 10
1162.194443783
 20
689.012643859
 30
0.0
 11
1236.194438506
 21
689.012643859
 31
0.0
  0
LINE
  5
4B4
100
AcDbEntity
  8
AS88QU
  6
SOLID
 62
        7
100
AcDbLine
 10
1067.194443783
 20
705.012643859
 30
0.0
 11
1239.744416786
 21
705.012643859
 31
0.0
  0
ARC
  5
4B5
100
AcDbEntity
  8
AS88QU
  6
SOLID
 62
        7
100
AcDbCircle
 10
1182.194438506
 20
691.012643859
 30
0.0
 40
60.0
100
AcDbArc
 50
346.960549323
 51
12.728943873
  0
ARC
  5
4B6
100
AcDbEntity
  8
AS88QU
  6
SOLID
 62
        7
100
AcDbCircle
 10
1239.744416786
 20
678.012643859
 30
0.0
 40
1.0
100
AcDbArc
 50
270.0
 51
347.271056127
  0
ARC
  5
4B7
100
AcDbEntity
  8
AS88QU
  6
SOLID
 62
        7
100
AcDbCircle
 10
1238.194438506
 20
678.012643859
 30
0.0
 40
1.0
100
AcDbArc
 50
180.0
 51
270.0
  0
ARC
  5
4B8
100
AcDbEntity
  8
AS88QU
  6
SOLID
 62
        7
100
AcDbCircle
 10
1239.744416786
 20
704.012643859
 30
0.0
 40
1.0
100
AcDbArc
 50
12.728943873
 51
90.0
  0
ARC
  5
4B9
100
AcDbEntity
  8
AS88QU
  6
SOLID
 62
        7
100
AcDbCircle
 10
1238.194438506
 20
704.012643859
 30
0.0
 40
1.0
100
AcDbArc
 50
90.0
 51
180.0
  0
LINE
  5
4BA
100
AcDbEntity
  8
AS88QU
  6
SOLID
 62
        7
100
AcDbLine
 10
825.526378832
 20
181.813577781
 30
0.0
 11
825.526377838
 21
173.021838529
 31
0.0
  0
LINE
  5
4BB
100
AcDbEntity
  8
AS88QU
  6
SOLID
 62
        7
100
AcDbLine
 10
819.626377957
 20
173.021839374
 30
0.0
 11
819.626381459
 21
203.989641948
 31
0.0
  0
ARC
  5
4BC
100
AcDbEntity
  8
AS88QU
  6
SOLID
 62
        7
100
AcDbCircle
 10
1158.194443783
 20
692.012643859
 30
0.0
 40
1.0
100
AcDbArc
 50
90.0
 51
180.0
  0
ARC
  5
4BD
100
AcDbEntity
  8
AS88QU
  6
SOLID
 62
        7
100
AcDbCircle
 10
1162.194443783
 20
688.012643859
 30
0.0
 40
1.0
100
AcDbArc
 50
90.0
 51
180.0
  0
ARC
  5
4BE
100
AcDbEntity
  8
AS88QU
  6
SOLID
 62
        7
100
AcDbCircle
 10
1236.194438506
 20
688.012643859
 30
0.0
 40
1.0
100
AcDbArc
 50
0.0
 51
90.0
  0
ARC
  5
4BF
100
AcDbEntity
  8
AS88QU
  6
SOLID
 62
        7
100
AcDbCircle
 10
1236.194438506
 20
694.012643859
 30
0.0
 40
1.0
100
AcDbArc
 50
270.0
 51
360.0
  0
INSERT
  5
4D6
100
AcDbEntity
  8
0
100
AcDbBlockReference
  2
*H16
 10
0.0
 20
0.0
 30
0.0
  0
LINE
  5
4D7
100
AcDbEntity
  8
AS88QU
  6
SOLID
 62
        7
100
AcDbLine
 10
1125.194438506
 20
636.012643859
 30
0.0
 11
1125.194438506
 21
640.012643859
 31
0.0
  0
LINE
  5
4D8
100
AcDbEntity
  8
AS88QU
  6
SOLID
 62
        7
100
AcDbLine
 10
1149.194438506
 20
636.012643859
 30
0.0
 11
1149.194438506
 21
640.012643859
 31
0.0
  0
LINE
  5
4D9
100
AcDbEntity
  8
AS88QU
  6
SOLID
 62
        7
100
AcDbLine
 10
1106.194438506
 20
635.012643859
 30
0.0
 11
1124.194438506
 21
635.012643859
 31
0.0
  0
LINE
  5
4DA
100
AcDbEntity
  8
AS88QU
  6
SOLID
 62
        7
100
AcDbLine
 10
1137.194438506
 20
641.012643859
 30
0.0
 11
1145.194438506
 21
641.012643859
 31
0.0
  0
LINE
  5
4DB
100
AcDbEntity
  8
AS88QU
  6
SOLID
 62
        7
100
AcDbLine
 10
1150.194438506
 20
635.012643859
 30
0.0
 11
1156.194443783
 21
635.012643859
 31
0.0
  0
LINE
  5
4DC
100
AcDbEntity
  8
AS88QU
  6
SOLID
 62
        7
100
AcDbLine
 10
1126.194438506
 20
641.012643859
 30
0.0
 11
1148.194438506
 21
641.012643859
 31
0.0
  0
LINE
  5
4DD
100
AcDbEntity
  8
AS88QU
  6
CENTER
 62
        7
100
AcDbLine
 10
1137.194438506
 20
615.012218328
 30
0.0
 11
1137.194438506
 21
654.163130012
 31
0.0
  0
LINE
  5
4DE
100
AcDbEntity
  8
AS88QU
  6
SOLID
 62
        7
100
AcDbLine
 10
1101.194438506
 20
637.012643859
 30
0.0
 11
1101.194438506
 21
657.012643859
 31
0.0
  0
LINE
  5
4DF
100
AcDbEntity
  8
AS88QU
  6
SOLID
 62
        7
100
AcDbLine
 10
1142.694438506
 20
631.012643859
 30
0.0
 11
1142.694438506
 21
641.012643859
 31
0.0
  0
LINE
  5
4E0
100
AcDbEntity
  8
AS88QU
  6
SOLID
 62
        7
100
AcDbLine
 10
1131.694438506
 20
631.012643859
 30
0.0
 11
1131.694438506
 21
641.012643859
 31
0.0
  0
LINE
  5
4E1
100
AcDbEntity
  8
AS88QU
  6
SOLID
 62
        7
100
AcDbLine
 10
1100.194438506
 20
636.012643859
 30
0.0
 11
1067.194443783
 21
636.012643859
 31
0.0
  0
LINE
  5
4E2
100
AcDbEntity
  8
AS88QU
  6
SOLID
 62
        7
100
AcDbLine
 10
1104.194438506
 20
658.012643859
 30
0.0
 11
1067.194443783
 21
658.012643859
 31
0.0
  0
LINE
  5
4E3
100
AcDbEntity
  8
AS88QU
  6
SOLID
 62
        7
100
AcDbLine
 10
1099.694443783
 20
631.012643859
 30
0.0
 11
1099.694443783
 21
636.012643859
 31
0.0
  0
LINE
  5
4E4
100
AcDbEntity
  8
AS88QU
  6
SOLID
 62
        7
100
AcDbLine
 10
1105.194438506
 20
636.012643859
 30
0.0
 11
1105.194438506
 21
657.012643859
 31
0.0
  0
ARC
  5
4E5
100
AcDbEntity
  8
AS88QU
  6
SOLID
 62
        7
100
AcDbCircle
 10
1102.194438506
 20
657.012643859
 30
0.0
 40
1.0
100
AcDbArc
 50
90.0
 51
180.0
  0
ARC
  5
4E6
100
AcDbEntity
  8
AS88QU
  6
SOLID
 62
        7
100
AcDbCircle
 10
1126.194438506
 20
640.012643859
 30
0.0
 40
1.0
100
AcDbArc
 50
90.0
 51
180.0
  0
ARC
  5
4E7
100
AcDbEntity
  8
AS88QU
  6
SOLID
 62
        7
100
AcDbCircle
 10
1148.194438506
 20
640.012643859
 30
0.0
 40
1.0
100
AcDbArc
 50
360.0
 51
90.0
  0
ARC
  5
4E8
100
AcDbEntity
  8
AS88QU
  6
SOLID
 62
        7
100
AcDbCircle
 10
1104.194438506
 20
657.012643859
 30
0.0
 40
1.0
100
AcDbArc
 50
360.0
 51
90.0
  0
ARC
  5
4E9
100
AcDbEntity
  8
AS88QU
  6
SOLID
 62
        7
100
AcDbCircle
 10
1100.194438506
 20
637.012643859
 30
0.0
 40
1.0
100
AcDbArc
 50
270.0
 51
360.0
  0
ARC
  5
4EA
100
AcDbEntity
  8
AS88QU
  6
SOLID
 62
        7
100
AcDbCircle
 10
1106.194438506
 20
636.012643859
 30
0.0
 40
1.0
100
AcDbArc
 50
180.0
 51
270.0
  0
ARC
  5
4EB
100
AcDbEntity
  8
AS88QU
  6
SOLID
 62
        7
100
AcDbCircle
 10
1124.194438506
 20
636.012643859
 30
0.0
 40
1.0
100
AcDbArc
 50
270.0
 51
360.0
  0
ARC
  5
4EC
100
AcDbEntity
  8
AS88QU
  6
SOLID
 62
        7
100
AcDbCircle
 10
1150.194438506
 20
636.012643859
 30
0.0
 40
1.0
100
AcDbArc
 50
180.0
 51
270.0
  0
ARC
  5
4ED
100
AcDbEntity
  8
AS88QU
  6
SOLID
 62
        7
100
AcDbCircle
 10
1156.194443783
 20
636.012643859
 30
0.0
 40
1.0
100
AcDbArc
 50
270.0
 51
360.0
  0
INSERT
  5
4F8
100
AcDbEntity
  8
0
100
AcDbBlockReference
  2
*H17
 10
0.0
 20
0.0
 30
0.0
  0
LINE
  5
4F9
100
AcDbEntity
  8
AS88QU
  6
SOLID
 62
        7
100
AcDbLine
 10
831.426376206
 20
159.64300763
 30
0.0
 11
831.426376957
 21
166.28289762
 31
0.0
  0
LINE
  5
4FA
100
AcDbEntity
  8
AS88QU
  6
SOLID
 62
        7
100
AcDbLine
 10
831.426374356
 20
143.282897951
 30
0.0
 11
831.426376206
 21
159.643007961
 31
0.0
  0
LINE
  5
4FB
100
AcDbEntity
  8
AS88QU
  6
SOLID
 62
        7
100
AcDbLine
 10
833.926371448
 20
118.012161116
 30
0.0
 11
833.926375603
 21
154.753788978
 31
0.0
  0
LINE
  5
4FC
100
AcDbEntity
  8
AS88QU
  6
SOLID
 62
        7
100
AcDbLine
 10
818.492951986
 20
111.977509005
 30
0.0
 11
821.792427874
 21
147.009523315
 31
0.0
  0
LINE
  5
4FD
100
AcDbEntity
  8
AS88QU
  6
SOLID
 62
        7
100
AcDbLine
 10
821.426375067
 20
147.782898991
 30
0.0
 11
821.42637665
 21
161.782898991
 31
0.0
  0
ARC
  5
4FE
100
AcDbEntity
  8
AS88QU
  6
SOLID
 62
        7
100
AcDbCircle
 10
822.426392078
 20
161.78289991
 30
0.0
 40
1.0
100
AcDbArc
 50
89.999993521
 51
179.999993521
  0
LINE
  5
4FF
100
AcDbEntity
  8
AS88QU
  6
SOLID
 62
        7
100
AcDbLine
 10
819.626376673
 20
161.66584307
 30
0.0
 11
821.426376673
 21
161.665842867
 31
0.0
  0
LINE
  5
500
100
AcDbEntity
  8
AS88QU
  6
SOLID
 62
        7
100
AcDbLine
 10
819.626377957
 20
173.021839374
 30
0.0
 11
819.626376673
 21
161.665842841
 31
0.0
  0
LINE
  5
501
100
AcDbEntity
  8
AS88QU
  6
SOLID
 62
        7
100
AcDbLine
 10
825.526377838
 20
173.021838707
 30
0.0
 11
819.626377838
 21
173.021839374
 31
0.0
  0
LINE
  5
502
100
AcDbEntity
  8
AS88QU
  6
SOLID
 62
        7
100
AcDbLine
 10
822.426376743
 20
162.782898575
 30
0.0
 11
831.426376743
 21
162.782897557
 31
0.0
  0
LINE
  5
503
100
AcDbEntity
  8
AS88QU
  6
SOLID
 62
        7
100
AcDbLine
 10
833.926376156
 20
159.643007348
 30
0.0
 11
833.926375603
 21
154.753788137
 31
0.0
  0
ARC
  5
504
100
AcDbEntity
  8
AS88QU
  6
SOLID
 62
        7
100
AcDbCircle
 10
822.426390495
 20
147.78289991
 30
0.0
 40
1.0
100
AcDbArc
 50
179.999993521
 51
269.999993521
  0
LINE
  5
505
100
AcDbEntity
  8
AS88QU
  6
SOLID
 62
        7
100
AcDbLine
 10
822.426374934
 20
146.782898898
 30
0.0
 11
831.426374934
 21
146.78289788
 31
0.0
  0
LINE
  5
506
100
AcDbEntity
  8
AS88QU
  6
SOLID
 62
        7
100
AcDbLine
 10
821.42637454
 20
143.122971004
 30
0.0
 11
821.426375067
 21
147.782899085
 31
0.0
  0
LINE
  5
507
100
AcDbEntity
  8
AS88QU
  6
SOLID
 62
        7
100
AcDbLine
 10
824.466515408
 20
111.414891386
 30
0.0
 11
827.797636621
 21
146.782898291
 31
0.0
  0
LWPOLYLINE
  5
508
100
AcDbEntity
  8
AS88QU
  6
SOLID
 62
        7
100
AcDbPolyline
 90
       33
 70
        0
 10
824.466530891
 20
111.414891614
 10
824.476084593
 20
111.67038392
 10
824.456781945
 20
111.926124855
 10
824.408808841
 20
112.179651494
 10
824.332627288
 20
112.428522235
 10
824.228970957
 20
112.670340318
 10
824.098838115
 20
112.902776902
 10
823.943482012
 20
113.123593495
 10
823.764398812
 20
113.330663513
 10
823.563313186
 20
113.521992758
 10
823.342161697
 20
113.695738624
 10
823.103074155
 20
113.850227845
 10
822.848353105
 20
113.983972604
 10
822.58045165
 20
114.095684865
 10
822.301949826
 20
114.18428878
 10
822.01552976
 20
114.248931043
 10
821.723949833
 20
114.288989113
 10
821.430018119
 20
114.304077211
 10
821.136565343
 20
114.294050029
 10
820.846417614
 20
114.259004135
 10
820.562369215
 20
114.199277039
 10
820.287155686
 20
114.115443947
 10
820.023427485
 20
114.008312217
 10
819.773724459
 20
113.878913585
 10
819.540451384
 20
113.728494233
 10
819.325854809
 20
113.55850278
 10
819.132001414
 20
113.370576337
 10
818.960758116
 20
113.166524739
 10
818.81377408
 20
112.948313114
 10
818.692464844
 20
112.71804296
 10
818.59799868
 20
112.477931905
 10
818.531285352
 20
112.230292348
 10
818.492967343
 20
111.977509196
  0
LWPOLYLINE
  5
509
100
AcDbEntity
  8
AS88QU
  6
SOLID
 62
        7
100
AcDbPolyline
 90
        3
 70
        0
 10
821.148685397
 20
103.512162991
 10
820.790101551
 20
103.490996686
 10
820.426385337
 20
103.427796368
  0
LINE
  5
50A
100
AcDbEntity
  8
AS88QU
  6
SOLID
 62
        7
100
AcDbLine
 10
833.926374305
 20
143.282897668
 30
0.0
 11
831.426374305
 21
143.282897951
 31
0.0
  0
LINE
  5
50B
100
AcDbEntity
  8
AS88QU
  6
SOLID
 62
        7
100
AcDbLine
 10
833.926371448
 20
118.012161116
 30
0.0
 11
834.918814057
 21
118.012161004
 31
0.0
  0
LINE
  5
50C
100
AcDbEntity
  8
AS88QU
  6
SOLID
 62
        7
100
AcDbLine
 10
833.926376604
 20
163.611091165
 30
0.0
 11
833.926383686
 21
226.23562486
 31
0.0
  0
LINE
  5
50D
100
AcDbEntity
  8
AS88QU
  6
SOLID
 62
        7
100
AcDbLine
 10
821.42638223
 20
211.124506693
 30
0.0
 11
821.426382304
 21
211.780352184
 31
0.0
  0
LINE
  5
50E
100
AcDbEntity
  8
AS88QU
  6
SOLID
 62
        7
100
AcDbLine
 10
831.426382215
 20
212.781379061
 30
0.0
 11
831.426383369
 21
222.984615539
 31
0.0
  0
LINE
  5
50F
100
AcDbEntity
  8
AS88QU
  6
SOLID
 62
        7
100
AcDbLine
 10
822.426383906
 20
226.124506277
 30
0.0
 11
831.426383906
 21
226.124505259
 31
0.0
  0
ARC
  5
510
100
AcDbEntity
  8
AS88QU
  6
SOLID
 62
        7
100
AcDbCircle
 10
822.426399241
 20
225.124508893
 30
0.0
 40
1.0
100
AcDbArc
 50
89.999993521
 51
179.999993521
  0
LINE
  5
511
100
AcDbEntity
  8
AS88QU
  6
SOLID
 62
        7
100
AcDbLine
 10
821.426382304
 20
211.780352171
 30
0.0
 11
821.426383813
 21
225.12450668
 31
0.0
  0
LINE
  5
512
100
AcDbEntity
  8
AS88QU
  6
SOLID
 62
        7
100
AcDbLine
 10
833.926384069
 20
229.624504906
 30
0.0
 11
831.426384069
 21
229.624505189
 31
0.0
  0
LINE
  5
513
100
AcDbEntity
  8
AS88QU
  6
SOLID
 62
        7
100
AcDbLine
 10
833.926384069
 20
229.624504906
 30
0.0
 11
833.926383686
 21
226.235623526
 31
0.0
  0
LINE
  5
514
100
AcDbEntity
  8
AS88QU
  6
SOLID
 62
        7
100
AcDbLine
 10
831.426383369
 20
222.984615333
 30
0.0
 11
831.42638412
 21
229.624505323
 31
0.0
  0
LINE
  5
515
100
AcDbEntity
  8
AS88QU
  6
SOLID
 62
        7
100
AcDbLine
 10
825.526382334
 20
212.781379729
 30
0.0
 11
825.526378832
 21
181.813577155
 31
0.0
  0
ARC
  5
516
100
AcDbEntity
  8
AS88QU
  6
SOLID
 62
        7
100
AcDbCircle
 10
822.426397195
 20
207.034866758
 30
0.0
 40
1.0
100
AcDbArc
 50
179.999993521
 51
269.999993521
  0
LINE
  5
517
100
AcDbEntity
  8
AS88QU
  6
SOLID
 62
        7
100
AcDbLine
 10
822.426381634
 20
206.034864549
 30
0.0
 11
825.526381634
 21
206.034864198
 31
0.0
  0
LINE
  5
518
100
AcDbEntity
  8
AS88QU
  6
SOLID
 62
        7
100
AcDbLine
 10
821.426381767
 20
207.034864642
 30
0.0
 11
821.42638223
 21
211.124506776
 31
0.0
  0
LINE
  5
519
100
AcDbEntity
  8
AS88QU
  6
SOLID
 62
        7
100
AcDbLine
 10
833.926382164
 20
212.781378779
 30
0.0
 11
825.526382164
 21
212.781379729
 31
0.0
  0
LINE
  5
51A
100
AcDbEntity
  8
AS88QU
  6
SOLID
 62
        7
100
AcDbLine
 10
819.626381459
 20
203.989641322
 30
0.0
 11
825.526381459
 21
203.989640655
 31
0.0
  0
LINE
  5
51B
100
AcDbEntity
  8
AS88QU
  6
SOLID
 62
        7
100
AcDbLine
 10
825.526378832
 20
181.813577781
 30
0.0
 11
833.926378832
 21
181.813576831
 31
0.0
  0
LINE
  5
51C
100
AcDbEntity
  8
AS88QU
  6
SOLID
 62
        7
100
AcDbLine
 10
833.926376906
 20
166.282897203
 30
0.0
 11
831.426376906
 21
166.282897486
 31
0.0
  0
LWPOLYLINE
  5
51D
100
AcDbEntity
  8
AS88QU
  6
SOLID
 62
        7
100
AcDbPolyline
 90
       33
 70
        0
 10
-864.114490567
 20
137.952729221
 10
-864.095284347
 20
137.566345173
 10
-864.036330574
 20
137.174207786
 10
-863.936197668
 20
136.783775307
 10
-863.795670774
 20
136.402115783
 10
-863.616414965
 20
136.035721419
 10
-863.40197702
 20
135.690350893
 10
-863.156955793
 20
135.371585356
 10
-862.887823806
 20
135.083795125
 10
-862.591535982
 20
134.822235338
 10
-862.263156062
 20
134.58398792
 10
-861.907127204
 20
134.375383419
 10
-861.529152726
 20
134.200936209
 10
-861.135128208
 20
134.064136256
 10
-860.731729996
 20
133.966635307
 10
-860.326243433
 20
133.909222749
 10
-859.926388924
 20
133.890516715
 10
-859.526534418
 20
133.90922284
 10
-859.121047869
 20
133.966635489
 10
-858.717649679
 20
134.064136529
 10
-858.323625191
 20
134.200936571
 10
-857.945650753
 20
134.375383867
 10
-857.589621943
 20
134.583988448
 10
-857.261242076
 20
134.822235941
 10
-856.964954311
 20
135.083795795
 10
-856.695822389
 20
135.371586087
 10
-856.450801234
 20
135.690351679
 10
-856.236363367
 20
136.035722254
 10
-856.057107641
 20
136.402116658
 10
-855.916580833
 20
136.783776214
 10
-855.816448016
 20
137.174208716
 10
-855.757494332
 20
137.566346116
 10
-855.738288199
 20
137.952730168
210
0.0
220
0.0
230
-1.0
  0
LWPOLYLINE
  5
51E
100
AcDbEntity
  8
AS88QU
  6
SOLID
 62
        7
100
AcDbPolyline
 90
       33
 70
        0
 10
-855.738288199
 20
137.952730168
 10
-855.757494419
 20
138.33880569
 10
-855.816448192
 20
138.730008159
 10
-855.916581097
 20
139.118881145
 10
-856.057107991
 20
139.498418487
 10
-856.2363638
 20
139.862214675
 10
-856.450801745
 20
140.204638999
 10
-856.695822971
 20
140.520254644
 10
-856.964954958
 20
140.804848406
 10
-857.261242782
 20
141.063211574
 10
-857.589622702
 20
141.298308673
 10
-857.945651559
 20
141.50396631
 10
-858.323626037
 20
141.675814558
 10
-858.717650555
 20
141.810491542
 10
-859.121048767
 20
141.906432336
 10
-859.526535329
 20
141.962909548
 10
-859.926389839
 20
141.981306908
 10
-860.326244344
 20
141.962909458
 10
-860.731730894
 20
141.906432154
 10
-861.135129084
 20
141.810491269
 10
-861.529153571
 20
141.675814196
 10
-861.90712801
 20
141.503965862
 10
-862.263156821
 20
141.298308144
 10
-862.591536687
 20
141.063210971
 10
-862.887824453
 20
140.804847736
 10
-863.156956376
 20
140.520253913
 10
-863.401977531
 20
140.204638213
 10
-863.616415398
 20
139.862213841
 10
-863.795671124
 20
139.498417611
 10
-863.936197932
 20
139.118880238
 10
-864.03633075
 20
138.73000723
 10
-864.095284435
 20
138.338804748
 10
-864.114490567
 20
137.952729221
210
0.0
220
0.0
230
-1.0
  0
LINE
  5
51F
100
AcDbEntity
  8
AS88QU
  6
SOLID
 62
        7
100
AcDbLine
 10
886.226373644
 20
146.782891683
 30
0.0
 11
885.926373644
 21
146.782891717
 31
0.0
  0
LINE
  5
520
100
AcDbEntity
  8
AS88QU
  6
SOLID
 62
        7
100
AcDbLine
 10
884.926366572
 20
84.012156036
 30
0.0
 11
835.926366572
 21
84.012161577
 31
0.0
  0
LINE
  5
521
100
AcDbEntity
  8
AS88QU
  6
SOLID
 62
        7
100
AcDbLine
 10
883.926366705
 20
85.012156129
 30
0.0
 11
853.426366705
 21
85.012159578
 31
0.0
  0
LINE
  5
522
100
AcDbEntity
  8
AS88QU
  6
SOLID
 62
        7
100
AcDbLine
 10
853.426370827
 20
116.012158951
 30
0.0
 11
878.926370827
 21
116.012156068
 31
0.0
  0
LINE
  5
523
100
AcDbEntity
  8
AS88QU
  6
SOLID
 62
        7
100
AcDbLine
 10
885.926366552
 20
84.012155923
 30
0.0
 11
885.926354967
 21
-18.43308754
 31
0.0
  0
LINE
  5
524
100
AcDbEntity
  8
AS88QU
  6
SOLID
 62
        7
100
AcDbLine
 10
833.926356364
 20
-15.380274988
 30
0.0
 11
833.926364092
 21
52.962411009
 31
0.0
  0
LINE
  5
525
100
AcDbEntity
  8
AS88QU
  6
SOLID
 62
        7
100
AcDbLine
 10
822.426366151
 20
69.114695847
 30
0.0
 11
831.426366151
 21
69.11469483
 31
0.0
  0
LINE
  5
526
100
AcDbEntity
  8
AS88QU
  6
SOLID
 62
        7
100
AcDbLine
 10
831.426363764
 20
49.614695224
 30
0.0
 11
831.426365614
 21
65.974805234
 31
0.0
  0
LINE
  5
527
100
AcDbEntity
  8
AS88QU
  6
SOLID
 62
        7
100
AcDbLine
 10
821.426364475
 20
54.114696264
 30
0.0
 11
821.426366058
 21
68.114696264
 31
0.0
  0
ARC
  5
528
100
AcDbEntity
  8
AS88QU
  6
SOLID
 62
        7
100
AcDbCircle
 10
822.426381486
 20
68.114695289
 30
0.0
 40
1.0
100
AcDbArc
 50
89.999993521
 51
179.999993521
  0
LINE
  5
529
100
AcDbEntity
  8
AS88QU
  6
SOLID
 62
        7
100
AcDbLine
 10
821.426363358
 20
44.241426958
 30
0.0
 11
821.426364475
 21
54.114696463
 31
0.0
  0
LINE
  5
52A
100
AcDbEntity
  8
AS88QU
  6
SOLID
 62
        7
100
AcDbLine
 10
822.426364342
 20
53.114696171
 30
0.0
 11
831.426364342
 21
53.114695153
 31
0.0
  0
ARC
  5
52B
100
AcDbEntity
  8
AS88QU
  6
SOLID
 62
        7
100
AcDbCircle
 10
822.426379903
 20
54.114695289
 30
0.0
 40
1.0
100
AcDbArc
 50
179.999993521
 51
269.999993521
  0
ARC
  5
52C
100
AcDbEntity
  8
AS88QU
  6
SOLID
 62
        7
100
AcDbCircle
 10
822.426378786
 20
44.241425783
 30
0.0
 40
1.0
100
AcDbArc
 50
179.999993521
 51
269.999993521
  0
LINE
  5
52D
100
AcDbEntity
  8
AS88QU
  6
SOLID
 62
        7
100
AcDbLine
 10
831.426362647
 20
39.741425918
 30
0.0
 11
831.426363764
 21
49.614695424
 31
0.0
  0
LINE
  5
52E
100
AcDbEntity
  8
AS88QU
  6
SOLID
 62
        7
100
AcDbLine
 10
833.926362597
 20
39.741425635
 30
0.0
 11
831.426362597
 21
39.741425918
 31
0.0
  0
LINE
  5
52F
100
AcDbEntity
  8
AS88QU
  6
SOLID
 62
        7
100
AcDbLine
 10
822.426363225
 20
43.241426865
 30
0.0
 11
831.426363225
 21
43.241425847
 31
0.0
  0
LINE
  5
530
100
AcDbEntity
  8
AS88QU
  6
SOLID
 62
        7
100
AcDbLine
 10
833.926366314
 20
72.614694476
 30
0.0
 11
831.426366314
 21
72.614694759
 31
0.0
  0
LINE
  5
531
100
AcDbEntity
  8
AS88QU
  6
SOLID
 62
        7
100
AcDbLine
 10
831.426365614
 20
65.974804903
 30
0.0
 11
831.426366365
 21
72.614694893
 31
0.0
  0
LINE
  5
532
100
AcDbEntity
  8
AS88QU
  6
SOLID
 62
        7
100
AcDbLine
 10
833.92636513
 20
62.14598095
 30
0.0
 11
833.926367603
 21
84.012162245
 31
0.0
  0
LINE
  5
533
100
AcDbEntity
  8
AS88QU
  6
SOLID
 62
        7
100
AcDbLine
 10
845.426368897
 20
97.51216023
 30
0.0
 11
819.944835152
 21
97.512163111
 31
0.0
  0
LINE
  5
534
100
AcDbEntity
  8
AS88QU
  6
SOLID
 62
        7
100
AcDbLine
 10
833.926367603
 20
84.012161803
 30
0.0
 11
833.92636913
 21
97.512161803
 31
0.0
  0
LWPOLYLINE
  5
535
100
AcDbEntity
  8
AS88QU
  6
SOLID
 62
        7
100
AcDbPolyline
 90
       41
 70
        0
 10
-819.944851065
 20
97.512163127
 10
-819.828416276
 20
97.514505937
 10
-819.711737677
 20
97.52158076
 10
-819.595077221
 20
97.533457226
 10
-819.47869686
 20
97.550204963
 10
-819.362858549
 20
97.571893602
 10
-819.247824241
 20
97.598592771
 10
-819.133855888
 20
97.630372099
 10
-819.021215445
 20
97.667301216
 10
-818.910164863
 20
97.709449751
 10
-818.800966097
 20
97.756887334
 10
-818.708279538
 20
97.802164966
 10
-818.617051974
 20
97.851522866
 10
-818.527533095
 20
97.904927718
 10
-818.439972591
 20
97.962346206
 10
-818.354620152
 20
98.023745015
 10
-818.274772817
 20
98.086639212
 10
-818.197054848
 20
98.153485831
 10
-818.121701441
 20
98.224138347
 10
-818.048947795
 20
98.298450235
 10
-817.979029106
 20
98.37627497
 10
-817.912180571
 20
98.457466027
 10
-817.848637388
 20
98.54187688
 10
-817.788634752
 20
98.629361004
 10
-817.732407862
 20
98.719771874
 10
-817.681083884
 20
98.811210803
 10
-817.633376242
 20
98.90567155
 10
-817.58942371
 20
99.002882262
 10
-817.549365063
 20
99.102571084
 10
-817.513339075
 20
99.204466163
 10
-817.481484521
 20
99.308295645
 10
-817.453940175
 20
99.413787677
 10
-817.430844811
 20
99.520670404
 10
-817.414046173
 20
99.617137902
 10
-817.400753534
 20
99.714858894
 10
-817.390963791
 20
99.813593236
 10
-817.38467384
 20
99.913100786
 10
-817.381880578
 20
100.013141398
 10
-817.382580901
 20
100.11347493
 10
-817.386771705
 20
100.213861237
 10
-817.394449887
 20
100.314060176
210
0.0
220
0.0
230
-1.0
  0
LINE
  5
536
100
AcDbEntity
  8
AS88QU
  6
SOLID
 62
        7
100
AcDbLine
 10
835.926367563
 20
84.012161577
 30
0.0
 11
834.918751754
 21
84.012161691
 31
0.0
  0
LINE
  5
537
100
AcDbEntity
  8
AS88QU
  6
SOLID
 62
        7
100
AcDbLine
 10
853.42636817
 20
92.512159426
 30
0.0
 11
847.204146739
 21
99.51216013
 31
0.0
  0
LINE
  5
538
100
AcDbEntity
  8
AS88QU
  6
SOLID
 62
        7
100
AcDbLine
 10
853.426367944
 20
90.512159467
 30
0.0
 11
845.426368962
 21
99.512160371
 31
0.0
  0
LINE
  5
539
100
AcDbEntity
  8
AS88QU
  6
SOLID
 62
        7
100
AcDbLine
 10
853.426368962
 20
99.512159285
 30
0.0
 11
847.204146739
 21
99.512159988
 31
0.0
  0
LINE
  5
53A
100
AcDbEntity
  8
AS88QU
  6
SOLID
 62
        7
100
AcDbLine
 10
853.426367322
 20
85.012159578
 30
0.0
 11
853.426370827
 21
116.012159578
 31
0.0
  0
LINE
  5
53B
100
AcDbEntity
  8
AS88QU
  6
SOLID
 62
        7
100
AcDbLine
 10
847.204146865
 20
99.512159988
 30
0.0
 11
845.426369201
 21
100.512160189
 31
0.0
  0
LINE
  5
53C
100
AcDbEntity
  8
AS88QU
  6
SOLID
 62
        7
100
AcDbLine
 10
845.426369236
 20
100.512160169
 30
0.0
 11
847.204147127
 21
101.512159968
 31
0.0
  0
LINE
  5
53D
100
AcDbEntity
  8
AS88QU
  6
SOLID
 62
        7
100
AcDbLine
 10
845.426369576
 20
103.512160109
 30
0.0
 11
845.426368897
 21
97.512160109
 31
0.0
  0
LINE
  5
53E
100
AcDbEntity
  8
AS88QU
  6
SOLID
 62
        7
100
AcDbLine
 10
853.426369188
 20
101.512159244
 30
0.0
 11
847.204146966
 21
101.512159948
 31
0.0
  0
LINE
  5
53F
100
AcDbEntity
  8
AS88QU
  6
SOLID
 62
        7
100
AcDbLine
 10
853.426369979
 20
108.512159103
 30
0.0
 11
847.204146966
 21
101.512159807
 31
0.0
  0
LINE
  5
540
100
AcDbEntity
  8
AS88QU
  6
SOLID
 62
        7
100
AcDbLine
 10
853.426370206
 20
110.512159062
 30
0.0
 11
845.426369188
 21
101.512159967
 31
0.0
  0
LINE
  5
541
100
AcDbEntity
  8
AS88QU
  6
SOLID
 62
        7
100
AcDbLine
 10
833.92636513
 20
62.14598095
 30
0.0
 11
833.926364092
 21
52.962409442
 31
0.0
  0
LINE
  5
542
100
AcDbEntity
  8
AS88QU
  6
SOLID
 62
        7
100
AcDbLine
 10
821.426356658
 20
-15.010538693
 30
0.0
 11
821.426358241
 21
-1.010538693
 31
0.0
  0
LINE
  5
543
100
AcDbEntity
  8
AS88QU
  6
SOLID
 62
        7
100
AcDbLine
 10
831.426355947
 20
-19.510539733
 30
0.0
 11
831.426358548
 21
3.489460267
 31
0.0
  0
ARC
  5
544
100
AcDbEntity
  8
AS88QU
  6
SOLID
 62
        7
100
AcDbCircle
 10
825.12637562
 20
16.241337627
 30
0.0
 40
0.8
100
AcDbArc
 50
179.999993521
 51
269.999993521
  0
ARC
  5
545
100
AcDbEntity
  8
AS88QU
  6
SOLID
 62
        7
100
AcDbCircle
 10
822.426373669
 20
-1.010541066
 30
0.0
 40
1.0
100
AcDbArc
 50
89.999993521
 51
179.999993521
  0
LINE
  5
546
100
AcDbEntity
  8
AS88QU
  6
SOLID
 62
        7
100
AcDbLine
 10
822.426358334
 20
-0.01053911
 30
0.0
 11
831.426358334
 21
-0.010540127
 31
0.0
  0
LINE
  5
547
100
AcDbEntity
  8
AS88QU
  6
SOLID
 62
        7
100
AcDbLine
 10
832.326359881
 20
15.441338456
 30
0.0
 11
825.126359881
 21
15.441339271
 31
0.0
  0
LINE
  5
548
100
AcDbEntity
  8
AS88QU
  6
SOLID
 62
        7
100
AcDbLine
 10
832.326359797
 20
14.690876175
 30
0.0
 11
832.326361521
 21
29.941338472
 31
0.0
  0
LINE
  5
549
100
AcDbEntity
  8
AS88QU
  6
SOLID
 62
        7
100
AcDbLine
 10
832.326361521
 20
29.941338163
 30
0.0
 11
833.926361521
 21
29.941337982
 31
0.0
  0
ARC
  5
54A
100
AcDbEntity
  8
AS88QU
  6
SOLID
 62
        7
100
AcDbCircle
 10
825.126376909
 20
27.641337627
 30
0.0
 40
0.8
100
AcDbArc
 50
89.999993521
 51
179.999993521
  0
LINE
  5
54B
100
AcDbEntity
  8
AS88QU
  6
SOLID
 62
        7
100
AcDbLine
 10
824.326361423
 20
27.641339115
 30
0.0
 11
824.326360134
 21
16.241339115
 31
0.0
  0
LINE
  5
54C
100
AcDbEntity
  8
AS88QU
  6
SOLID
 62
        7
100
AcDbLine
 10
832.326361351
 20
28.441338194
 30
0.0
 11
825.126361351
 21
28.441339008
 31
0.0
  0
LINE
  5
54D
100
AcDbEntity
  8
AS88QU
  6
SOLID
 62
        7
100
AcDbLine
 10
832.326359712
 20
13.941338487
 30
0.0
 11
832.326359797
 21
14.690876191
 31
0.0
  0
LINE
  5
54E
100
AcDbEntity
  8
AS88QU
  6
SOLID
 62
        7
100
AcDbLine
 10
832.326359712
 20
13.941338487
 30
0.0
 11
833.926359712
 21
13.941338306
 31
0.0
  0
LINE
  5
54F
100
AcDbEntity
  8
AS88QU
  6
SOLID
 62
        7
100
AcDbLine
 10
831.426358548
 20
3.489459802
 30
0.0
 11
833.926358548
 21
3.489459519
 31
0.0
  0
LINE
  5
550
100
AcDbEntity
  8
AS88QU
  6
SOLID
 62
        7
100
AcDbLine
 10
833.926356364
 20
-15.380274988
 30
0.0
 11
833.926355897
 21
-19.510540099
 31
0.0
  0
LINE
  5
551
100
AcDbEntity
  8
AS88QU
  6
SOLID
 62
        7
100
AcDbLine
 10
822.426356062
 20
-20.100180838
 30
0.0
 11
831.426356062
 21
-20.100181856
 31
0.0
  0
LINE
  5
552
100
AcDbEntity
  8
AS88QU
  6
SOLID
 62
        7
100
AcDbLine
 10
822.426356525
 20
-16.010538786
 30
0.0
 11
831.426356525
 21
-16.010539804
 31
0.0
  0
LINE
  5
553
100
AcDbEntity
  8
AS88QU
  6
SOLID
 62
        7
100
AcDbLine
 10
833.926355434
 20
-23.600182068
 30
0.0
 11
831.426355434
 21
-23.600181785
 31
0.0
  0
LINE
  5
554
100
AcDbEntity
  8
AS88QU
  6
SOLID
 62
        7
100
AcDbLine
 10
831.426355485
 20
-23.600181785
 30
0.0
 11
831.426355947
 21
-19.510539651
 31
0.0
  0
LINE
  5
555
100
AcDbEntity
  8
AS88QU
  6
SOLID
 62
        7
100
AcDbLine
 10
885.926369085
 20
106.409011032
 30
0.0
 11
885.926366552
 21
84.01215547
 31
0.0
  0
LINE
  5
556
100
AcDbEntity
  8
AS88QU
  6
SOLID
 62
        7
100
AcDbLine
 10
883.926367271
 20
90.012156028
 30
0.0
 11
878.926367836
 21
95.012156593
 31
0.0
  0
ARC
  5
557
100
AcDbEntity
  8
AS88QU
  6
SOLID
 62
        7
100
AcDbCircle
 10
875.926383883
 20
89.312156796
 30
0.0
 40
3.65
100
AcDbArc
 50
90.567813926
 51
84.285678089
  0
LINE
  5
558
100
AcDbEntity
  8
AS88QU
  6
SOLID
 62
        7
100
AcDbLine
 10
883.326369084
 20
105.942737031
 30
0.0
 11
883.326369459
 21
109.252351427
 31
0.0
  0
LINE
  5
559
100
AcDbEntity
  8
AS88QU
  6
SOLID
 62
        7
100
AcDbLine
 10
883.326369459
 20
109.25235136
 30
0.0
 11
881.23958198
 21
109.252351596
 31
0.0
  0
LINE
  5
55A
100
AcDbEntity
  8
AS88QU
  6
SOLID
 62
        7
100
AcDbLine
 10
883.726369158
 20
106.6664862
 30
0.0
 11
883.726369631
 21
110.84898389
 31
0.0
  0
LINE
  5
55B
100
AcDbEntity
  8
AS88QU
  6
SOLID
 62
        7
100
AcDbLine
 10
883.726369264
 20
107.606486181
 30
0.0
 11
885.637609341
 21
107.606485965
 31
0.0
  0
LINE
  5
55C
100
AcDbEntity
  8
AS88QU
  6
SOLID
 62
        7
100
AcDbLine
 10
881.239582436
 20
112.918949021
 30
0.0
 11
883.326369915
 21
112.918948785
 31
0.0
  0
LINE
  5
55D
100
AcDbEntity
  8
AS88QU
  6
SOLID
 62
        7
100
AcDbLine
 10
883.326369913
 20
113.270235341
 30
0.0
 11
881.239582434
 21
113.270235577
 31
0.0
  0
LINE
  5
55E
100
AcDbEntity
  8
AS88QU
  6
SOLID
 62
        7
100
AcDbLine
 10
880.926369714
 20
111.085650344
 30
0.0
 11
880.926369943
 21
113.106486428
 31
0.0
  0
LWPOLYLINE
  5
55F
100
AcDbEntity
  8
AS88QU
  6
SOLID
 62
        7
100
AcDbPolyline
 90
        5
 70
        0
 10
881.239599073
 20
112.918949348
 10
881.100091487
 20
112.428877441
 10
881.003228539
 20
111.96871956
 10
880.945686949
 20
111.525115829
 10
880.926386345
 20
111.085650634
  0
LINE
  5
560
100
AcDbEntity
  8
AS88QU
  6
SOLID
 62
        7
100
AcDbLine
 10
878.926370312
 20
116.012156068
 30
0.0
 11
878.926367937
 21
95.012156068
 31
0.0
  0
LINE
  5
561
100
AcDbEntity
  8
AS88QU
  6
SOLID
 62
        7
100
AcDbLine
 10
880.926369943
 20
113.106486387
 30
0.0
 11
880.93483793
 21
113.121153366
 31
0.0
  0
LWPOLYLINE
  5
562
100
AcDbEntity
  8
AS88QU
  6
SOLID
 62
        7
100
AcDbPolyline
 90
        7
 70
        0
 10
881.239599113
 20
113.270235911
 10
881.001000351
 20
113.177603283
 10
880.945380109
 20
113.135537223
 10
880.927172506
 20
113.094592665
 10
880.9453801
 20
113.053648102
 10
881.001000333
 20
113.01158203
 10
881.239599073
 20
112.918949348
  0
ARC
  5
563
100
AcDbEntity
  8
AS88QU
  6
SOLID
 62
        7
100
AcDbCircle
 10
865.626386393
 20
111.512157961
 30
0.0
 40
3.65
100
AcDbArc
 50
2.257908398
 51
355.975772562
  0
LINE
  5
564
100
AcDbEntity
  8
AS88QU
  6
SOLID
 62
        7
100
AcDbLine
 10
883.326369166
 20
106.666486246
 30
0.0
 11
883.726369166
 21
106.6664862
 31
0.0
  0
LINE
  5
565
100
AcDbEntity
  8
AS88QU
  6
SOLID
 62
        7
100
AcDbLine
 10
880.926369151
 20
106.106486528
 30
0.0
 11
880.934837135
 21
106.091819547
 31
0.0
  0
LWPOLYLINE
  5
566
100
AcDbEntity
  8
AS88QU
  6
SOLID
 62
        7
100
AcDbPolyline
 90
        3
 70
        0
 10
-881.239598284
 20
105.942737453
 10
-881.02760485
 20
106.021249066
 10
-880.934853765
 20
106.091819736
210
0.0
220
0.0
230
-1.0
  0
LINE
  5
567
100
AcDbEntity
  8
AS88QU
  6
SOLID
 62
        7
100
AcDbLine
 10
883.326369084
 20
105.942737031
 30
0.0
 11
881.239581605
 21
105.942737267
 31
0.0
  0
LINE
  5
568
100
AcDbEntity
  8
AS88QU
  6
SOLID
 62
        7
100
AcDbLine
 10
878.926369351
 20
107.51215624
 30
0.0
 11
880.926369351
 21
107.512156013
 31
0.0
  0
LWPOLYLINE
  5
569
100
AcDbEntity
  8
AS88QU
  6
SOLID
 62
        7
100
AcDbPolyline
 90
        5
 70
        0
 10
880.926386345
 20
111.085650634
 10
880.94568685
 20
110.646185434
 10
881.003228339
 20
110.20258169
 10
881.100091183
 20
109.742423787
 10
881.239598659
 20
109.252351849
  0
LINE
  5
56A
100
AcDbEntity
  8
AS88QU
  6
SOLID
 62
        7
100
AcDbLine
 10
878.926369803
 20
111.512156159
 30
0.0
 11
880.926369803
 21
111.512155933
 31
0.0
  0
LINE
  5
56B
100
AcDbEntity
  8
AS88QU
  6
SOLID
 62
        7
100
AcDbLine
 10
880.926369151
 20
106.106486528
 30
0.0
 11
880.926369714
 21
111.085650444
 31
0.0
  0
LWPOLYLINE
  5
56C
100
AcDbEntity
  8
AS88QU
  6
SOLID
 62
        7
100
AcDbPolyline
 90
        9
 70
        0
 10
881.239598659
 20
109.252351849
 10
881.097164854
 20
108.798062919
 10
881.000999809
 20
108.379621744
 10
880.945379527
 20
107.983300137
 10
880.927171885
 20
107.597544686
 10
880.945379439
 20
107.211789231
 10
881.000999632
 20
106.815467613
 10
881.097164583
 20
106.397026415
 10
881.239598284
 20
105.942737453
  0
LINE
  5
56D
100
AcDbEntity
  8
AS88QU
  6
SOLID
 62
        7
100
AcDbLine
 10
885.926370397
 20
118.012155236
 30
0.0
 11
885.926369085
 21
106.409453783
 31
0.0
  0
LINE
  5
56E
100
AcDbEntity
  8
AS88QU
  6
SOLID
 62
        7
100
AcDbLine
 10
884.926370417
 20
118.012155349
 30
0.0
 11
885.428252563
 21
118.012155292
 31
0.0
  0
LINE
  5
56F
100
AcDbEntity
  8
AS88QU
  6
SOLID
 62
        7
100
AcDbLine
 10
883.726369631
 20
110.848983805
 30
0.0
 11
883.726369823
 21
112.546486116
 31
0.0
  0
LINE
  5
570
100
AcDbEntity
  8
AS88QU
  6
SOLID
 62
        7
100
AcDbLine
 10
883.326369831
 20
112.546486127
 30
0.0
 11
883.726369831
 21
112.546486082
 31
0.0
  0
LINE
  5
571
100
AcDbEntity
  8
AS88QU
  6
SOLID
 62
        7
100
AcDbLine
 10
883.726369717
 20
111.606486101
 30
0.0
 11
885.056415574
 21
111.60648595
 31
0.0
  0
LINE
  5
572
100
AcDbEntity
  8
AS88QU
  6
SOLID
 62
        7
100
AcDbLine
 10
883.326369873
 20
112.918948785
 30
0.0
 11
883.326369913
 21
113.270235348
 31
0.0
  0
LINE
  5
573
100
AcDbEntity
  8
AS88QU
  6
SOLID
 62
        7
100
AcDbLine
 10
883.326369459
 20
109.25235136
 30
0.0
 11
883.326369873
 21
112.918948859
 31
0.0
  0
LINE
  5
574
100
AcDbEntity
  8
AS88QU
  6
SOLID
 62
        7
100
AcDbLine
 10
885.926366552
 20
84.012155923
 30
0.0
 11
885.428263136
 21
84.012155979
 31
0.0
  0
LINE
  5
575
100
AcDbEntity
  8
AS88QU
  6
SOLID
 62
        7
100
AcDbLine
 10
883.926366705
 20
85.012156129
 30
0.0
 11
883.926367271
 21
90.012156129
 31
0.0
  0
LWPOLYLINE
  5
576
100
AcDbEntity
  8
AS88QU
  6
SOLID
 62
        7
100
AcDbPolyline
 90
       49
 70
        0
 10
-884.337630301
 20
111.606261222
 10
-884.349270896
 20
111.674875727
 10
-884.365091533
 20
111.765385481
 10
-884.380989499
 20
111.853444149
 10
-884.396979745
 20
111.938976631
 10
-884.413077223
 20
112.021907826
 10
-884.429296885
 20
112.102162635
 10
-884.445653682
 20
112.179665958
 10
-884.462162567
 20
112.254342695
 10
-884.478838491
 20
112.326117746
 10
-884.49718521
 20
112.401886259
 10
-884.515539075
 20
112.474292066
 10
-884.534390653
 20
112.54380061
 10
-884.554230514
 20
112.610877337
 10
-884.575549226
 20
112.675987691
 10
-884.598837357
 20
112.739597116
 10
-884.624585477
 20
112.802171057
 10
-884.653284153
 20
112.864174958
 10
-884.685423955
 20
112.926074263
 10
-884.713247355
 20
112.973999421
 10
-884.745246116
 20
113.02270497
 10
-884.782383524
 20
113.072036997
 10
-884.814691268
 20
113.109761528
 10
-884.851021699
 20
113.147285545
 10
-884.891485755
 20
113.183882682
 10
-884.936194374
 20
113.218826571
 10
-884.975992581
 20
113.245578495
 10
-885.018729537
 20
113.27033855
 10
-885.064029007
 20
113.292701118
 10
-885.111514756
 20
113.312260578
 10
-885.16081055
 20
113.32861131
 10
-885.211540152
 20
113.341347694
 10
-885.262418284
 20
113.350062076
 10
-885.314190516
 20
113.355047903
 10
-885.36634704
 20
113.356282409
 10
-885.418378041
 20
113.353742827
 10
-885.469773711
 20
113.347406392
 10
-885.519520224
 20
113.337453589
 10
-885.568164657
 20
113.324040533
 10
-885.615307971
 20
113.307469047
 10
-885.660551124
 20
113.288040955
 10
-885.703495074
 20
113.266058082
 10
-885.744608393
 20
113.241380802
 10
-885.783144569
 20
113.214758845
 10
-885.819015607
 20
113.186641945
 10
-885.852133516
 20
113.157479838
 10
-885.882410303
 20
113.127722261
 10
-885.912586749
 20
113.094712236
 10
-885.926369839
 20
113.077983086
210
0.0
220
0.0
230
-1.0
  0
LWPOLYLINE
  5
577
100
AcDbEntity
  8
AS88QU
  6
SOLID
 62
        7
100
AcDbPolyline
 90
       68
 70
        0
 10
-885.926369085
 20
106.409453783
 10
-885.91176801
 20
106.444759892
 10
-885.893482565
 20
106.492725889
 10
-885.863216724
 20
106.579922313
 10
-885.834860902
 20
106.671550155
 10
-885.808070966
 20
106.767956991
 10
-885.78250278
 20
106.869490397
 10
-885.757812213
 20
106.976497949
 10
-885.73365513
 20
107.089327223
 10
-885.709687398
 20
107.208325794
 10
-885.693420725
 20
107.292835859
 10
-885.677220346
 20
107.380200708
 10
-885.661083432
 20
107.470291557
 10
-885.645007156
 20
107.562979623
 10
-885.628988687
 20
107.658136124
 10
-885.613025198
 20
107.755632277
 10
-885.596260797
 20
107.860771535
 10
-885.579479069
 20
107.968684354
 10
-885.562689073
 20
108.079127322
 10
-885.545899866
 20
108.191857026
 10
-885.529120507
 20
108.306630052
 10
-885.512360054
 20
108.423202989
 10
-885.495627565
 20
108.541332424
 10
-885.478932098
 20
108.660774944
 10
-885.462282712
 20
108.781287136
 10
-885.445696178
 20
108.902545488
 10
-885.429086079
 20
109.024963746
 10
-885.412464732
 20
109.148254315
 10
-885.395844455
 20
109.272129598
 10
-885.379237566
 20
109.396301999
 10
-885.362656384
 20
109.520483921
 10
-885.347577269
 20
109.633419918
 10
-885.332462071
 20
109.746468845
 10
-885.317321623
 20
109.859400922
 10
-885.302166757
 20
109.971986366
 10
-885.287008304
 20
110.083995397
 10
-885.271857097
 20
110.195198233
 10
-885.256723966
 20
110.305365093
 10
-885.241619745
 20
110.414266196
 10
-885.226555264
 20
110.52167176
 10
-885.211987337
 20
110.624227629
 10
-885.197389974
 20
110.725570167
 10
-885.182776729
 20
110.825489827
 10
-885.168161157
 20
110.923777063
 10
-885.15355681
 20
111.02022233
 10
-885.138977244
 20
111.11461608
 10
-885.124436011
 20
111.20674877
 10
-885.109946665
 20
111.296410851
 10
-885.09552276
 20
111.383392779
 10
-885.07993193
 20
111.474637159
 10
-885.064339557
 20
111.562891939
 10
-885.048792568
 20
111.647849811
 10
-885.033337892
 20
111.729203466
 10
-885.018022459
 20
111.806645596
 10
-885.002893197
 20
111.879868893
 10
-884.987997034
 20
111.948566048
 10
-884.973380899
 20
112.012429753
 10
-884.960537378
 20
112.065456038
 10
-884.948022363
 20
112.114315843
 10
-884.93597675
 20
112.158628449
 10
-884.924541432
 20
112.198013136
 10
-884.915524027
 20
112.226968599
 10
-884.907219946
 20
112.251938789
 10
-884.899913202
 20
112.272496123
 10
-884.893887806
 20
112.288213018
 10
-884.890354932
 20
112.296650679
 10
-884.888057226
 20
112.301759237
 10
-884.641851119
 20
112.839473725
210
0.0
220
0.0
230
-1.0
  0
LINE
  5
578
100
AcDbEntity
  8
AS88QU
  6
SOLID
 62
        7
100
AcDbLine
 10
884.926383987
 20
233.512152923
 30
0.0
 11
835.926383987
 21
233.512158464
 31
0.0
  0
LINE
  5
579
100
AcDbEntity
  8
AS88QU
  6
SOLID
 62
        7
100
AcDbLine
 10
833.926384791
 20
231.512158731
 30
0.0
 11
835.926385018
 21
233.512158504
 31
0.0
  0
LINE
  5
57A
100
AcDbEntity
  8
AS88QU
  6
SOLID
 62
        7
100
AcDbLine
 10
937.194449887
 20
233.012147023
 30
0.0
 11
887.226383398
 21
233.012152673
 31
0.0
  0
LINE
  5
57B
100
AcDbEntity
  8
AS88QU
  6
SOLID
 62
        7
100
AcDbLine
 10
885.926383763
 20
231.712152846
 30
0.0
 11
887.226383904
 21
233.012152693
 31
0.0
  0
LINE
  5
57C
100
AcDbEntity
  8
AS88QU
  6
SOLID
 62
        7
100
AcDbLine
 10
885.926383853
 20
232.51215283
 30
0.0
 11
884.926383966
 21
233.512152943
 31
0.0
  0
LINE
  5
57D
100
AcDbEntity
  8
AS88QU
  6
SOLID
 62
        7
100
AcDbLine
 10
912.226383265
 20
232.012149866
 30
0.0
 11
911.226383378
 21
233.012149979
 31
0.0
  0
LINE
  5
57E
100
AcDbEntity
  8
AS88QU
  6
SOLID
 62
        7
100
AcDbLine
 10
835.926384468
 20
233.512157955
 30
0.0
 11
835.926371407
 21
118.012158464
 31
0.0
  0
LINE
  5
57F
100
AcDbEntity
  8
AS88QU
  6
SOLID
 62
        7
100
AcDbLine
 10
833.926384069
 20
229.624504906
 30
0.0
 11
833.926384283
 21
231.512158222
 31
0.0
  0
LINE
  5
580
100
AcDbEntity
  8
AS88QU
  6
SOLID
 62
        7
100
AcDbLine
 10
912.226382756
 20
232.012150375
 30
0.0
 11
912.226354487
 21
-17.979939703
 31
0.0
  0
LINE
  5
581
100
AcDbEntity
  8
AS88QU
  6
SOLID
 62
        7
100
AcDbLine
 10
885.926383344
 20
232.512153339
 30
0.0
 11
885.926370397
 21
118.01215283
 31
0.0
  0
LINE
  5
582
100
AcDbEntity
  8
AS88QU
  6
SOLID
 62
        7
100
AcDbLine
 10
884.926353455
 20
-27.487841619
 30
0.0
 11
835.926353455
 21
-27.487836078
 31
0.0
  0
LINE
  5
583
100
AcDbEntity
  8
AS88QU
  6
SOLID
 62
        7
100
AcDbLine
 10
937.194449887
 20
-26.98784754
 30
0.0
 11
887.22635298
 21
-26.987841889
 31
0.0
  0
LINE
  5
584
100
AcDbEntity
  8
AS88QU
  6
SOLID
 62
        7
100
AcDbLine
 10
912.226353072
 20
-25.987844736
 30
0.0
 11
911.226352959
 21
-26.987844623
 31
0.0
  0
LINE
  5
585
100
AcDbEntity
  8
AS88QU
  6
SOLID
 62
        7
100
AcDbLine
 10
885.926354967
 20
-13.933085469
 30
0.0
 11
885.926353548
 21
-26.487842006
 31
0.0
  0
LINE
  5
586
100
AcDbEntity
  8
AS88QU
  6
SOLID
 62
        7
100
AcDbLine
 10
885.926353638
 20
-25.687841768
 30
0.0
 11
887.226353485
 21
-26.987841909
 31
0.0
  0
LINE
  5
587
100
AcDbEntity
  8
AS88QU
  6
SOLID
 62
        7
100
AcDbLine
 10
885.926353548
 20
-26.487841752
 30
0.0
 11
884.926353434
 21
-27.487841639
 31
0.0
  0
LINE
  5
588
100
AcDbEntity
  8
AS88QU
  6
SOLID
 62
        7
100
AcDbLine
 10
833.926354712
 20
-25.487835892
 30
0.0
 11
835.926354486
 21
-27.487836118
 31
0.0
  0
LINE
  5
589
100
AcDbEntity
  8
AS88QU
  6
SOLID
 62
        7
100
AcDbLine
 10
835.926367563
 20
84.012161577
 30
0.0
 11
835.926354954
 21
-27.487836587
 31
0.0
  0
LINE
  5
58A
100
AcDbEntity
  8
AS88QU
  6
SOLID
 62
        7
100
AcDbLine
 10
833.926355221
 20
-25.487836401
 30
0.0
 11
833.926355897
 21
-19.510539804
 31
0.0
  0
LINE
  5
58B
100
AcDbEntity
  8
AS88QU
  6
SOLID
 62
        7
100
AcDbLine
 10
912.226354487
 20
-17.979934559
 30
0.0
 11
912.226353581
 21
-25.987844227
 31
0.0
  0
LINE
  5
58C
100
AcDbEntity
  8
AS88QU
  6
SOLID
 62
        7
100
AcDbLine
 10
937.194449887
 20
-25.987849018
 30
0.0
 11
967.194443783
 21
-19.487850341
 31
0.0
  0
LINE
  5
58D
100
AcDbEntity
  8
AS88QU
  6
SOLID
 62
        7
100
AcDbLine
 10
937.194449887
 20
233.012145892
 30
0.0
 11
937.194449887
 21
-26.98784867
 31
0.0
  0
LINE
  5
58E
100
AcDbEntity
  8
AS88QU
  6
SOLID
 62
        7
100
AcDbLine
 10
977.194449887
 20
225.512150982
 30
0.0
 11
977.194449887
 21
-19.487849018
 31
0.0
  0
DIMENSION
  5
59F
100
AcDbEntity
  8
AS88QU
  6
SOLID
 62
        7
100
AcDbDimension
  2
*D18
 10
764.825439453
 20
-27.487838745
 30
0.0
 11
754.825439453
 21
73.181907654
 31
0.0
 71
        5
 72
        1
 41
1.0
 42
0.0
  1
%%c<>
  3
13
100
AcDbAlignedDimension
 13
835.926391602
 23
233.512161255
 33
0.0
 14
835.926330566
 24
-27.487836838
 34
0.0
 50
90.0
100
AcDbRotatedDimension
  0
DIMENSION
  5
5AF
100
AcDbEntity
  8
AS88QU
  6
SOLID
 62
        7
100
AcDbDimension
  2
*D19
 10
817.394470215
 20
-239.966064453
 30
0.0
 11
918.797485352
 21
-229.966064453
 31
0.0
 71
        5
 72
        1
 41
1.0
 42
0.0
  3
14
100
AcDbAlignedDimension
 13
1067.194458008
 23
-197.457962036
 33
0.0
 14
817.394470215
 24
99.677505493
 34
0.0
100
AcDbRotatedDimension
  0
DIMENSION
  5
5BF
100
AcDbEntity
  8
AS88QU
  6
SOLID
 62
        7
100
AcDbDimension
  2
*D20
 10
817.394470215
 20
-287.382537842
 30
0.0
 11
1008.797485352
 21
-277.382537842
 31
0.0
 71
        5
 72
        1
 41
1.0
 42
0.0
  3
15
100
AcDbAlignedDimension
 13
1247.194458008
 23
-123.935173035
 33
0.0
 14
817.394470215
 24
99.677505493
 34
0.0
100
AcDbRotatedDimension
  0
DIMENSION
  5
5CF
100
AcDbEntity
  8
AS88QU
  6
SOLID
 62
        7
100
AcDbDimension
  2
*D21
 10
716.156738281
 20
-57.183837891
 30
0.0
 11
706.156738281
 21
300.417480469
 31
0.0
 71
        5
 72
        1
 41
1.0
 42
0.0
  1
  760   
  3
16
100
AcDbAlignedDimension
 13
894.644470215
 23
705.012634277
 33
0.0
 14
1007.194458008
 24
-57.183849335
 34
0.0
 50
90.0
100
AcDbRotatedDimension
  0
DIMENSION
  5
5DF
100
AcDbEntity
  8
AS88QU
  6
SOLID
 62
        7
100
AcDbDimension
  2
*D22
 10
666.471252441
 20
-57.183837891
 30
0.0
 11
656.471252441
 21
330.318878174
 31
0.0
 71
        5
 72
        1
 41
1.0
 42
0.0
  1
  825   
  3
17
100
AcDbAlignedDimension
 13
1038.193969727
 23
764.815429688
 33
0.0
 14
1007.194458008
 24
-57.183849335
 34
0.0
 50
90.0
100
AcDbRotatedDimension
  0
ENDSEC
  0
SECTION
  2
OBJECTS
  0
DICTIONARY
  5
19
100
AcDbDictionary
280
        0
281
        1
  3
ACAD_GROUP
350
1A
  3
ACAD_MLINESTYLE
350
1B
  3
ACAD_LAYOUT
350
1E
  3
ACAD_PLOTSETTINGS
350
22
  3
ACAD_PLOTSTYLENAME
350
1F
  0
DICTIONARY
  5
1A
102
{ACAD_REACTORS
330
19
102
}
100
AcDbDictionary
280
        0
281
        1
  0
DICTIONARY
  5
1B
102
{ACAD_REACTORS
330
19
102
}
100
AcDbDictionary
280
        0
281
        1
  3
Standard
350
1C
  0
MLINESTYLE
  5
1C
102
{ACAD_REACTORS
330
1B
102
}
100
AcDbMlineStyle
  2
Standard
 70
        0
  3

 62
        0
 51
90.0
 52
90.0
 71
        2
 49
0.5
 62
      256
  6
BYLAYER
 49
-0.5
 62
      256
  6
BYLAYER
  0
ACDBDICTIONARYWDFLT
  5
1F
102
{ACAD_REACTORS
330
19
102
}
100
AcDbDictionary
281
        1
  3
Normal
350
1D
100
AcDbDictionaryWithDefault
340
1D
  0
ACDBPLACEHOLDER
  5
1D
102
{ACAD_REACTORS
330
1F
102
}
  0
LAYOUT
  5
20
102
{ACAD_REACTORS
330
1E
102
}
100
AcDbPlotSettings
  1

  2

  4

  6

 40
0.0
 41
0.0
 42
0.0
 43
0.0
 44
0.0
 45
0.0
 46
0.0
 47
0.0
 48
0.0
 49
0.0
140
0.0
141
0.0
142
1.0
143
1.0
 70
     1024
 72
        0
 73
        0
 74
        0
  7

 75
        0
147
1.0
148
0.0
149
0.0
100
AcDbLayout
  1
Model
 70
        0
 71
        0
 10
0.0
 20
0.0
 11
0.0
 21
0.0
 12
0.0
 22
0.0
 32
0.0
 14
0.0
 24
0.0
 34
0.0
 15
0.0
 25
0.0
 35
0.0
146
0.0
 13
0.0
 23
0.0
 33
0.0
 16
0.0
 26
0.0
 36
0.0
 17
0.0
 27
0.0
 37
0.0
 76
        0
330
A
331
0
345
0
346
0
  0
LAYOUT
  5
21
102
{ACAD_REACTORS
330
1E
102
}
100
AcDbPlotSettings
  1

  2

  4

  6

 40
0.0
 41
0.0
 42
0.0
 43
0.0
 44
0.0
 45
0.0
 46
0.0
 47
0.0
 48
0.0
 49
0.0
140
0.0
141
0.0
142
1.0
143
1.0
 70
        0
 72
        0
 73
        0
 74
        0
  7

 75
        0
147
1.0
148
0.0
149
0.0
100
AcDbLayout
  1
Layout1
 70
        0
 71
        0
 10
0.0
 20
0.0
 11
0.0
 21
0.0
 12
0.0
 22
0.0
 32
0.0
 14
0.0
 24
0.0
 34
0.0
 15
0.0
 25
0.0
 35
0.0
146
0.0
 13
0.0
 23
0.0
 33
0.0
 16
0.0
 26
0.0
 36
0.0
 17
0.0
 27
0.0
 37
0.0
 76
        0
330
B
331
0
345
0
346
0
  0
DICTIONARY
  5
1E
102
{ACAD_REACTORS
330
19
102
}
100
AcDbDictionary
280
        0
281
        1
  3
Layout1
350
21
  3
Model
350
20
  0
DICTIONARY
  5
22
102
{ACAD_REACTORS
330
19
102
}
100
AcDbDictionary
280
        0
281
        1
  0
ENDSEC
  0
EOF
