  0
SECTION
  2
HEADER
  9
$ACADVER
  1
AC1018
  9
$ACADMAINTVER
 70
   104
  9
$DWGCODEPAGE
  3
ANSI_1252
  9
$LASTSAVEDBY
  1
asstec
  9
$INSBASE
 10
0.0
 20
0.0
 30
0.0
  9
$EXTMIN
 10
-724.7724134925192
 20
-2433.670463054629
 30
-0.0015258207003583
  9
$EXTMAX
 10
455.2182899447362
 20
-1517.676552769504
 30
0.0000000349246037
  9
$LIMMIN
 10
0.0
 20
0.0
  9
$LIMMAX
 10
0.0
 20
0.0
  9
$ORTHOMODE
 70
     0
  9
$REGENMODE
 70
     1
  9
$FILLMODE
 70
     1
  9
$QTEXTMODE
 70
     0
  9
$MIRRTEXT
 70
     1
  9
$LTSCALE
 40
1.0
  9
$ATTMODE
 70
     1
  9
$TEXTSIZE
 40
0.0
  9
$TRACEWID
 40
0.05
  9
$TEXTSTYLE
  7
Standard
  9
$CLAYER
  8
1
  9
$CELTYPE
  6
Continuous
  9
$CECOLOR
 62
   256
  9
$CELTSCALE
 40
1.0
  9
$DISPSILH
 70
     0
  9
$DIMSCALE
 40
1.0
  9
$DIMASZ
 40
3.5
  9
$DIMEXO
 40
4.0
  9
$DIMDLI
 40
0.38
  9
$DIMRND
 40
0.0
  9
$DIMDLE
 40
0.0
  9
$DIMEXE
 40
4.0
  9
$DIMTP
 40
0.0
  9
$DIMTM
 40
0.0
  9
$DIMTXT
 40
3.5
  9
$DIMCEN
 40
0.09
  9
$DIMTSZ
 40
0.0
  9
$DIMTOL
 70
     0
  9
$DIMLIM
 70
     0
  9
$DIMTIH
 70
     0
  9
$DIMTOH
 70
     0
  9
$DIMSE1
 70
     0
  9
$DIMSE2
 70
     0
  9
$DIMTAD
 70
     1
  9
$DIMZIN
 70
     0
  9
$DIMBLK
  1

  9
$DIMASO
 70
     1
  9
$DIMSHO
 70
     1
  9
$DIMPOST
  1

  9
$DIMAPOST
  1

  9
$DIMALT
 70
     0
  9
$DIMALTD
 70
     2
  9
$DIMALTF
 40
25.4
  9
$DIMLFAC
 40
1.0
  9
$DIMTOFL
 70
     1
  9
$DIMTVP
 40
0.0
  9
$DIMTIX
 70
     0
  9
$DIMSOXD
 70
     0
  9
$DIMSAH
 70
     0
  9
$DIMBLK1
  1

  9
$DIMBLK2
  1

  9
$DIMSTYLE
  2
Standard
  9
$DIMCLRD
 70
     7
  9
$DIMCLRE
 70
     7
  9
$DIMCLRT
 70
    50
  9
$DIMTFAC
 40
1.0
  9
$DIMGAP
 40
0.09
  9
$DIMJUST
 70
     0
  9
$DIMSD1
 70
     0
  9
$DIMSD2
 70
     0
  9
$DIMTOLJ
 70
     1
  9
$DIMTZIN
 70
     0
  9
$DIMALTZ
 70
     0
  9
$DIMALTTZ
 70
     0
  9
$DIMUPT
 70
     0
  9
$DIMDEC
 70
     0
  9
$DIMTDEC
 70
     4
  9
$DIMALTU
 70
     2
  9
$DIMALTTD
 70
     2
  9
$DIMTXSTY
  7
Standard
  9
$DIMAUNIT
 70
     0
  9
$DIMADEC
 70
     0
  9
$DIMALTRND
 40
0.0
  9
$DIMAZIN
 70
     0
  9
$DIMDSEP
 70
     0
  9
$DIMATFIT
 70
     1
  9
$DIMFRAC
 70
     0
  9
$DIMLDRBLK
  1

  9
$DIMLUNIT
 70
     2
  9
$DIMLWD
 70
     0
  9
$DIMLWE
 70
     0
  9
$DIMTMOVE
 70
     0
  9
$LUNITS
 70
     2
  9
$LUPREC
 70
     0
  9
$SKETCHINC
 40
0.1
  9
$FILLETRAD
 40
0.0
  9
$AUNITS
 70
     0
  9
$AUPREC
 70
     2
  9
$MENU
  1
acad
  9
$ELEVATION
 40
0.0
  9
$PELEVATION
 40
0.0
  9
$THICKNESS
 40
0.0
  9
$LIMCHECK
 70
     0
  9
$CHAMFERA
 40
0.0
  9
$CHAMFERB
 40
0.0
  9
$CHAMFERC
 40
0.0
  9
$CHAMFERD
 40
0.0
  9
$SKPOLY
 70
     0
  9
$TDCREATE
 40
2454484.645371273
  9
$TDUCREATE
 40
2454484.603704607
  9
$TDUPDATE
 40
2454484.645703125
  9
$TDUUPDATE
 40
2454484.604036458
  9
$TDINDWG
 40
0.0003367361
  9
$TDUSRTIMER
 40
0.0003358218
  9
$USRTIMER
 70
     1
  9
$ANGBASE
 50
0.0
  9
$ANGDIR
 70
     0
  9
$PDMODE
 70
     2
  9
$PDSIZE
 40
-1.0
  9
$PLINEWID
 40
0.0
  9
$SPLFRAME
 70
     0
  9
$SPLINETYPE
 70
     6
  9
$SPLINESEGS
 70
     8
  9
$HANDSEED
  5
78B
  9
$SURFTAB1
 70
     6
  9
$SURFTAB2
 70
     6
  9
$SURFTYPE
 70
     6
  9
$SURFU
 70
     6
  9
$SURFV
 70
     6
  9
$UCSBASE
  2

  9
$UCSNAME
  2

  9
$UCSORG
 10
0.0
 20
0.0
 30
0.0
  9
$UCSXDIR
 10
1.0
 20
0.0
 30
0.0
  9
$UCSYDIR
 10
0.0
 20
1.0
 30
0.0
  9
$UCSORTHOREF
  2

  9
$UCSORTHOVIEW
 70
     0
  9
$UCSORGTOP
 10
0.0
 20
0.0
 30
0.0
  9
$UCSORGBOTTOM
 10
0.0
 20
0.0
 30
0.0
  9
$UCSORGLEFT
 10
0.0
 20
0.0
 30
0.0
  9
$UCSORGRIGHT
 10
0.0
 20
0.0
 30
0.0
  9
$UCSORGFRONT
 10
0.0
 20
0.0
 30
0.0
  9
$UCSORGBACK
 10
0.0
 20
0.0
 30
0.0
  9
$PUCSBASE
  2

  9
$PUCSNAME
  2

  9
$PUCSORG
 10
0.0
 20
0.0
 30
0.0
  9
$PUCSXDIR
 10
1.0
 20
0.0
 30
0.0
  9
$PUCSYDIR
 10
0.0
 20
1.0
 30
0.0
  9
$PUCSORTHOREF
  2

  9
$PUCSORTHOVIEW
 70
     0
  9
$PUCSORGTOP
 10
0.0
 20
0.0
 30
0.0
  9
$PUCSORGBOTTOM
 10
0.0
 20
0.0
 30
0.0
  9
$PUCSORGLEFT
 10
0.0
 20
0.0
 30
0.0
  9
$PUCSORGRIGHT
 10
0.0
 20
0.0
 30
0.0
  9
$PUCSORGFRONT
 10
0.0
 20
0.0
 30
0.0
  9
$PUCSORGBACK
 10
0.0
 20
0.0
 30
0.0
  9
$USERI1
 70
     0
  9
$USERI2
 70
     0
  9
$USERI3
 70
     0
  9
$USERI4
 70
     0
  9
$USERI5
 70
     0
  9
$USERR1
 40
0.0
  9
$USERR2
 40
0.0
  9
$USERR3
 40
0.0
  9
$USERR4
 40
0.0
  9
$USERR5
 40
0.0
  9
$WORLDVIEW
 70
     1
  9
$SHADEDGE
 70
     3
  9
$SHADEDIF
 70
    70
  9
$TILEMODE
 70
     1
  9
$MAXACTVP
 70
    16
  9
$PINSBASE
 10
0.0
 20
0.0
 30
0.0
  9
$PLIMCHECK
 70
     0
  9
$PEXTMIN
 10
1.000000000000000E+20
 20
1.000000000000000E+20
 30
1.000000000000000E+20
  9
$PEXTMAX
 10
-1.000000000000000E+20
 20
-1.000000000000000E+20
 30
-1.000000000000000E+20
  9
$PLIMMIN
 10
0.0
 20
0.0
  9
$PLIMMAX
 10
12.0
 20
9.0
  9
$UNITMODE
 70
     0
  9
$VISRETAIN
 70
     0
  9
$PLINEGEN
 70
     1
  9
$PSLTSCALE
 70
     0
  9
$TREEDEPTH
 70
  3020
  9
$CMLSTYLE
  2
Standard
  9
$CMLJUST
 70
     0
  9
$CMLSCALE
 40
1.0
  9
$PROXYGRAPHICS
 70
     0
  9
$MEASUREMENT
 70
     1
  9
$CELWEIGHT
370
     0
  9
$ENDCAPS
280
     0
  9
$JOINSTYLE
280
     0
  9
$LWDISPLAY
290
     0
  9
$INSUNITS
 70
     0
  9
$HYPERLINKBASE
  1

  9
$STYLESHEET
  1

  9
$XEDIT
290
     1
  9
$CEPSNTYPE
380
     0
  9
$PSTYLEMODE
290
     1
  9
$FINGERPRINTGUID
  2

  9
$VERSIONGUID
  2
{B40B06E7-C9D4-4D77-8874-F845A1FD5FD7}
  9
$EXTNAMES
290
     1
  9
$PSVPSCALE
 40
0.0
  9
$OLESTARTUP
290
     0
  9
$SORTENTS
280
   127
  9
$INDEXCTL
280
     0
  9
$HIDETEXT
280
     0
  9
$XCLIPFRAME
290
     0
  9
$HALOGAP
280
     0
  9
$OBSCOLOR
 70
   257
  9
$OBSLTYPE
280
     0
  9
$INTERSECTIONDISPLAY
280
     0
  9
$INTERSECTIONCOLOR
 70
   257
  9
$DIMASSOC
280
     1
  9
$PROJECTNAME
  1

  0
ENDSEC
  0
SECTION
  2
CLASSES
  0
CLASS
  1
IMAGE
  2
AcDbRasterImage
  3
ISM
 90
      127
 91
        0
280
     0
281
     1
  0
CLASS
  1
DICTIONARYVAR
  2
AcDbDictionaryVar
  3
ObjectDBX Classes
 90
        0
 91
        1
280
     0
281
     0
  0
CLASS
  1
RASTERVARIABLES
  2
AcDbRasterVariables
  3
ISM
 90
        0
 91
        0
280
     0
281
     0
  0
CLASS
  1
IMAGEDEF
  2
AcDbRasterImageDef
  3
ISM
 90
        0
 91
        0
280
     0
281
     0
  0
CLASS
  1
IMAGEDEF_REACTOR
  2
AcDbRasterImageDefReactor
  3
ISM
 90
        1
 91
        0
280
     0
281
     0
  0
CLASS
  1
IDBUFFER
  2
AcDbIdBuffer
  3
ObjectDBX Classes
 90
        0
 91
        0
280
     0
281
     0
  0
CLASS
  1
SPATIAL_FILTER
  2
AcDbSpatialFilter
  3
ObjectDBX Classes
 90
        0
 91
        0
280
     0
281
     0
  0
CLASS
  1
SORTENTSTABLE
  2
AcDbSortentsTable
  3
ObjectDBX Classes
 90
        0
 91
        0
280
     0
281
     0
  0
CLASS
  1
LAYER_INDEX
  2
AcDbLayerIndex
  3
ObjectDBX Classes
 90
        0
 91
        0
280
     0
281
     0
  0
CLASS
  1
SPATIAL_INDEX
  2
AcDbSpatialIndex
  3
ObjectDBX Classes
 90
        0
 91
        0
280
     0
281
     0
  0
CLASS
  1
OBJECT_PTR
  2
CAseDLPNTableRecord
  3
"ASE-LPNTableRecord"
 90
        1
 91
        0
280
     0
281
     0
  0
CLASS
  1
PLOTSETTINGS
  2
AcDbPlotSettings
  3
ObjectDBX Classes
 90
        0
 91
        0
280
     0
281
     0
  0
CLASS
  1
ACDBDICTIONARYWDFLT
  2
AcDbDictionaryWithDefault
  3
ObjectDBX Classes
 90
        0
 91
        1
280
     0
281
     0
  0
CLASS
  1
MATERIAL
  2
AcDbMaterial
  3
ObjectDBX Classes
 90
     1024
 91
        3
280
     0
281
     0
  0
CLASS
  1
VISUALSTYLE
  2
AcDbVisualStyle
  3
ObjectDBX Classes
 90
     4095
 91
       16
280
     0
281
     0
  0
CLASS
  1
TABLESTYLE
  2
AcDbTableStyle
  3
ObjectDBX Classes
 90
     4095
 91
        1
280
     0
281
     0
  0
ENDSEC
  0
SECTION
  2
TABLES
  0
TABLE
  2
VPORT
  5
7
330
0
100
AcDbSymbolTable
 70
     1
  0
VPORT
  5
15
330
7
100
AcDbSymbolTableRecord
100
AcDbViewportTableRecord
  2
*ACTIVE
 70
     0
 10
0.0
 20
0.0
 11
1.0
 21
1.0
 12
-134.7770617738915
 22
-1975.673507912066
 13
0.0
 23
0.0
 14
1.0
 24
1.0
 15
0.0
 25
0.0
 16
0.0
 26
0.0
 36
1.0
 17
0.0
 27
0.0
 37
0.0
 40
925.860990108662
 41
1.739208633093525
 42
50.0
 43
0.0
 44
0.0
 50
0.0
 51
0.0
 71
     0
 72
   100
 73
     1
 74
     1
 75
     0
 76
     0
 77
     0
 78
     0
281
     0
 65
     0
110
0.0
120
0.0
130
0.0
111
1.0
121
0.0
131
0.0
112
0.0
122
1.0
132
0.0
 79
     0
146
0.0
  0
ENDTAB
  0
TABLE
  2
LTYPE
  5
4
330
0
100
AcDbSymbolTable
 70
     4
  0
LTYPE
  5
11
330
4
100
AcDbSymbolTableRecord
100
AcDbLinetypeTableRecord
  2
ByBlock
 70
     0
  3

 72
    65
 73
     0
 40
0.0
  0
LTYPE
  5
12
330
4
100
AcDbSymbolTableRecord
100
AcDbLinetypeTableRecord
  2
ByLayer
 70
     0
  3

 72
    65
 73
     0
 40
0.0
  0
LTYPE
  5
13
330
4
100
AcDbSymbolTableRecord
100
AcDbLinetypeTableRecord
  2
Continuous
 70
     0
  3
Solid line
 72
    65
 73
     0
 40
0.0
  0
LTYPE
  5
57
330
4
100
AcDbSymbolTableRecord
100
AcDbLinetypeTableRecord
  2
SOLID
 70
     0
  3
Solid line
 72
    65
 73
     0
 40
0.0
  0
LTYPE
  5
78
330
4
100
AcDbSymbolTableRecord
100
AcDbLinetypeTableRecord
  2
CENTER
 70
     0
  3
Center ____ _ ____ _ ____ _ ____ _ ____ _ ____
 72
    65
 73
     4
 40
8.0
 49
4.5
 74
     0
 49
-1.5
 74
     0
 49
0.5
 74
     0
 49
-1.5
 74
     0
  0
LTYPE
  5
CC
330
4
100
AcDbSymbolTableRecord
100
AcDbLinetypeTableRecord
  2
L_DASH
 70
     0
  3
L_dash ____  ____  ____  ____  ____  ____
 72
    65
 73
     2
 40
8.0
 49
6.0
 74
     0
 49
-2.0
 74
     0
  0
ENDTAB
  0
TABLE
  2
LAYER
  5
2
330
0
100
AcDbSymbolTable
 70
    51
  0
LAYER
  5
14
330
2
100
AcDbSymbolTableRecord
100
AcDbLayerTableRecord
  2
0
 70
     0
 62
     7
  6
Continuous
370
    -3
390
1D
  0
LAYER
  5
23
330
2
100
AcDbSymbolTableRecord
100
AcDbLayerTableRecord
  2
1
 70
     0
 62
     7
  6
Continuous
370
    -3
390
1F
  0
LAYER
  5
24
330
2
100
AcDbSymbolTableRecord
100
AcDbLayerTableRecord
  2
2
 70
     0
 62
     7
  6
Continuous
370
    -3
390
1F
  0
LAYER
  5
25
330
2
100
AcDbSymbolTableRecord
100
AcDbLayerTableRecord
  2
3
 70
     0
 62
     7
  6
Continuous
370
    -3
390
1F
  0
LAYER
  5
26
330
2
100
AcDbSymbolTableRecord
100
AcDbLayerTableRecord
  2
4
 70
     0
 62
     7
  6
Continuous
370
    -3
390
1F
  0
LAYER
  5
27
330
2
100
AcDbSymbolTableRecord
100
AcDbLayerTableRecord
  2
5
 70
     0
 62
     7
  6
Continuous
370
    -3
390
1F
  0
LAYER
  5
28
330
2
100
AcDbSymbolTableRecord
100
AcDbLayerTableRecord
  2
6
 70
     0
 62
     7
  6
Continuous
370
    -3
390
1F
  0
LAYER
  5
29
330
2
100
AcDbSymbolTableRecord
100
AcDbLayerTableRecord
  2
7
 70
     0
 62
     7
  6
Continuous
370
    -3
390
1F
  0
LAYER
  5
2A
330
2
100
AcDbSymbolTableRecord
100
AcDbLayerTableRecord
  2
8
 70
     0
 62
     7
  6
Continuous
370
    -3
390
1F
  0
LAYER
  5
2B
330
2
100
AcDbSymbolTableRecord
100
AcDbLayerTableRecord
  2
9
 70
     0
 62
     7
  6
Continuous
370
    -3
390
1F
  0
LAYER
  5
2C
330
2
100
AcDbSymbolTableRecord
100
AcDbLayerTableRecord
  2
NASC
 70
     0
 62
     7
  6
Continuous
370
    -3
390
1F
  0
LAYER
  5
2D
330
2
100
AcDbSymbolTableRecord
100
AcDbLayerTableRecord
  2
11
 70
     0
 62
     7
  6
Continuous
370
    -3
390
1F
  0
LAYER
  5
2E
330
2
100
AcDbSymbolTableRecord
100
AcDbLayerTableRecord
  2
12
 70
     0
 62
     7
  6
Continuous
370
    -3
390
1F
  0
LAYER
  5
2F
330
2
100
AcDbSymbolTableRecord
100
AcDbLayerTableRecord
  2
13
 70
     0
 62
     7
  6
Continuous
370
    -3
390
1F
  0
LAYER
  5
30
330
2
100
AcDbSymbolTableRecord
100
AcDbLayerTableRecord
  2
14
 70
     0
 62
     7
  6
Continuous
370
    -3
390
1F
  0
LAYER
  5
31
330
2
100
AcDbSymbolTableRecord
100
AcDbLayerTableRecord
  2
15
 70
     0
 62
     7
  6
Continuous
370
    -3
390
1F
  0
LAYER
  5
32
330
2
100
AcDbSymbolTableRecord
100
AcDbLayerTableRecord
  2
16
 70
     0
 62
     7
  6
Continuous
370
    -3
390
1F
  0
LAYER
  5
33
330
2
100
AcDbSymbolTableRecord
100
AcDbLayerTableRecord
  2
17
 70
     0
 62
     7
  6
Continuous
370
    -3
390
1F
  0
LAYER
  5
34
330
2
100
AcDbSymbolTableRecord
100
AcDbLayerTableRecord
  2
18
 70
     0
 62
     7
  6
Continuous
370
    -3
390
1F
  0
LAYER
  5
35
330
2
100
AcDbSymbolTableRecord
100
AcDbLayerTableRecord
  2
19
 70
     0
 62
     7
  6
Continuous
370
    -3
390
1F
  0
LAYER
  5
36
330
2
100
AcDbSymbolTableRecord
100
AcDbLayerTableRecord
  2
20
 70
     0
 62
     7
  6
Continuous
370
    -3
390
1F
  0
LAYER
  5
37
330
2
100
AcDbSymbolTableRecord
100
AcDbLayerTableRecord
  2
21
 70
     0
 62
     7
  6
Continuous
370
    -3
390
1F
  0
LAYER
  5
38
330
2
100
AcDbSymbolTableRecord
100
AcDbLayerTableRecord
  2
22
 70
     0
 62
     7
  6
Continuous
370
    -3
390
1F
  0
LAYER
  5
39
330
2
100
AcDbSymbolTableRecord
100
AcDbLayerTableRecord
  2
23
 70
     0
 62
     7
  6
Continuous
370
    -3
390
1F
  0
LAYER
  5
3A
330
2
100
AcDbSymbolTableRecord
100
AcDbLayerTableRecord
  2
24
 70
     0
 62
     7
  6
Continuous
370
    -3
390
1F
  0
LAYER
  5
3B
330
2
100
AcDbSymbolTableRecord
100
AcDbLayerTableRecord
  2
25
 70
     0
 62
     7
  6
Continuous
370
    -3
390
1F
  0
LAYER
  5
3C
330
2
100
AcDbSymbolTableRecord
100
AcDbLayerTableRecord
  2
26
 70
     0
 62
     7
  6
Continuous
370
    -3
390
1F
  0
LAYER
  5
3D
330
2
100
AcDbSymbolTableRecord
100
AcDbLayerTableRecord
  2
27
 70
     0
 62
     7
  6
Continuous
370
    -3
390
1F
  0
LAYER
  5
3E
330
2
100
AcDbSymbolTableRecord
100
AcDbLayerTableRecord
  2
28
 70
     0
 62
     7
  6
Continuous
370
    -3
390
1F
  0
LAYER
  5
3F
330
2
100
AcDbSymbolTableRecord
100
AcDbLayerTableRecord
  2
29
 70
     0
 62
     7
  6
Continuous
370
    -3
390
1F
  0
LAYER
  5
40
330
2
100
AcDbSymbolTableRecord
100
AcDbLayerTableRecord
  2
30
 70
     0
 62
     7
  6
Continuous
370
    -3
390
1F
  0
LAYER
  5
41
330
2
100
AcDbSymbolTableRecord
100
AcDbLayerTableRecord
  2
31
 70
     0
 62
     7
  6
Continuous
370
    -3
390
1F
  0
LAYER
  5
42
330
2
100
AcDbSymbolTableRecord
100
AcDbLayerTableRecord
  2
32
 70
     0
 62
     7
  6
Continuous
370
    -3
390
1F
  0
LAYER
  5
43
330
2
100
AcDbSymbolTableRecord
100
AcDbLayerTableRecord
  2
33
 70
     0
 62
     7
  6
Continuous
370
    -3
390
1F
  0
LAYER
  5
44
330
2
100
AcDbSymbolTableRecord
100
AcDbLayerTableRecord
  2
34
 70
     0
 62
     7
  6
Continuous
370
    -3
390
1F
  0
LAYER
  5
45
330
2
100
AcDbSymbolTableRecord
100
AcDbLayerTableRecord
  2
35
 70
     0
 62
     7
  6
Continuous
370
    -3
390
1F
  0
LAYER
  5
46
330
2
100
AcDbSymbolTableRecord
100
AcDbLayerTableRecord
  2
36
 70
     0
 62
     7
  6
Continuous
370
    -3
390
1F
  0
LAYER
  5
47
330
2
100
AcDbSymbolTableRecord
100
AcDbLayerTableRecord
  2
37
 70
     0
 62
     7
  6
Continuous
370
    -3
390
1F
  0
LAYER
  5
48
330
2
100
AcDbSymbolTableRecord
100
AcDbLayerTableRecord
  2
38
 70
     0
 62
     7
  6
Continuous
370
    -3
390
1F
  0
LAYER
  5
49
330
2
100
AcDbSymbolTableRecord
100
AcDbLayerTableRecord
  2
39
 70
     0
 62
     7
  6
Continuous
370
    -3
390
1F
  0
LAYER
  5
4A
330
2
100
AcDbSymbolTableRecord
100
AcDbLayerTableRecord
  2
40
 70
     0
 62
     7
  6
Continuous
370
    -3
390
1F
  0
LAYER
  5
4B
330
2
100
AcDbSymbolTableRecord
100
AcDbLayerTableRecord
  2
41
 70
     0
 62
     7
  6
Continuous
370
    -3
390
1F
  0
LAYER
  5
4C
330
2
100
AcDbSymbolTableRecord
100
AcDbLayerTableRecord
  2
42
 70
     0
 62
     7
  6
Continuous
370
    -3
390
1F
  0
LAYER
  5
4D
330
2
100
AcDbSymbolTableRecord
100
AcDbLayerTableRecord
  2
43
 70
     0
 62
     7
  6
Continuous
370
    -3
390
1F
  0
LAYER
  5
4E
330
2
100
AcDbSymbolTableRecord
100
AcDbLayerTableRecord
  2
44
 70
     0
 62
     7
  6
Continuous
370
    -3
390
1F
  0
LAYER
  5
4F
330
2
100
AcDbSymbolTableRecord
100
AcDbLayerTableRecord
  2
AUGSL1
 70
     0
 62
     7
  6
Continuous
370
    -3
390
1F
  0
LAYER
  5
50
330
2
100
AcDbSymbolTableRecord
100
AcDbLayerTableRecord
  2
AUGSL0
 70
     0
 62
     7
  6
Continuous
370
    -3
390
1F
  0
LAYER
  5
51
330
2
100
AcDbSymbolTableRecord
100
AcDbLayerTableRecord
  2
47
 70
     0
 62
     7
  6
Continuous
370
    -3
390
1F
  0
LAYER
  5
52
330
2
100
AcDbSymbolTableRecord
100
AcDbLayerTableRecord
  2
48
 70
     0
 62
     7
  6
Continuous
370
    -3
390
1F
  0
LAYER
  5
53
330
2
100
AcDbSymbolTableRecord
100
AcDbLayerTableRecord
  2
49
 70
     0
 62
     7
  6
Continuous
370
    -3
390
1F
  0
LAYER
  5
54
330
2
100
AcDbSymbolTableRecord
100
AcDbLayerTableRecord
  2
50
 70
     0
 62
     7
  6
Continuous
370
    -3
390
1F
  0
ENDTAB
  0
TABLE
  2
STYLE
  5
3
330
0
100
AcDbSymbolTable
 70
     1
  0
STYLE
  5
17
330
3
100
AcDbSymbolTableRecord
100
AcDbTextStyleTableRecord
  2
Standard
 70
     0
 40
0.0
 41
1.0
 50
0.0
 71
     0
 42
0.0
  3
txt
  4

  0
ENDTAB
  0
TABLE
  2
VIEW
  5
5
330
0
100
AcDbSymbolTable
 70
     0
  0
ENDTAB
  0
TABLE
  2
UCS
  5
6
330
0
100
AcDbSymbolTable
 70
     0
  0
ENDTAB
  0
TABLE
  2
APPID
  5
8
330
0
100
AcDbSymbolTable
 70
     1
  0
APPID
  5
16
330
8
100
AcDbSymbolTableRecord
100
AcDbRegAppTableRecord
  2
ACAD
 70
     0
  0
ENDTAB
  0
TABLE
  2
DIMSTYLE
  5
9
330
0
100
AcDbSymbolTable
 70
    19
100
AcDbDimStyleTable
 71
     0
  0
DIMSTYLE
105
18
330
9
100
AcDbSymbolTableRecord
100
AcDbDimStyleTableRecord
  2
Standard
 70
     0
 41
3.5
 42
4.0
 44
4.0
 73
     0
 74
     0
 77
     1
140
3.5
172
     1
176
     7
177
     7
178
    50
340
17
  0
DIMSTYLE
105
70
102
{ACAD_REACTORS
330
71
102
}
330
9
100
AcDbSymbolTableRecord
100
AcDbDimStyleTableRecord
  2
2
 70
     0
 41
3.5
 42
4.0
 44
4.0
 73
     0
 74
     0
 77
     1
140
3.5
172
     1
176
     3
177
     3
178
     3
271
     0
340
17
  0
DIMSTYLE
105
FE
102
{ACAD_REACTORS
330
FF
102
}
330
9
100
AcDbSymbolTableRecord
100
AcDbDimStyleTableRecord
  2
3
 70
     0
 41
3.5
 42
4.0
 44
4.0
 73
     0
 74
     0
 77
     1
140
3.5
172
     1
176
     3
177
     3
178
     3
271
     0
340
17
  0
DIMSTYLE
105
10E
102
{ACAD_REACTORS
330
10F
102
}
330
9
100
AcDbSymbolTableRecord
100
AcDbDimStyleTableRecord
  2
4
 70
     0
 41
3.5
 42
4.0
 44
4.0
 73
     0
 74
     0
 77
     1
140
3.5
172
     1
176
     3
177
     3
178
     3
271
     0
340
17
  0
DIMSTYLE
105
11E
102
{ACAD_REACTORS
330
11F
102
}
330
9
100
AcDbSymbolTableRecord
100
AcDbDimStyleTableRecord
  2
5
 70
     0
 41
3.5
 42
4.0
 44
4.0
 73
     0
 74
     0
 77
     1
140
3.5
172
     1
176
     3
177
     3
178
     3
271
     0
340
17
  0
DIMSTYLE
105
12E
102
{ACAD_REACTORS
330
12F
102
}
330
9
100
AcDbSymbolTableRecord
100
AcDbDimStyleTableRecord
  2
6
 70
     0
 41
3.5
 42
4.0
 44
4.0
 73
     0
 74
     0
 77
     1
140
3.5
172
     1
176
     3
177
     3
178
     3
271
     0
340
17
  0
DIMSTYLE
105
143
102
{ACAD_REACTORS
330
144
102
}
330
9
100
AcDbSymbolTableRecord
100
AcDbDimStyleTableRecord
  2
7
 70
     0
 41
3.5
 42
4.0
 44
4.0
 73
     0
 74
     0
 77
     1
140
3.5
172
     1
176
     3
177
     3
178
     3
271
     0
340
17
  0
DIMSTYLE
105
156
102
{ACAD_REACTORS
330
157
102
}
330
9
100
AcDbSymbolTableRecord
100
AcDbDimStyleTableRecord
  2
8
 70
     0
 41
3.5
 42
4.0
 44
4.0
 73
     0
 74
     0
 77
     1
140
3.5
172
     1
176
     3
177
     3
178
     3
271
     0
340
17
  0
DIMSTYLE
105
182
102
{ACAD_REACTORS
330
183
102
}
330
9
100
AcDbSymbolTableRecord
100
AcDbDimStyleTableRecord
  2
9
 70
     0
 41
3.5
 42
4.0
 44
4.0
 73
     0
 74
     0
 77
     1
140
3.5
172
     1
176
     3
177
     3
178
     3
271
     0
340
17
  0
DIMSTYLE
105
196
102
{ACAD_REACTORS
330
197
102
}
330
9
100
AcDbSymbolTableRecord
100
AcDbDimStyleTableRecord
  2
10
 70
     0
 41
3.5
 42
4.0
 44
4.0
 73
     0
 74
     0
 77
     1
140
3.5
172
     1
176
     3
177
     3
178
     3
271
     0
340
17
  0
DIMSTYLE
105
1AD
102
{ACAD_REACTORS
330
1AE
102
}
330
9
100
AcDbSymbolTableRecord
100
AcDbDimStyleTableRecord
  2
11
 70
     0
 41
3.5
 42
4.0
 44
4.0
 73
     0
 74
     0
 77
     1
140
3.5
172
     1
176
     3
177
     3
178
     3
271
     0
340
17
  0
DIMSTYLE
105
1C9
102
{ACAD_REACTORS
330
1CA
102
}
330
9
100
AcDbSymbolTableRecord
100
AcDbDimStyleTableRecord
  2
12
 70
     0
 41
3.5
 42
4.0
 44
4.0
 73
     0
 74
     0
 77
     1
140
3.5
172
     1
176
     3
177
     3
178
     3
271
     0
340
17
  0
DIMSTYLE
105
21C
102
{ACAD_REACTORS
330
21D
102
}
330
9
100
AcDbSymbolTableRecord
100
AcDbDimStyleTableRecord
  2
13
 70
     0
 41
3.5
 42
4.0
 44
4.0
 73
     0
 74
     0
 77
     1
140
3.5
172
     1
176
     3
177
     3
178
     3
271
     0
340
17
  0
DIMSTYLE
105
22E
102
{ACAD_REACTORS
330
22F
102
}
330
9
100
AcDbSymbolTableRecord
100
AcDbDimStyleTableRecord
  2
14
 70
     0
 41
3.5
 42
4.0
 44
4.0
 73
     0
 74
     0
 77
     1
140
3.5
172
     1
176
     3
177
     3
178
     3
271
     0
340
17
  0
DIMSTYLE
105
240
102
{ACAD_REACTORS
330
241
102
}
330
9
100
AcDbSymbolTableRecord
100
AcDbDimStyleTableRecord
  2
15
 70
     0
 41
3.5
 42
4.0
 44
4.0
 73
     0
 74
     0
 77
     1
140
3.5
172
     1
176
     3
177
     3
178
     3
271
     0
340
17
  0
DIMSTYLE
105
252
102
{ACAD_REACTORS
330
253
102
}
330
9
100
AcDbSymbolTableRecord
100
AcDbDimStyleTableRecord
  2
16
 70
     0
 41
3.5
 42
4.0
 44
4.0
 73
     0
 74
     0
 77
     1
140
3.5
172
     1
176
     3
177
     3
178
     3
271
     0
340
17
  0
DIMSTYLE
105
3C7
102
{ACAD_REACTORS
330
3C8
102
}
330
9
100
AcDbSymbolTableRecord
100
AcDbDimStyleTableRecord
  2
17
 70
     0
 41
3.5
 42
4.0
 44
4.0
 73
     0
 74
     0
 77
     1
140
3.5
172
     1
176
     3
177
     3
178
     3
271
     0
340
17
  0
DIMSTYLE
105
62C
102
{ACAD_REACTORS
330
62D
102
}
330
9
100
AcDbSymbolTableRecord
100
AcDbDimStyleTableRecord
  2
18
 70
     0
 41
3.5
 42
4.0
 44
4.0
 73
     0
 74
     0
 77
     1
140
3.5
172
     1
176
     3
177
     3
178
     3
271
     0
340
17
  0
DIMSTYLE
105
763
102
{ACAD_REACTORS
330
764
102
}
330
9
100
AcDbSymbolTableRecord
100
AcDbDimStyleTableRecord
  2
19
 70
     0
 41
3.5
 42
4.0
 44
4.0
 73
     0
 74
     0
 77
     1
140
3.5
172
     1
176
     3
177
     3
178
     3
271
     0
340
17
  0
ENDTAB
  0
TABLE
  2
BLOCK_RECORD
  5
1
330
0
100
AcDbSymbolTable
 70
    23
  0
BLOCK_RECORD
  5
A
330
1
100
AcDbSymbolTableRecord
100
AcDbBlockTableRecord
  2
*MODEL_SPACE
340
20
  0
BLOCK_RECORD
  5
B
330
1
100
AcDbSymbolTableRecord
100
AcDbBlockTableRecord
  2
*PAPER_SPACE
340
21
  0
BLOCK_RECORD
  5
55
330
1
100
AcDbSymbolTableRecord
100
AcDbBlockTableRecord
  2
*L00
340
0
102
{BLKREFS
331
5F
102
}
  0
BLOCK_RECORD
  5
62
330
1
100
AcDbSymbolTableRecord
100
AcDbBlockTableRecord
  2
*D1
340
0
  0
BLOCK_RECORD
  5
F0
330
1
100
AcDbSymbolTableRecord
100
AcDbBlockTableRecord
  2
*D2
340
0
  0
BLOCK_RECORD
  5
100
330
1
100
AcDbSymbolTableRecord
100
AcDbBlockTableRecord
  2
*D3
340
0
  0
BLOCK_RECORD
  5
110
330
1
100
AcDbSymbolTableRecord
100
AcDbBlockTableRecord
  2
*D4
340
0
  0
BLOCK_RECORD
  5
120
330
1
100
AcDbSymbolTableRecord
100
AcDbBlockTableRecord
  2
*D5
340
0
  0
BLOCK_RECORD
  5
135
330
1
100
AcDbSymbolTableRecord
100
AcDbBlockTableRecord
  2
*D6
340
0
  0
BLOCK_RECORD
  5
147
330
1
100
AcDbSymbolTableRecord
100
AcDbBlockTableRecord
  2
*D7
340
0
  0
BLOCK_RECORD
  5
174
330
1
100
AcDbSymbolTableRecord
100
AcDbBlockTableRecord
  2
*D8
340
0
  0
BLOCK_RECORD
  5
188
330
1
100
AcDbSymbolTableRecord
100
AcDbBlockTableRecord
  2
*D9
340
0
  0
BLOCK_RECORD
  5
19F
330
1
100
AcDbSymbolTableRecord
100
AcDbBlockTableRecord
  2
*D10
340
0
  0
BLOCK_RECORD
  5
1BB
330
1
100
AcDbSymbolTableRecord
100
AcDbBlockTableRecord
  2
*D11
340
0
  0
BLOCK_RECORD
  5
20D
330
1
100
AcDbSymbolTableRecord
100
AcDbBlockTableRecord
  2
*D12
340
0
  0
BLOCK_RECORD
  5
220
330
1
100
AcDbSymbolTableRecord
100
AcDbBlockTableRecord
  2
*D13
340
0
  0
BLOCK_RECORD
  5
232
330
1
100
AcDbSymbolTableRecord
100
AcDbBlockTableRecord
  2
*D14
340
0
  0
BLOCK_RECORD
  5
244
330
1
100
AcDbSymbolTableRecord
100
AcDbBlockTableRecord
  2
*D15
340
0
  0
BLOCK_RECORD
  5
3B9
330
1
100
AcDbSymbolTableRecord
100
AcDbBlockTableRecord
  2
*D16
340
0
  0
BLOCK_RECORD
  5
4E3
330
1
100
AcDbSymbolTableRecord
100
AcDbBlockTableRecord
  2
*H1717
340
0
  0
BLOCK_RECORD
  5
4EE
330
1
100
AcDbSymbolTableRecord
100
AcDbBlockTableRecord
  2
*H1818
340
0
  0
BLOCK_RECORD
  5
5B4
330
1
100
AcDbSymbolTableRecord
100
AcDbBlockTableRecord
  2
*H1919
340
0
  0
BLOCK_RECORD
  5
5BF
330
1
100
AcDbSymbolTableRecord
100
AcDbBlockTableRecord
  2
*H2020
340
0
  0
BLOCK_RECORD
  5
61E
330
1
100
AcDbSymbolTableRecord
100
AcDbBlockTableRecord
  2
*D21
340
0
  0
BLOCK_RECORD
  5
755
330
1
100
AcDbSymbolTableRecord
100
AcDbBlockTableRecord
  2
*D22
340
0
  0
ENDTAB
  0
ENDSEC
  0
SECTION
  2
BLOCKS
  0
BLOCK
  5
D
330
A
100
AcDbEntity
  8
0
100
AcDbBlockBegin
  2
*MODEL_SPACE
 70
     0
 10
0.0
 20
0.0
 30
0.0
  3
*MODEL_SPACE
  1

  0
ENDBLK
  5
E
330
A
100
AcDbEntity
  8
0
100
AcDbBlockEnd
  0
BLOCK
  5
F
330
B
100
AcDbEntity
 67
     1
  8
0
100
AcDbBlockBegin
  2
*PAPER_SPACE
 70
     0
 10
0.0
 20
0.0
 30
0.0
  3
*PAPER_SPACE
  1

  0
ENDBLK
  5
10
330
B
100
AcDbEntity
 67
     1
  8
0
100
AcDbBlockEnd
  0
BLOCK
  5
56
330
55
100
AcDbEntity
  8
0
100
AcDbBlockBegin
  2
*L00
 70
     0
 10
0.0
 20
0.0
 30
0.0
  3
*L00
  1

  0
LINE
  5
58
330
55
100
AcDbEntity
  8
1
  6
SOLID
 62
     3
100
AcDbLine
 10
396.336151123
 20
-1965.75390625
 30
0.0
 11
428.7777099609999
 21
-1901.260009766
 31
0.0
  0
LINE
  5
59
330
55
100
AcDbEntity
  8
1
  6
SOLID
 62
     3
100
AcDbLine
 10
399.641571045
 20
-1955.103393555
 30
0.0
 11
396.336151123
 21
-1965.75390625
 31
0.0
  0
LINE
  5
5A
330
55
100
AcDbEntity
  8
1
  6
SOLID
 62
     3
100
AcDbLine
 10
396.336151123
 20
-1965.75390625
 30
0.0
 11
402.9168396
 21
-1956.750854492
 31
0.0
  0
LINE
  5
5B
330
55
100
AcDbEntity
  8
1
  6
SOLID
 62
     3
100
AcDbLine
 10
402.9168396
 20
-1956.750854492
 30
0.0
 11
399.641571045
 21
-1955.103393555
 31
0.0
  0
TEXT
  5
5C
330
55
100
AcDbEntity
  8
1
  6
SOLID
 62
     3
100
AcDbText
 10
358.356506348
 20
-1895.614013672
 30
0.0
 40
11.0
  1
4xM16x40
 41
0.8216727258773788
 72
     5
 11
423.131706238
 21
-1895.614013672
 31
0.0
100
AcDbText
  0
LINE
  5
5D
330
55
100
AcDbEntity
  8
1
  6
SOLID
 62
     3
100
AcDbLine
 10
352.7105102540001
 20
-1901.260009766
 30
0.0
 11
428.7777099609999
 21
-1901.260009766
 31
0.0
  0
ENDBLK
  5
5E
330
55
100
AcDbEntity
  8
0
100
AcDbBlockEnd
  0
BLOCK
  5
63
330
62
100
AcDbEntity
  8
0
100
AcDbBlockBegin
  2
*D1
 70
     0
 10
0.0
 20
0.0
 30
0.0
  3
*D1
  1

  0
LINE
  5
64
330
62
100
AcDbEntity
  8
1
  6
SOLID
 62
     3
100
AcDbLine
 10
-200.25579834
 20
-1702.42565918
 30
0.0
 11
-200.25579834
 21
-1654.477783203
 31
0.0
  0
LINE
  5
65
330
62
100
AcDbEntity
  8
1
  6
SOLID
 62
     3
100
AcDbLine
 10
-80.25579834
 20
-1702.42565918
 30
0.0
 11
-80.25579834
 21
-1654.477783203
 31
0.0
  0
LINE
  5
66
330
62
100
AcDbEntity
  8
1
  6
SOLID
 62
     3
100
AcDbLine
 10
-200.25579834
 20
-1656.049194336
 30
0.0
 11
-80.25579834
 21
-1656.049194336
 31
0.0
  0
LINE
  5
67
330
62
100
AcDbEntity
  8
1
  6
SOLID
 62
     3
100
AcDbLine
 10
-189.25579834
 20
-1654.216064453
 30
0.0
 11
-200.25579834
 21
-1656.049194336
 31
0.0
  0
LINE
  5
68
330
62
100
AcDbEntity
  8
1
  6
SOLID
 62
     3
100
AcDbLine
 10
-200.25579834
 20
-1656.049194336
 30
0.0
 11
-189.25579834
 21
-1657.882324219
 31
0.0
  0
LINE
  5
69
330
62
100
AcDbEntity
  8
1
  6
SOLID
 62
     3
100
AcDbLine
 10
-189.25579834
 20
-1657.882324219
 30
0.0
 11
-189.25579834
 21
-1654.216064453
 31
0.0
  0
LINE
  5
6A
330
62
100
AcDbEntity
  8
1
  6
SOLID
 62
     3
100
AcDbLine
 10
-80.25579834
 20
-1656.049194336
 30
0.0
 11
-200.25579834
 21
-1656.049194336
 31
0.0
  0
LINE
  5
6B
330
62
100
AcDbEntity
  8
1
  6
SOLID
 62
     3
100
AcDbLine
 10
-91.25579833999999
 20
-1657.882324219
 30
0.0
 11
-80.25579834
 21
-1656.049194336
 31
0.0
  0
LINE
  5
6C
330
62
100
AcDbEntity
  8
1
  6
SOLID
 62
     3
100
AcDbLine
 10
-80.25579834
 20
-1656.049194336
 30
0.0
 11
-91.25579833999999
 21
-1654.216064453
 31
0.0
  0
LINE
  5
6D
330
62
100
AcDbEntity
  8
1
  6
SOLID
 62
     3
100
AcDbLine
 10
-91.25579833999999
 20
-1654.216064453
 30
0.0
 11
-91.25579833999999
 21
-1657.882324219
 31
0.0
  0
TEXT
  5
6E
330
62
100
AcDbEntity
  8
1
  6
SOLID
 62
     3
100
AcDbText
 10
-153.179107666
 20
-1650.549194336
 30
0.0
 40
11.0
  1
120
 41
1.084473349846153
 72
     5
 11
-127.332492828
 21
-1650.549194336
 31
0.0
100
AcDbText
  0
ENDBLK
  5
6F
330
62
100
AcDbEntity
  8
0
100
AcDbBlockEnd
  0
BLOCK
  5
F1
330
F0
100
AcDbEntity
  8
0
100
AcDbBlockBegin
  2
*D2
 70
     0
 10
0.0
 20
0.0
 30
0.0
  3
*D2
  1

  0
LINE
  5
F2
330
F0
100
AcDbEntity
  8
3
  6
SOLID
 62
     3
100
AcDbLine
 10
167.480957031
 20
-2008.970092773
 30
0.0
 11
167.480957031
 21
-2065.009521484
 31
0.0
  0
LINE
  5
F3
330
F0
100
AcDbEntity
  8
3
  6
SOLID
 62
     3
100
AcDbLine
 10
427.480957031
 20
-2008.970092773
 30
0.0
 11
427.480957031
 21
-2065.009521484
 31
0.0
  0
LINE
  5
F4
330
F0
100
AcDbEntity
  8
3
  6
SOLID
 62
     3
100
AcDbLine
 10
167.480957031
 20
-2062.036621094
 30
0.0
 11
427.480957031
 21
-2062.036621094
 31
0.0
  0
LINE
  5
F5
330
F0
100
AcDbEntity
  8
3
  6
SOLID
 62
     3
100
AcDbLine
 10
178.480957031
 20
-2060.203369141
 30
0.0
 11
167.480957031
 21
-2062.036621094
 31
0.0
  0
LINE
  5
F6
330
F0
100
AcDbEntity
  8
3
  6
SOLID
 62
     3
100
AcDbLine
 10
167.480957031
 20
-2062.036621094
 30
0.0
 11
178.480957031
 21
-2063.869873047
 31
0.0
  0
LINE
  5
F7
330
F0
100
AcDbEntity
  8
3
  6
SOLID
 62
     3
100
AcDbLine
 10
178.480957031
 20
-2063.869873047
 30
0.0
 11
178.480957031
 21
-2060.203369141
 31
0.0
  0
LINE
  5
F8
330
F0
100
AcDbEntity
  8
3
  6
SOLID
 62
     3
100
AcDbLine
 10
427.480957031
 20
-2062.036621094
 30
0.0
 11
167.480957031
 21
-2062.036621094
 31
0.0
  0
LINE
  5
F9
330
F0
100
AcDbEntity
  8
3
  6
SOLID
 62
     3
100
AcDbLine
 10
416.480957031
 20
-2063.869873047
 30
0.0
 11
427.480957031
 21
-2062.036621094
 31
0.0
  0
LINE
  5
FA
330
F0
100
AcDbEntity
  8
3
  6
SOLID
 62
     3
100
AcDbLine
 10
427.480957031
 20
-2062.036621094
 30
0.0
 11
416.480957031
 21
-2060.203369141
 31
0.0
  0
LINE
  5
FB
330
F0
100
AcDbEntity
  8
3
  6
SOLID
 62
     3
100
AcDbLine
 10
416.480957031
 20
-2060.203369141
 30
0.0
 11
416.480957031
 21
-2063.869873047
 31
0.0
  0
TEXT
  5
FC
330
F0
100
AcDbEntity
  8
3
  6
SOLID
 62
     3
100
AcDbText
 10
284.557647705
 20
-2056.536621094
 30
0.0
 40
11.0
  1
260
 41
0.9398769031999998
 72
     5
 11
310.404262543
 21
-2056.536621094
 31
0.0
100
AcDbText
  0
ENDBLK
  5
FD
330
F0
100
AcDbEntity
  8
0
100
AcDbBlockEnd
  0
BLOCK
  5
101
330
100
100
AcDbEntity
  8
0
100
AcDbBlockBegin
  2
*D3
 70
     0
 10
0.0
 20
0.0
 30
0.0
  3
*D3
  1

  0
LINE
  5
102
330
100
100
AcDbEntity
  8
3
  6
SOLID
 62
     3
100
AcDbLine
 10
197.4809570309999
 20
-2021.021362305
 30
0.0
 11
197.4809570309999
 21
-2043.009643555
 31
0.0
  0
LINE
  5
103
330
100
100
AcDbEntity
  8
3
  6
SOLID
 62
     3
100
AcDbLine
 10
397.480957031
 20
-2021.021362305
 30
0.0
 11
397.480957031
 21
-2043.009643555
 31
0.0
  0
LINE
  5
104
330
100
100
AcDbEntity
  8
3
  6
SOLID
 62
     3
100
AcDbLine
 10
197.4809570309999
 20
-2040.036621094
 30
0.0
 11
397.480957031
 21
-2040.036621094
 31
0.0
  0
LINE
  5
105
330
100
100
AcDbEntity
  8
3
  6
SOLID
 62
     3
100
AcDbLine
 10
208.480957031
 20
-2038.203491211
 30
0.0
 11
197.4809570309999
 21
-2040.036621094
 31
0.0
  0
LINE
  5
106
330
100
100
AcDbEntity
  8
3
  6
SOLID
 62
     3
100
AcDbLine
 10
197.4809570309999
 20
-2040.036621094
 30
0.0
 11
208.480957031
 21
-2041.869750977
 31
0.0
  0
LINE
  5
107
330
100
100
AcDbEntity
  8
3
  6
SOLID
 62
     3
100
AcDbLine
 10
208.480957031
 20
-2041.869750977
 30
0.0
 11
208.480957031
 21
-2038.203491211
 31
0.0
  0
LINE
  5
108
330
100
100
AcDbEntity
  8
3
  6
SOLID
 62
     3
100
AcDbLine
 10
397.480957031
 20
-2040.036621094
 30
0.0
 11
197.4809570309999
 21
-2040.036621094
 31
0.0
  0
LINE
  5
109
330
100
100
AcDbEntity
  8
3
  6
SOLID
 62
     3
100
AcDbLine
 10
386.480957031
 20
-2041.869750977
 30
0.0
 11
397.480957031
 21
-2040.036621094
 31
0.0
  0
LINE
  5
10A
330
100
100
AcDbEntity
  8
3
  6
SOLID
 62
     3
100
AcDbLine
 10
397.480957031
 20
-2040.036621094
 30
0.0
 11
386.480957031
 21
-2038.203491211
 31
0.0
  0
LINE
  5
10B
330
100
100
AcDbEntity
  8
3
  6
SOLID
 62
     3
100
AcDbLine
 10
386.480957031
 20
-2038.203491211
 30
0.0
 11
386.480957031
 21
-2041.869750977
 31
0.0
  0
TEXT
  5
10C
330
100
100
AcDbEntity
  8
3
  6
SOLID
 62
     3
100
AcDbText
 10
284.557647705
 20
-2034.536621094
 30
0.0
 40
11.0
  1
200
 41
1.007010967714285
 72
     5
 11
310.404262543
 21
-2034.536621094
 31
0.0
100
AcDbText
  0
ENDBLK
  5
10D
330
100
100
AcDbEntity
  8
0
100
AcDbBlockEnd
  0
BLOCK
  5
111
330
110
100
AcDbEntity
  8
0
100
AcDbBlockBegin
  2
*D4
 70
     0
 10
0.0
 20
0.0
 30
0.0
  3
*D4
  1

  0
LINE
  5
112
330
110
100
AcDbEntity
  8
3
  6
SOLID
 62
     3
100
AcDbLine
 10
227.480957031
 20
-2008.970092773
 30
0.0
 11
227.480957031
 21
-2021.009643555
 31
0.0
  0
LINE
  5
113
330
110
100
AcDbEntity
  8
3
  6
SOLID
 62
     3
100
AcDbLine
 10
367.480957031
 20
-2008.970092773
 30
0.0
 11
367.480957031
 21
-2021.009643555
 31
0.0
  0
LINE
  5
114
330
110
100
AcDbEntity
  8
3
  6
SOLID
 62
     3
100
AcDbLine
 10
227.480957031
 20
-2018.036621094
 30
0.0
 11
367.480957031
 21
-2018.036621094
 31
0.0
  0
LINE
  5
115
330
110
100
AcDbEntity
  8
3
  6
SOLID
 62
     3
100
AcDbLine
 10
238.480957031
 20
-2016.203491211
 30
0.0
 11
227.480957031
 21
-2018.036621094
 31
0.0
  0
LINE
  5
116
330
110
100
AcDbEntity
  8
3
  6
SOLID
 62
     3
100
AcDbLine
 10
227.480957031
 20
-2018.036621094
 30
0.0
 11
238.480957031
 21
-2019.869750977
 31
0.0
  0
LINE
  5
117
330
110
100
AcDbEntity
  8
3
  6
SOLID
 62
     3
100
AcDbLine
 10
238.480957031
 20
-2019.869750977
 30
0.0
 11
238.480957031
 21
-2016.203491211
 31
0.0
  0
LINE
  5
118
330
110
100
AcDbEntity
  8
3
  6
SOLID
 62
     3
100
AcDbLine
 10
367.480957031
 20
-2018.036621094
 30
0.0
 11
227.480957031
 21
-2018.036621094
 31
0.0
  0
LINE
  5
119
330
110
100
AcDbEntity
  8
3
  6
SOLID
 62
     3
100
AcDbLine
 10
356.480957031
 20
-2019.869750977
 30
0.0
 11
367.480957031
 21
-2018.036621094
 31
0.0
  0
LINE
  5
11A
330
110
100
AcDbEntity
  8
3
  6
SOLID
 62
     3
100
AcDbLine
 10
367.480957031
 20
-2018.036621094
 30
0.0
 11
356.480957031
 21
-2016.203491211
 31
0.0
  0
LINE
  5
11B
330
110
100
AcDbEntity
  8
3
  6
SOLID
 62
     3
100
AcDbLine
 10
356.480957031
 20
-2016.203491211
 30
0.0
 11
356.480957031
 21
-2019.869750977
 31
0.0
  0
TEXT
  5
11C
330
110
100
AcDbEntity
  8
3
  6
SOLID
 62
     3
100
AcDbText
 10
284.557647705
 20
-2012.536621094
 30
0.0
 40
11.0
  1
140
 41
1.084473349846153
 72
     5
 11
310.404262543
 21
-2012.536621094
 31
0.0
100
AcDbText
  0
ENDBLK
  5
11D
330
110
100
AcDbEntity
  8
0
100
AcDbBlockEnd
  0
BLOCK
  5
121
330
120
100
AcDbEntity
  8
0
100
AcDbBlockBegin
  2
*D5
 70
     0
 10
0.0
 20
0.0
 30
0.0
  3
*D5
  1

  0
LINE
  5
122
330
120
100
AcDbEntity
  8
3
  6
SOLID
 62
     3
100
AcDbLine
 10
426.4809570309999
 20
-2005.997070313
 30
0.0
 11
374.753417969
 21
-2005.997070313
 31
0.0
  0
LINE
  5
123
330
120
100
AcDbEntity
  8
3
  6
SOLID
 62
     3
100
AcDbLine
 10
417.483886719
 20
-1965.997070312999
 30
0.0
 11
374.753417969
 21
-1965.997070312999
 31
0.0
  0
LINE
  5
124
330
120
100
AcDbEntity
  8
3
  6
SOLID
 62
     3
100
AcDbLine
 10
375.753417969
 20
-2005.997070313
 30
0.0
 11
375.753417969
 21
-1965.997070312999
 31
0.0
  0
LINE
  5
125
330
120
100
AcDbEntity
  8
3
  6
SOLID
 62
     3
100
AcDbLine
 10
375.136810303
 20
-2002.297119141
 30
0.0
 11
375.753417969
 21
-2005.997070313
 31
0.0
  0
LINE
  5
126
330
120
100
AcDbEntity
  8
3
  6
SOLID
 62
     3
100
AcDbLine
 10
375.753417969
 20
-2005.997070313
 30
0.0
 11
376.370025635
 21
-2002.297119141
 31
0.0
  0
LINE
  5
127
330
120
100
AcDbEntity
  8
3
  6
SOLID
 62
     3
100
AcDbLine
 10
376.370025635
 20
-2002.297119141
 30
0.0
 11
375.136810303
 21
-2002.297119141
 31
0.0
  0
LINE
  5
128
330
120
100
AcDbEntity
  8
3
  6
SOLID
 62
     3
100
AcDbLine
 10
375.753417969
 20
-1965.997070312999
 30
0.0
 11
375.753417969
 21
-2005.997070313
 31
0.0
  0
LINE
  5
129
330
120
100
AcDbEntity
  8
3
  6
SOLID
 62
     3
100
AcDbLine
 10
376.370025635
 20
-1969.697021484
 30
0.0
 11
375.753417969
 21
-1965.997070312999
 31
0.0
  0
LINE
  5
12A
330
120
100
AcDbEntity
  8
3
  6
SOLID
 62
     3
100
AcDbLine
 10
375.753417969
 20
-1965.997070312999
 30
0.0
 11
375.136810303
 21
-1969.697021484
 31
0.0
  0
LINE
  5
12B
330
120
100
AcDbEntity
  8
3
  6
SOLID
 62
     3
100
AcDbLine
 10
375.136810303
 20
-1969.697021484
 30
0.0
 11
376.370025635
 21
-1969.697021484
 31
0.0
  0
TEXT
  5
12C
330
120
100
AcDbEntity
  8
3
  6
SOLID
 62
     3
100
AcDbText
 10
373.903411865
 20
-1988.710083007999
 30
0.0
 40
3.700000048
  1
40
 50
90.00000250264109
 41
0.9776409984882111
 72
     5
 11
373.903411628
 21
-1983.284175396
 31
0.0
100
AcDbText
  0
ENDBLK
  5
12D
330
120
100
AcDbEntity
  8
0
100
AcDbBlockEnd
  0
BLOCK
  5
136
330
135
100
AcDbEntity
  8
0
100
AcDbBlockBegin
  2
*D6
 70
     0
 10
0.0
 20
0.0
 30
0.0
  3
*D6
  1

  0
LINE
  5
137
330
135
100
AcDbEntity
  8
1
  6
SOLID
 62
     3
100
AcDbLine
 10
-518.25604248
 20
-2007.568481445
 30
0.0
 11
-518.25604248
 21
-2038.340454102
 31
0.0
  0
LINE
  5
138
330
135
100
AcDbEntity
  8
1
  6
SOLID
 62
     3
100
AcDbLine
 10
-468.256072998
 20
-2007.568481445
 30
0.0
 11
-468.256072998
 21
-2038.340454102
 31
0.0
  0
LINE
  5
139
330
135
100
AcDbEntity
  8
1
  6
SOLID
 62
     3
100
AcDbLine
 10
-518.25604248
 20
-2036.769042969
 30
0.0
 11
-468.256072998
 21
-2036.769042969
 31
0.0
  0
LINE
  5
13A
330
135
100
AcDbEntity
  8
1
  6
SOLID
 62
     3
100
AcDbLine
 10
-507.25604248
 20
-2034.935913086
 30
0.0
 11
-518.25604248
 21
-2036.769042969
 31
0.0
  0
LINE
  5
13B
330
135
100
AcDbEntity
  8
1
  6
SOLID
 62
     3
100
AcDbLine
 10
-518.25604248
 20
-2036.769042969
 30
0.0
 11
-507.25604248
 21
-2038.602172852
 31
0.0
  0
LINE
  5
13C
330
135
100
AcDbEntity
  8
1
  6
SOLID
 62
     3
100
AcDbLine
 10
-507.25604248
 20
-2038.602172852
 30
0.0
 11
-507.25604248
 21
-2034.935913086
 31
0.0
  0
LINE
  5
13D
330
135
100
AcDbEntity
  8
1
  6
SOLID
 62
     3
100
AcDbLine
 10
-468.256072998
 20
-2036.769042969
 30
0.0
 11
-518.25604248
 21
-2036.769042969
 31
0.0
  0
LINE
  5
13E
330
135
100
AcDbEntity
  8
1
  6
SOLID
 62
     3
100
AcDbLine
 10
-479.256072998
 20
-2038.602172852
 30
0.0
 11
-468.256072998
 21
-2036.769042969
 31
0.0
  0
LINE
  5
13F
330
135
100
AcDbEntity
  8
1
  6
SOLID
 62
     3
100
AcDbLine
 10
-468.256072998
 20
-2036.769042969
 30
0.0
 11
-479.256072998
 21
-2034.935913086
 31
0.0
  0
LINE
  5
140
330
135
100
AcDbEntity
  8
1
  6
SOLID
 62
     3
100
AcDbLine
 10
-479.256072998
 20
-2034.935913086
 30
0.0
 11
-479.256072998
 21
-2038.602172852
 31
0.0
  0
TEXT
  5
141
330
135
100
AcDbEntity
  8
1
  6
SOLID
 62
     3
100
AcDbText
 10
-491.0888061519999
 20
-2031.269042969
 30
0.0
 40
11.0
  1
50
 41
0.9776410189090876
 72
     5
 11
-474.95772934
 21
-2031.269042969
 31
0.0
100
AcDbText
  0
ENDBLK
  5
142
330
135
100
AcDbEntity
  8
0
100
AcDbBlockEnd
  0
BLOCK
  5
148
330
147
100
AcDbEntity
  8
0
100
AcDbBlockBegin
  2
*D7
 70
     0
 10
0.0
 20
0.0
 30
0.0
  3
*D7
  1

  0
LINE
  5
149
330
147
100
AcDbEntity
  8
1
  6
SOLID
 62
     3
100
AcDbLine
 10
-263.256103516
 20
-2007.568481445
 30
0.0
 11
-263.256103516
 21
-2033.4921875
 31
0.0
  0
LINE
  5
14A
330
147
100
AcDbEntity
  8
1
  6
SOLID
 62
     3
100
AcDbLine
 10
-213.256103516
 20
-2007.568481445
 30
0.0
 11
-213.256103516
 21
-2033.4921875
 31
0.0
  0
LINE
  5
14B
330
147
100
AcDbEntity
  8
1
  6
SOLID
 62
     3
100
AcDbLine
 10
-263.256103516
 20
-2031.920776367
 30
0.0
 11
-180.953216553
 21
-2031.920776367
 31
0.0
  0
LINE
  5
14C
330
147
100
AcDbEntity
  8
1
  6
SOLID
 62
     3
100
AcDbLine
 10
-252.256103516
 20
-2030.087646484
 30
0.0
 11
-263.256103516
 21
-2031.920776367
 31
0.0
  0
LINE
  5
14D
330
147
100
AcDbEntity
  8
1
  6
SOLID
 62
     3
100
AcDbLine
 10
-263.256103516
 20
-2031.920776367
 30
0.0
 11
-252.256103516
 21
-2033.75390625
 31
0.0
  0
LINE
  5
14E
330
147
100
AcDbEntity
  8
1
  6
SOLID
 62
     3
100
AcDbLine
 10
-252.256103516
 20
-2033.75390625
 30
0.0
 11
-252.256103516
 21
-2030.087646484
 31
0.0
  0
LINE
  5
14F
330
147
100
AcDbEntity
  8
1
  6
SOLID
 62
     3
100
AcDbLine
 10
-213.256103516
 20
-2031.920776367
 30
0.0
 11
-263.256103516
 21
-2031.920776367
 31
0.0
  0
LINE
  5
150
330
147
100
AcDbEntity
  8
1
  6
SOLID
 62
     3
100
AcDbLine
 10
-263.256103516
 20
-2031.920776367
 30
0.0
 11
-180.953216553
 21
-2031.920776367
 31
0.0
  0
LINE
  5
151
330
147
100
AcDbEntity
  8
1
  6
SOLID
 62
     3
100
AcDbLine
 10
-224.256103516
 20
-2033.75390625
 30
0.0
 11
-213.256103516
 21
-2031.920776367
 31
0.0
  0
LINE
  5
152
330
147
100
AcDbEntity
  8
1
  6
SOLID
 62
     3
100
AcDbLine
 10
-213.256103516
 20
-2031.920776367
 30
0.0
 11
-224.256103516
 21
-2030.087646484
 31
0.0
  0
LINE
  5
153
330
147
100
AcDbEntity
  8
1
  6
SOLID
 62
     3
100
AcDbLine
 10
-224.256103516
 20
-2030.087646484
 30
0.0
 11
-224.256103516
 21
-2033.75390625
 31
0.0
  0
TEXT
  5
154
330
147
100
AcDbEntity
  8
1
  6
SOLID
 62
     3
100
AcDbText
 10
-201.942611694
 20
-2026.420776367
 30
0.0
 40
11.0
  1
50
 41
0.9776410189090912
 72
     5
 11
-185.811534882
 21
-2026.420776367
 31
0.0
100
AcDbText
  0
ENDBLK
  5
155
330
147
100
AcDbEntity
  8
0
100
AcDbBlockEnd
  0
BLOCK
  5
175
330
174
100
AcDbEntity
  8
0
100
AcDbBlockBegin
  2
*D8
 70
     0
 10
0.0
 20
0.0
 30
0.0
  3
*D8
  1

  0
LINE
  5
176
330
174
100
AcDbEntity
  8
1
  6
SOLID
 62
     3
100
AcDbLine
 10
165.909896851
 20
-2005.996948242
 30
0.0
 11
121.793067932
 21
-2005.996948242
 31
0.0
  0
LINE
  5
177
330
174
100
AcDbEntity
  8
1
  6
SOLID
 62
     3
100
AcDbLine
 10
138.409896851
 20
-1959.996948242
 30
0.0
 11
121.793067932
 21
-1959.996948242
 31
0.0
  0
LINE
  5
178
330
174
100
AcDbEntity
  8
1
  6
SOLID
 62
     3
100
AcDbLine
 10
123.364494324
 20
-2005.996948242
 30
0.0
 11
123.364494324
 21
-1959.996948242
 31
0.0
  0
LINE
  5
179
330
174
100
AcDbEntity
  8
1
  6
SOLID
 62
     3
100
AcDbLine
 10
121.531341553
 20
-1994.996948242
 30
0.0
 11
123.364494324
 21
-2005.996948242
 31
0.0
  0
LINE
  5
17A
330
174
100
AcDbEntity
  8
1
  6
SOLID
 62
     3
100
AcDbLine
 10
123.364494324
 20
-2005.996948242
 30
0.0
 11
125.197647095
 21
-1994.996948242
 31
0.0
  0
LINE
  5
17B
330
174
100
AcDbEntity
  8
1
  6
SOLID
 62
     3
100
AcDbLine
 10
125.197647095
 20
-1994.996948242
 30
0.0
 11
121.531341553
 21
-1994.996948242
 31
0.0
  0
LINE
  5
17C
330
174
100
AcDbEntity
  8
1
  6
SOLID
 62
     3
100
AcDbLine
 10
123.364494324
 20
-1959.996948242
 30
0.0
 11
123.364494324
 21
-2005.996948242
 31
0.0
  0
LINE
  5
17D
330
174
100
AcDbEntity
  8
1
  6
SOLID
 62
     3
100
AcDbLine
 10
125.197647095
 20
-1970.996948242
 30
0.0
 11
123.364494324
 21
-1959.996948242
 31
0.0
  0
LINE
  5
17E
330
174
100
AcDbEntity
  8
1
  6
SOLID
 62
     3
100
AcDbLine
 10
123.364494324
 20
-1959.996948242
 30
0.0
 11
121.531341553
 21
-1970.996948242
 31
0.0
  0
LINE
  5
17F
330
174
100
AcDbEntity
  8
1
  6
SOLID
 62
     3
100
AcDbLine
 10
121.531341553
 20
-1970.996948242
 30
0.0
 11
125.197647095
 21
-1970.996948242
 31
0.0
  0
TEXT
  5
180
330
174
100
AcDbEntity
  8
1
  6
SOLID
 62
     3
100
AcDbText
 10
117.864494324
 20
-1991.521118164
 30
0.0
 40
11.0
  1
46
 50
90.00000250378844
 41
0.9299076773999962
 72
     5
 11
117.864493579
 21
-1974.472810745
 31
0.0
100
AcDbText
  0
ENDBLK
  5
181
330
174
100
AcDbEntity
  8
0
100
AcDbBlockEnd
  0
BLOCK
  5
189
330
188
100
AcDbEntity
  8
0
100
AcDbBlockBegin
  2
*D9
 70
     0
 10
0.0
 20
0.0
 30
0.0
  3
*D9
  1

  0
LINE
  5
18A
330
188
100
AcDbEntity
  8
1
  6
SOLID
 62
     3
100
AcDbLine
 10
138.409896851
 20
-1959.996948242
 30
0.0
 11
121.793067932
 21
-1959.996948242
 31
0.0
  0
LINE
  5
18B
330
188
100
AcDbEntity
  8
1
  6
SOLID
 62
     3
100
AcDbLine
 10
138.409896851
 20
-1679.996948242
 30
0.0
 11
121.793067932
 21
-1679.996948242
 31
0.0
  0
LINE
  5
18C
330
188
100
AcDbEntity
  8
1
  6
SOLID
 62
     3
100
AcDbLine
 10
123.364494324
 20
-1959.996948242
 30
0.0
 11
123.364494324
 21
-1679.996948242
 31
0.0
  0
LINE
  5
18D
330
188
100
AcDbEntity
  8
1
  6
SOLID
 62
     3
100
AcDbLine
 10
121.531341553
 20
-1948.996948242
 30
0.0
 11
123.364494324
 21
-1959.996948242
 31
0.0
  0
LINE
  5
18E
330
188
100
AcDbEntity
  8
1
  6
SOLID
 62
     3
100
AcDbLine
 10
123.364494324
 20
-1959.996948242
 30
0.0
 11
125.197647095
 21
-1948.996948242
 31
0.0
  0
LINE
  5
18F
330
188
100
AcDbEntity
  8
1
  6
SOLID
 62
     3
100
AcDbLine
 10
125.197647095
 20
-1948.996948242
 30
0.0
 11
121.531341553
 21
-1948.996948242
 31
0.0
  0
LINE
  5
190
330
188
100
AcDbEntity
  8
1
  6
SOLID
 62
     3
100
AcDbLine
 10
123.364494324
 20
-1679.996948242
 30
0.0
 11
123.364494324
 21
-1959.996948242
 31
0.0
  0
LINE
  5
191
330
188
100
AcDbEntity
  8
1
  6
SOLID
 62
     3
100
AcDbLine
 10
125.197647095
 20
-1690.996948242
 30
0.0
 11
123.364494324
 21
-1679.996948242
 31
0.0
  0
LINE
  5
192
330
188
100
AcDbEntity
  8
1
  6
SOLID
 62
     3
100
AcDbLine
 10
123.364494324
 20
-1679.996948242
 30
0.0
 11
121.531341553
 21
-1690.996948242
 31
0.0
  0
LINE
  5
193
330
188
100
AcDbEntity
  8
1
  6
SOLID
 62
     3
100
AcDbLine
 10
121.531341553
 20
-1690.996948242
 30
0.0
 11
125.197647095
 21
-1690.996948242
 31
0.0
  0
TEXT
  5
194
330
188
100
AcDbEntity
  8
1
  6
SOLID
 62
     3
100
AcDbText
 10
117.864494324
 20
-1832.920288086
 30
0.0
 40
11.0
  1
280
 50
90.00000250494043
 41
0.9398769032000029
 72
     5
 11
117.864493194
 21
-1807.073673248
 31
0.0
100
AcDbText
  0
ENDBLK
  5
195
330
188
100
AcDbEntity
  8
0
100
AcDbBlockEnd
  0
BLOCK
  5
1A0
330
19F
100
AcDbEntity
  8
0
100
AcDbBlockBegin
  2
*D10
 70
     0
 10
0.0
 20
0.0
 30
0.0
  3
*D10
  1

  0
LINE
  5
1A1
330
19F
100
AcDbEntity
  8
1
  6
SOLID
 62
     3
100
AcDbLine
 10
165.909896851
 20
-2005.996948242
 30
0.0
 11
95.214538574
 21
-2005.996948242
 31
0.0
  0
LINE
  5
1A2
330
19F
100
AcDbEntity
  8
1
  6
SOLID
 62
     3
100
AcDbLine
 10
138.409896851
 20
-1679.996948242
 30
0.0
 11
95.214538574
 21
-1679.996948242
 31
0.0
  0
LINE
  5
1A3
330
19F
100
AcDbEntity
  8
1
  6
SOLID
 62
     3
100
AcDbLine
 10
96.785964966
 20
-2005.996948242
 30
0.0
 11
96.785964966
 21
-1679.996948242
 31
0.0
  0
LINE
  5
1A4
330
19F
100
AcDbEntity
  8
1
  6
SOLID
 62
     3
100
AcDbLine
 10
94.952812195
 20
-1994.996948242
 30
0.0
 11
96.785964966
 21
-2005.996948242
 31
0.0
  0
LINE
  5
1A5
330
19F
100
AcDbEntity
  8
1
  6
SOLID
 62
     3
100
AcDbLine
 10
96.785964966
 20
-2005.996948242
 30
0.0
 11
98.61911773700001
 21
-1994.996948242
 31
0.0
  0
LINE
  5
1A6
330
19F
100
AcDbEntity
  8
1
  6
SOLID
 62
     3
100
AcDbLine
 10
98.61911773700001
 20
-1994.996948242
 30
0.0
 11
94.952812195
 21
-1994.996948242
 31
0.0
  0
LINE
  5
1A7
330
19F
100
AcDbEntity
  8
1
  6
SOLID
 62
     3
100
AcDbLine
 10
96.785964966
 20
-1679.996948242
 30
0.0
 11
96.785964966
 21
-2005.996948242
 31
0.0
  0
LINE
  5
1A8
330
19F
100
AcDbEntity
  8
1
  6
SOLID
 62
     3
100
AcDbLine
 10
98.61911773700001
 20
-1690.996948242
 30
0.0
 11
96.785964966
 21
-1679.996948242
 31
0.0
  0
LINE
  5
1A9
330
19F
100
AcDbEntity
  8
1
  6
SOLID
 62
     3
100
AcDbLine
 10
96.785964966
 20
-1679.996948242
 30
0.0
 11
94.952812195
 21
-1690.996948242
 31
0.0
  0
LINE
  5
1AA
330
19F
100
AcDbEntity
  8
1
  6
SOLID
 62
     3
100
AcDbLine
 10
94.952812195
 20
-1690.996948242
 30
0.0
 11
98.61911773700001
 21
-1690.996948242
 31
0.0
  0
TEXT
  5
1AB
330
19F
100
AcDbEntity
  8
1
  6
SOLID
 62
     3
100
AcDbText
 10
91.28596496600001
 20
-1856.37890625
 30
0.0
 40
11.0
  1
326
 50
90.0000025047246
 41
0.9124038219545472
 72
     5
 11
91.28596379600001
 21
-1829.615060806
 31
0.0
100
AcDbText
  0
ENDBLK
  5
1AC
330
19F
100
AcDbEntity
  8
0
100
AcDbBlockEnd
  0
BLOCK
  5
1BC
330
1BB
100
AcDbEntity
  8
0
100
AcDbBlockBegin
  2
*D11
 70
     0
 10
0.0
 20
0.0
 30
0.0
  3
*D11
  1

  0
LINE
  5
1BD
330
1BB
100
AcDbEntity
  8
1
  6
SOLID
 62
     3
100
AcDbLine
 10
139.981323242
 20
-1961.568359375
 30
0.0
 11
139.981323242
 21
-2085.608154297
 31
0.0
  0
LINE
  5
1BE
330
1BB
100
AcDbEntity
  8
1
  6
SOLID
 62
     3
100
AcDbLine
 10
454.981323242
 20
-1961.568359375
 30
0.0
 11
454.981323242
 21
-2085.608154297
 31
0.0
  0
LINE
  5
1BF
330
1BB
100
AcDbEntity
  8
1
  6
SOLID
 62
     3
100
AcDbLine
 10
139.981323242
 20
-2084.036621094
 30
0.0
 11
454.981323242
 21
-2084.036621094
 31
0.0
  0
LINE
  5
1C0
330
1BB
100
AcDbEntity
  8
1
  6
SOLID
 62
     3
100
AcDbLine
 10
150.981323242
 20
-2082.203369141
 30
0.0
 11
139.981323242
 21
-2084.036621094
 31
0.0
  0
LINE
  5
1C1
330
1BB
100
AcDbEntity
  8
1
  6
SOLID
 62
     3
100
AcDbLine
 10
139.981323242
 20
-2084.036621094
 30
0.0
 11
150.981323242
 21
-2085.869873047
 31
0.0
  0
LINE
  5
1C2
330
1BB
100
AcDbEntity
  8
1
  6
SOLID
 62
     3
100
AcDbLine
 10
150.981323242
 20
-2085.869873047
 30
0.0
 11
150.981323242
 21
-2082.203369141
 31
0.0
  0
LINE
  5
1C3
330
1BB
100
AcDbEntity
  8
1
  6
SOLID
 62
     3
100
AcDbLine
 10
454.981323242
 20
-2084.036621094
 30
0.0
 11
139.981323242
 21
-2084.036621094
 31
0.0
  0
LINE
  5
1C4
330
1BB
100
AcDbEntity
  8
1
  6
SOLID
 62
     3
100
AcDbLine
 10
443.9813232419999
 20
-2085.869873047
 30
0.0
 11
454.981323242
 21
-2084.036621094
 31
0.0
  0
LINE
  5
1C5
330
1BB
100
AcDbEntity
  8
1
  6
SOLID
 62
     3
100
AcDbLine
 10
454.981323242
 20
-2084.036621094
 30
0.0
 11
443.9813232419999
 21
-2082.203369141
 31
0.0
  0
LINE
  5
1C6
330
1BB
100
AcDbEntity
  8
1
  6
SOLID
 62
     3
100
AcDbLine
 10
443.9813232419999
 20
-2082.203369141
 30
0.0
 11
443.9813232419999
 21
-2085.869873047
 31
0.0
  0
TEXT
  5
1C7
330
1BB
100
AcDbEntity
  8
1
  6
SOLID
 62
     3
100
AcDbText
 10
284.558013916
 20
-2078.536621094
 30
0.0
 40
11.0
  1
320
 41
0.939876903200002
 72
     5
 11
310.4046287540001
 21
-2078.536621094
 31
0.0
100
AcDbText
  0
ENDBLK
  5
1C8
330
1BB
100
AcDbEntity
  8
0
100
AcDbBlockEnd
  0
BLOCK
  5
20E
330
20D
100
AcDbEntity
  8
0
100
AcDbBlockBegin
  2
*D12
 70
     0
 10
0.0
 20
0.0
 30
0.0
  3
*D12
  1

  0
LINE
  5
20F
330
20D
100
AcDbEntity
  8
1
  6
SOLID
 62
     3
100
AcDbLine
 10
-78.68437194800001
 20
-1947.997070313
 30
0.0
 11
-20.680547714
 21
-1947.997070313
 31
0.0
  0
LINE
  5
210
330
20D
100
AcDbEntity
  8
1
  6
SOLID
 62
     3
100
AcDbLine
 10
-78.68437194800001
 20
-1703.997070313
 30
0.0
 11
-20.680547714
 21
-1703.997070313
 31
0.0
  0
LINE
  5
211
330
20D
100
AcDbEntity
  8
1
  6
SOLID
 62
     3
100
AcDbLine
 10
-22.251976013
 20
-1947.997070313
 30
0.0
 11
-22.251976013
 21
-1703.997070313
 31
0.0
  0
LINE
  5
212
330
20D
100
AcDbEntity
  8
1
  6
SOLID
 62
     3
100
AcDbLine
 10
-24.085124969
 20
-1936.997070312999
 30
0.0
 11
-22.251976013
 21
-1947.997070313
 31
0.0
  0
LINE
  5
213
330
20D
100
AcDbEntity
  8
1
  6
SOLID
 62
     3
100
AcDbLine
 10
-22.251976013
 20
-1947.997070313
 30
0.0
 11
-20.418827057
 21
-1936.997070312999
 31
0.0
  0
LINE
  5
214
330
20D
100
AcDbEntity
  8
1
  6
SOLID
 62
     3
100
AcDbLine
 10
-20.418827057
 20
-1936.997070312999
 30
0.0
 11
-24.085124969
 21
-1936.997070312999
 31
0.0
  0
LINE
  5
215
330
20D
100
AcDbEntity
  8
1
  6
SOLID
 62
     3
100
AcDbLine
 10
-22.251976013
 20
-1703.997070313
 30
0.0
 11
-22.251976013
 21
-1947.997070313
 31
0.0
  0
LINE
  5
216
330
20D
100
AcDbEntity
  8
1
  6
SOLID
 62
     3
100
AcDbLine
 10
-20.418827057
 20
-1714.997070313
 30
0.0
 11
-22.251976013
 21
-1703.997070313
 31
0.0
  0
LINE
  5
217
330
20D
100
AcDbEntity
  8
1
  6
SOLID
 62
     3
100
AcDbLine
 10
-22.251976013
 20
-1703.997070313
 30
0.0
 11
-24.085124969
 21
-1714.997070313
 31
0.0
  0
LINE
  5
218
330
20D
100
AcDbEntity
  8
1
  6
SOLID
 62
     3
100
AcDbLine
 10
-24.085124969
 20
-1714.997070313
 30
0.0
 11
-20.418827057
 21
-1714.997070313
 31
0.0
  0
TEXT
  5
219
330
20D
100
AcDbEntity
  8
1
  6
SOLID
 62
     3
100
AcDbText
 10
-27.751976013
 20
-1863.209838867
 30
0.0
 40
11.0
  1
%%c
 50
90.00000250818557
 41
0.9999230341363738
 72
     5
 11
-27.751976334
 21
-1855.87706995
 31
0.0
100
AcDbText
  0
TEXT
  5
21A
330
20D
100
AcDbEntity
  8
1
  6
SOLID
 62
     3
100
AcDbText
 10
-27.751976013
 20
-1850.193115234
 30
0.0
 40
11.0
  1
210/240
 50
90.00000250491202
 41
0.9804358048787845
 72
     5
 11
-27.751978842
 21
-1785.484352112
 31
0.0
100
AcDbText
  0
ENDBLK
  5
21B
330
20D
100
AcDbEntity
  8
0
100
AcDbBlockEnd
  0
BLOCK
  5
221
330
220
100
AcDbEntity
  8
0
100
AcDbBlockBegin
  2
*D13
 70
     0
 10
0.0
 20
0.0
 30
0.0
  3
*D13
  1

  0
LINE
  5
222
330
220
100
AcDbEntity
  8
1
  6
SOLID
 62
     3
100
AcDbLine
 10
-140.25579834
 20
-1949.568481445
 30
0.0
 11
-140.25579834
 21
-2063.708251953
 31
0.0
  0
LINE
  5
223
330
220
100
AcDbEntity
  8
1
  6
SOLID
 62
     3
100
AcDbLine
 10
-80.25579834
 20
-1848.088256836
 30
0.0
 11
-80.25579834
 21
-2063.708251953
 31
0.0
  0
LINE
  5
224
330
220
100
AcDbEntity
  8
1
  6
SOLID
 62
     3
100
AcDbLine
 10
-140.25579834
 20
-2062.13671875
 30
0.0
 11
-80.25579834
 21
-2062.13671875
 31
0.0
  0
LINE
  5
225
330
220
100
AcDbEntity
  8
1
  6
SOLID
 62
     3
100
AcDbLine
 10
-129.25579834
 20
-2060.303466797
 30
0.0
 11
-140.25579834
 21
-2062.13671875
 31
0.0
  0
LINE
  5
226
330
220
100
AcDbEntity
  8
1
  6
SOLID
 62
     3
100
AcDbLine
 10
-140.25579834
 20
-2062.13671875
 30
0.0
 11
-129.25579834
 21
-2063.969970703
 31
0.0
  0
LINE
  5
227
330
220
100
AcDbEntity
  8
1
  6
SOLID
 62
     3
100
AcDbLine
 10
-129.25579834
 20
-2063.969970703
 30
0.0
 11
-129.25579834
 21
-2060.303466797
 31
0.0
  0
LINE
  5
228
330
220
100
AcDbEntity
  8
1
  6
SOLID
 62
     3
100
AcDbLine
 10
-80.25579834
 20
-2062.13671875
 30
0.0
 11
-140.25579834
 21
-2062.13671875
 31
0.0
  0
LINE
  5
229
330
220
100
AcDbEntity
  8
1
  6
SOLID
 62
     3
100
AcDbLine
 10
-91.25579833999999
 20
-2063.969970703
 30
0.0
 11
-80.25579834
 21
-2062.13671875
 31
0.0
  0
LINE
  5
22A
330
220
100
AcDbEntity
  8
1
  6
SOLID
 62
     3
100
AcDbLine
 10
-80.25579834
 20
-2062.13671875
 30
0.0
 11
-91.25579833999999
 21
-2060.303466797
 31
0.0
  0
LINE
  5
22B
330
220
100
AcDbEntity
  8
1
  6
SOLID
 62
     3
100
AcDbLine
 10
-91.25579833999999
 20
-2060.303466797
 30
0.0
 11
-91.25579833999999
 21
-2063.969970703
 31
0.0
  0
TEXT
  5
22C
330
220
100
AcDbEntity
  8
1
  6
SOLID
 62
     3
100
AcDbText
 10
-118.321334839
 20
-2056.63671875
 30
0.0
 40
11.0
  1
60
 41
0.9776410189696965
 72
     5
 11
-102.190258026
 21
-2056.63671875
 31
0.0
100
AcDbText
  0
ENDBLK
  5
22D
330
220
100
AcDbEntity
  8
0
100
AcDbBlockEnd
  0
BLOCK
  5
233
330
232
100
AcDbEntity
  8
0
100
AcDbBlockBegin
  2
*D14
 70
     0
 10
0.0
 20
0.0
 30
0.0
  3
*D14
  1

  0
LINE
  5
234
330
232
100
AcDbEntity
  8
1
  6
SOLID
 62
     3
100
AcDbLine
 10
-519.8274536129999
 20
-2005.997070313
 30
0.0
 11
-709.368225098
 21
-2005.997070313
 31
0.0
  0
LINE
  5
235
330
232
100
AcDbEntity
  8
1
  6
SOLID
 62
     3
100
AcDbLine
 10
-514.827514648
 20
-1560.997192383
 30
0.0
 11
-709.368225098
 21
-1560.997192383
 31
0.0
  0
LINE
  5
236
330
232
100
AcDbEntity
  8
1
  6
SOLID
 62
     3
100
AcDbLine
 10
-707.7968139649999
 20
-2005.997070313
 30
0.0
 11
-707.7968139649999
 21
-1560.997192383
 31
0.0
  0
LINE
  5
237
330
232
100
AcDbEntity
  8
1
  6
SOLID
 62
     3
100
AcDbLine
 10
-709.629943848
 20
-1994.997070313
 30
0.0
 11
-707.7968139649999
 21
-2005.997070313
 31
0.0
  0
LINE
  5
238
330
232
100
AcDbEntity
  8
1
  6
SOLID
 62
     3
100
AcDbLine
 10
-707.7968139649999
 20
-2005.997070313
 30
0.0
 11
-705.9636840819999
 21
-1994.997070313
 31
0.0
  0
LINE
  5
239
330
232
100
AcDbEntity
  8
1
  6
SOLID
 62
     3
100
AcDbLine
 10
-705.9636840819999
 20
-1994.997070313
 30
0.0
 11
-709.629943848
 21
-1994.997070313
 31
0.0
  0
LINE
  5
23A
330
232
100
AcDbEntity
  8
1
  6
SOLID
 62
     3
100
AcDbLine
 10
-707.7968139649999
 20
-1560.997192383
 30
0.0
 11
-707.7968139649999
 21
-2005.997070313
 31
0.0
  0
LINE
  5
23B
330
232
100
AcDbEntity
  8
1
  6
SOLID
 62
     3
100
AcDbLine
 10
-705.9636840819999
 20
-1571.997192383
 30
0.0
 11
-707.7968139649999
 21
-1560.997192383
 31
0.0
  0
LINE
  5
23C
330
232
100
AcDbEntity
  8
1
  6
SOLID
 62
     3
100
AcDbLine
 10
-707.7968139649999
 20
-1560.997192383
 30
0.0
 11
-709.629943848
 21
-1571.997192383
 31
0.0
  0
LINE
  5
23D
330
232
100
AcDbEntity
  8
1
  6
SOLID
 62
     3
100
AcDbLine
 10
-709.629943848
 20
-1571.997192383
 30
0.0
 11
-705.9636840819999
 21
-1571.997192383
 31
0.0
  0
TEXT
  5
23E
330
232
100
AcDbEntity
  8
1
  6
SOLID
 62
     3
100
AcDbText
 10
-713.2968139649999
 20
-1796.420410156
 30
0.0
 40
11.0
  1
445
 50
90.00000250494066
 41
0.8811345967159198
 72
     5
 11
-713.296815095
 21
-1770.573795319
 31
0.0
100
AcDbText
  0
ENDBLK
  5
23F
330
232
100
AcDbEntity
  8
0
100
AcDbBlockEnd
  0
BLOCK
  5
245
330
244
100
AcDbEntity
  8
0
100
AcDbBlockBegin
  2
*D15
 70
     0
 10
0.0
 20
0.0
 30
0.0
  3
*D15
  1

  0
LINE
  5
246
330
244
100
AcDbEntity
  8
1
  6
SOLID
 62
     3
100
AcDbLine
 10
-236.256103516
 20
-2007.568481445
 30
0.0
 11
-236.256103516
 21
-2063.808105469
 31
0.0
  0
LINE
  5
247
330
244
100
AcDbEntity
  8
1
  6
SOLID
 62
     3
100
AcDbLine
 10
-140.25579834
 20
-1848.088256836
 30
0.0
 11
-140.25579834
 21
-2063.808105469
 31
0.0
  0
LINE
  5
248
330
244
100
AcDbEntity
  8
1
  6
SOLID
 62
     3
100
AcDbLine
 10
-236.256103516
 20
-2062.236572266
 30
0.0
 11
-140.25579834
 21
-2062.236572266
 31
0.0
  0
LINE
  5
249
330
244
100
AcDbEntity
  8
1
  6
SOLID
 62
     3
100
AcDbLine
 10
-225.256103516
 20
-2060.403320313
 30
0.0
 11
-236.256103516
 21
-2062.236572266
 31
0.0
  0
LINE
  5
24A
330
244
100
AcDbEntity
  8
1
  6
SOLID
 62
     3
100
AcDbLine
 10
-236.256103516
 20
-2062.236572266
 30
0.0
 11
-225.256103516
 21
-2064.069824219
 31
0.0
  0
LINE
  5
24B
330
244
100
AcDbEntity
  8
1
  6
SOLID
 62
     3
100
AcDbLine
 10
-225.256103516
 20
-2064.069824219
 30
0.0
 11
-225.256103516
 21
-2060.403320313
 31
0.0
  0
LINE
  5
24C
330
244
100
AcDbEntity
  8
1
  6
SOLID
 62
     3
100
AcDbLine
 10
-140.25579834
 20
-2062.236572266
 30
0.0
 11
-236.256103516
 21
-2062.236572266
 31
0.0
  0
LINE
  5
24D
330
244
100
AcDbEntity
  8
1
  6
SOLID
 62
     3
100
AcDbLine
 10
-151.25579834
 20
-2064.069824219
 30
0.0
 11
-140.25579834
 21
-2062.236572266
 31
0.0
  0
LINE
  5
24E
330
244
100
AcDbEntity
  8
1
  6
SOLID
 62
     3
100
AcDbLine
 10
-140.25579834
 20
-2062.236572266
 30
0.0
 11
-151.25579834
 21
-2060.403320313
 31
0.0
  0
LINE
  5
24F
330
244
100
AcDbEntity
  8
1
  6
SOLID
 62
     3
100
AcDbLine
 10
-151.25579834
 20
-2060.403320313
 30
0.0
 11
-151.25579834
 21
-2064.069824219
 31
0.0
  0
TEXT
  5
250
330
244
100
AcDbEntity
  8
1
  6
SOLID
 62
     3
100
AcDbText
 10
-196.780105591
 20
-2056.736572266
 30
0.0
 40
11.0
  1
96
 41
0.9299076773999999
 72
     5
 11
-179.731798172
 21
-2056.736572266
 31
0.0
100
AcDbText
  0
ENDBLK
  5
251
330
244
100
AcDbEntity
  8
0
100
AcDbBlockEnd
  0
BLOCK
  5
3BA
330
3B9
100
AcDbEntity
  8
0
100
AcDbBlockBegin
  2
*D16
 70
     0
 10
0.0
 20
0.0
 30
0.0
  3
*D16
  1

  0
LINE
  5
3BB
330
3B9
100
AcDbEntity
  8
1
  6
SOLID
 62
     3
100
AcDbLine
 10
-651.176147461
 20
-1821.186523438
 30
0.0
 11
-651.176147461
 21
-1533.40222168
 31
0.0
  0
LINE
  5
3BC
330
3B9
100
AcDbEntity
  8
1
  6
SOLID
 62
     3
100
AcDbLine
 10
-80.25579834
 20
-1702.997070312999
 30
0.0
 11
-80.25579834
 21
-1533.40222168
 31
0.0
  0
LINE
  5
3BD
330
3B9
100
AcDbEntity
  8
1
  6
SOLID
 62
     3
100
AcDbLine
 10
-651.176147461
 20
-1534.40222168
 30
0.0
 11
-80.25579834
 21
-1534.40222168
 31
0.0
  0
LINE
  5
3BE
330
3B9
100
AcDbEntity
  8
1
  6
SOLID
 62
     3
100
AcDbLine
 10
-640.176147461
 20
-1532.569091797
 30
0.0
 11
-651.176147461
 21
-1534.40222168
 31
0.0
  0
LINE
  5
3BF
330
3B9
100
AcDbEntity
  8
1
  6
SOLID
 62
     3
100
AcDbLine
 10
-651.176147461
 20
-1534.40222168
 30
0.0
 11
-640.176147461
 21
-1536.235351563
 31
0.0
  0
LINE
  5
3C0
330
3B9
100
AcDbEntity
  8
1
  6
SOLID
 62
     3
100
AcDbLine
 10
-640.176147461
 20
-1536.235351563
 30
0.0
 11
-640.176147461
 21
-1532.569091797
 31
0.0
  0
LINE
  5
3C1
330
3B9
100
AcDbEntity
  8
1
  6
SOLID
 62
     3
100
AcDbLine
 10
-80.25579834
 20
-1534.40222168
 30
0.0
 11
-651.176147461
 21
-1534.40222168
 31
0.0
  0
LINE
  5
3C2
330
3B9
100
AcDbEntity
  8
1
  6
SOLID
 62
     3
100
AcDbLine
 10
-91.25579833999999
 20
-1536.235351563
 30
0.0
 11
-80.25579834
 21
-1534.40222168
 31
0.0
  0
LINE
  5
3C3
330
3B9
100
AcDbEntity
  8
1
  6
SOLID
 62
     3
100
AcDbLine
 10
-80.25579834
 20
-1534.40222168
 30
0.0
 11
-91.25579833999999
 21
-1532.569091797
 31
0.0
  0
LINE
  5
3C4
330
3B9
100
AcDbEntity
  8
1
  6
SOLID
 62
     3
100
AcDbLine
 10
-91.25579833999999
 20
-1532.569091797
 30
0.0
 11
-91.25579833999999
 21
-1536.235351563
 31
0.0
  0
TEXT
  5
3C5
330
3B9
100
AcDbEntity
  8
1
  6
SOLID
 62
     3
100
AcDbText
 10
-378.639282227
 20
-1528.90222168
 30
0.0
 40
11.0
  1
570
 41
0.9398769031999979
 72
     5
 11
-352.7926673890001
 21
-1528.90222168
 31
0.0
100
AcDbText
  0
ENDBLK
  5
3C6
330
3B9
100
AcDbEntity
  8
0
100
AcDbBlockEnd
  0
BLOCK
  5
4E4
330
4E3
100
AcDbEntity
  8
0
100
AcDbBlockBegin
  2
*H1717
 70
     0
 10
0.0
 20
0.0
 30
0.0
  3
*H1717
  1

  0
LINE
  5
4E5
330
4E3
100
AcDbEntity
  8
0
  6
SOLID
 62
     1
100
AcDbLine
 10
-6179.377929688
 20
2967.010742188
 30
0.0
 11
-6175.678710938001
 21
2963.311523438
 31
0.0
  0
LINE
  5
4E6
330
4E3
100
AcDbEntity
  8
0
  6
SOLID
 62
     1
100
AcDbLine
 10
-6174.131347656
 20
2965.298828125
 30
0.0
 11
-6177.4296875
 21
2968.59765625
 31
0.0
  0
LINE
  5
4E7
330
4E3
100
AcDbEntity
  8
0
  6
SOLID
 62
     1
100
AcDbLine
 10
-6177.5
 20
2972.204101563
 30
0.0
 11
-6173.358398438001
 21
2968.061523438
 31
0.0
  0
LINE
  5
4E8
330
4E3
100
AcDbEntity
  8
0
  6
SOLID
 62
     1
100
AcDbLine
 10
-6170.071289063
 20
2968.310546875
 30
0.0
 11
-6174.310546875
 21
2972.549804688
 31
0.0
  0
LINE
  5
4E9
330
4E3
100
AcDbEntity
  8
0
  6
SOLID
 62
     1
100
AcDbLine
 10
-6170.775878906
 20
2972.55078125
 30
0.0
 11
-6166.536132813
 21
2968.310546875
 31
0.0
  0
LINE
  5
4EA
330
4E3
100
AcDbEntity
  8
0
  6
SOLID
 62
     1
100
AcDbLine
 10
-6163.000488280999
 20
2968.310546875
 30
0.0
 11
-6167.240234375
 21
2972.55078125
 31
0.0
  0
LINE
  5
4EB
330
4E3
100
AcDbEntity
  8
0
  6
SOLID
 62
     1
100
AcDbLine
 10
-6163.704589844
 20
2972.55078125
 30
0.0
 11
-6160.192871094
 21
2969.038085938
 31
0.0
  0
ENDBLK
  5
4EC
330
4E3
100
AcDbEntity
  8
0
100
AcDbBlockEnd
  0
BLOCK
  5
4EF
330
4EE
100
AcDbEntity
  8
0
100
AcDbBlockBegin
  2
*H1818
 70
     0
 10
0.0
 20
0.0
 30
0.0
  3
*H1818
  1

  0
LINE
  5
4F0
330
4EE
100
AcDbEntity
  8
0
  6
SOLID
 62
     1
100
AcDbLine
 10
-6179.254882813
 20
2956.280273438
 30
0.0
 11
-6177.044433594001
 21
2954.0703125
 31
0.0
  0
LINE
  5
4F1
330
4EE
100
AcDbEntity
  8
0
  6
SOLID
 62
     1
100
AcDbLine
 10
-6173.508789063
 20
2954.0703125
 30
0.0
 11
-6178.178222656
 21
2958.739257813
 31
0.0
  0
LINE
  5
4F2
330
4EE
100
AcDbEntity
  8
0
  6
SOLID
 62
     1
100
AcDbLine
 10
-6178.526855469
 20
2962.624023438
 30
0.0
 11
-6169.973632813
 21
2954.0703125
 31
0.0
  0
LINE
  5
4F3
330
4EE
100
AcDbEntity
  8
0
  6
SOLID
 62
     1
100
AcDbLine
 10
-6166.437988281
 20
2954.0703125
 30
0.0
 11
-6170.678710938
 21
2958.310546875
 31
0.0
  0
LINE
  5
4F4
330
4EE
100
AcDbEntity
  8
0
  6
SOLID
 62
     1
100
AcDbLine
 10
-6174.130371094
 20
2961.762695313
 30
0.0
 11
-6175.678710938001
 21
2963.311523438
 31
0.0
  0
LINE
  5
4F5
330
4EE
100
AcDbEntity
  8
0
  6
SOLID
 62
     1
100
AcDbLine
 10
-6167.143066406
 20
2958.310546875
 30
0.0
 11
-6162.90234375
 21
2954.0703125
 31
0.0
  0
LINE
  5
4F6
330
4EE
100
AcDbEntity
  8
0
  6
SOLID
 62
     1
100
AcDbLine
 10
-6160.271972656
 20
2954.975585938
 30
0.0
 11
-6163.607421875
 21
2958.310546875
 31
0.0
  0
ENDBLK
  5
4F7
330
4EE
100
AcDbEntity
  8
0
100
AcDbBlockEnd
  0
BLOCK
  5
5B5
330
5B4
100
AcDbEntity
  8
0
100
AcDbBlockBegin
  2
*H1919
 70
     0
 10
0.0
 20
0.0
 30
0.0
  3
*H1919
  1

  0
LINE
  5
5B6
330
5B4
100
AcDbEntity
  8
0
  6
SOLID
 62
     1
100
AcDbLine
 10
-7033.385742187999
 20
3208.103515625
 30
0.0
 11
-7029.686523438001
 21
3204.404296875
 31
0.0
  0
LINE
  5
5B7
330
5B4
100
AcDbEntity
  8
0
  6
SOLID
 62
     1
100
AcDbLine
 10
-7028.139648438001
 20
3206.392578125
 30
0.0
 11
-7031.4375
 21
3209.69140625
 31
0.0
  0
LINE
  5
5B8
330
5B4
100
AcDbEntity
  8
0
  6
SOLID
 62
     1
100
AcDbLine
 10
-7031.5078125
 20
3213.296875000001
 30
0.0
 11
-7027.366210938
 21
3209.155273438
 31
0.0
  0
LINE
  5
5B9
330
5B4
100
AcDbEntity
  8
0
  6
SOLID
 62
     1
100
AcDbLine
 10
-7024.079101563001
 20
3209.404296875
 30
0.0
 11
-7028.318359374999
 21
3213.642578125
 31
0.0
  0
LINE
  5
5BA
330
5B4
100
AcDbEntity
  8
0
  6
SOLID
 62
     1
100
AcDbLine
 10
-7024.784179688001
 20
3213.643554688
 30
0.0
 11
-7020.543945313
 21
3209.404296875
 31
0.0
  0
LINE
  5
5BB
330
5B4
100
AcDbEntity
  8
0
  6
SOLID
 62
     1
100
AcDbLine
 10
-7017.008789063
 20
3209.404296875
 30
0.0
 11
-7021.248046875
 21
3213.643554688
 31
0.0
  0
LINE
  5
5BC
330
5B4
100
AcDbEntity
  8
0
  6
SOLID
 62
     1
100
AcDbLine
 10
-7017.712890625
 20
3213.643554688
 30
0.0
 11
-7014.201171875
 21
3210.131835938
 31
0.0
  0
ENDBLK
  5
5BD
330
5B4
100
AcDbEntity
  8
0
100
AcDbBlockEnd
  0
BLOCK
  5
5C0
330
5BF
100
AcDbEntity
  8
0
100
AcDbBlockBegin
  2
*H2020
 70
     0
 10
0.0
 20
0.0
 30
0.0
  3
*H2020
  1

  0
LINE
  5
5C1
330
5BF
100
AcDbEntity
  8
0
  6
SOLID
 62
     1
100
AcDbLine
 10
-7033.262695313
 20
3197.374023438
 30
0.0
 11
-7031.052734374999
 21
3195.1640625
 31
0.0
  0
LINE
  5
5C2
330
5BF
100
AcDbEntity
  8
0
  6
SOLID
 62
     1
100
AcDbLine
 10
-7027.516601563
 20
3195.1640625
 30
0.0
 11
-7032.186523437999
 21
3199.833007813
 31
0.0
  0
LINE
  5
5C3
330
5BF
100
AcDbEntity
  8
0
  6
SOLID
 62
     1
100
AcDbLine
 10
-7032.53515625
 20
3203.716796875
 30
0.0
 11
-7023.981445313001
 21
3195.1640625
 31
0.0
  0
LINE
  5
5C4
330
5BF
100
AcDbEntity
  8
0
  6
SOLID
 62
     1
100
AcDbLine
 10
-7020.446289062999
 20
3195.1640625
 30
0.0
 11
-7024.686523438001
 21
3199.404296875
 31
0.0
  0
LINE
  5
5C5
330
5BF
100
AcDbEntity
  8
0
  6
SOLID
 62
     1
100
AcDbLine
 10
-7028.138671875
 20
3202.856445312999
 30
0.0
 11
-7029.686523438001
 21
3204.404296875
 31
0.0
  0
LINE
  5
5C6
330
5BF
100
AcDbEntity
  8
0
  6
SOLID
 62
     1
100
AcDbLine
 10
-7021.151367188
 20
3199.404296875
 30
0.0
 11
-7016.91015625
 21
3195.1640625
 31
0.0
  0
LINE
  5
5C7
330
5BF
100
AcDbEntity
  8
0
  6
SOLID
 62
     1
100
AcDbLine
 10
-7014.280273438
 20
3196.069335938
 30
0.0
 11
-7017.615234375
 21
3199.404296875
 31
0.0
  0
ENDBLK
  5
5C8
330
5BF
100
AcDbEntity
  8
0
100
AcDbBlockEnd
  0
BLOCK
  5
61F
330
61E
100
AcDbEntity
  8
0
100
AcDbBlockBegin
  2
*D21
 70
     0
 10
0.0
 20
0.0
 30
0.0
  3
*D21
  1

  0
LINE
  5
620
330
61E
100
AcDbEntity
  8
1
  6
SOLID
 62
     3
100
AcDbLine
 10
-496.256072998
 20
-2006.997070313
 30
0.0
 11
-496.256072998
 21
-2063.236572266
 31
0.0
  0
LINE
  5
621
330
61E
100
AcDbEntity
  8
1
  6
SOLID
 62
     3
100
AcDbLine
 10
-236.256103516
 20
-2006.997070313
 30
0.0
 11
-236.256103516
 21
-2063.236572266
 31
0.0
  0
LINE
  5
622
330
61E
100
AcDbEntity
  8
1
  6
SOLID
 62
     3
100
AcDbLine
 10
-496.256072998
 20
-2062.236572266
 30
0.0
 11
-236.256103516
 21
-2062.236572266
 31
0.0
  0
LINE
  5
623
330
61E
100
AcDbEntity
  8
1
  6
SOLID
 62
     3
100
AcDbLine
 10
-485.256072998
 20
-2060.403320313
 30
0.0
 11
-496.256072998
 21
-2062.236572266
 31
0.0
  0
LINE
  5
624
330
61E
100
AcDbEntity
  8
1
  6
SOLID
 62
     3
100
AcDbLine
 10
-496.256072998
 20
-2062.236572266
 30
0.0
 11
-485.256072998
 21
-2064.069824219
 31
0.0
  0
LINE
  5
625
330
61E
100
AcDbEntity
  8
1
  6
SOLID
 62
     3
100
AcDbLine
 10
-485.256072998
 20
-2064.069824219
 30
0.0
 11
-485.256072998
 21
-2060.403320313
 31
0.0
  0
LINE
  5
626
330
61E
100
AcDbEntity
  8
1
  6
SOLID
 62
     3
100
AcDbLine
 10
-236.256103516
 20
-2062.236572266
 30
0.0
 11
-496.256072998
 21
-2062.236572266
 31
0.0
  0
LINE
  5
627
330
61E
100
AcDbEntity
  8
1
  6
SOLID
 62
     3
100
AcDbLine
 10
-247.256103516
 20
-2064.069824219
 30
0.0
 11
-236.256103516
 21
-2062.236572266
 31
0.0
  0
LINE
  5
628
330
61E
100
AcDbEntity
  8
1
  6
SOLID
 62
     3
100
AcDbLine
 10
-236.256103516
 20
-2062.236572266
 30
0.0
 11
-247.256103516
 21
-2060.403320313
 31
0.0
  0
LINE
  5
629
330
61E
100
AcDbEntity
  8
1
  6
SOLID
 62
     3
100
AcDbLine
 10
-247.256103516
 20
-2060.403320313
 30
0.0
 11
-247.256103516
 21
-2064.069824219
 31
0.0
  0
TEXT
  5
62A
330
61E
100
AcDbEntity
  8
1
  6
SOLID
 62
     3
100
AcDbText
 10
-379.179412842
 20
-2056.736572266
 30
0.0
 40
11.0
  1
264
 41
0.8811345967499978
 72
     5
 11
-353.3327980040001
 21
-2056.736572266
 31
0.0
100
AcDbText
  0
ENDBLK
  5
62B
330
61E
100
AcDbEntity
  8
0
100
AcDbBlockEnd
  0
BLOCK
  5
756
330
755
100
AcDbEntity
  8
0
100
AcDbBlockBegin
  2
*D22
 70
     0
 10
0.0
 20
0.0
 30
0.0
  3
*D22
  1

  0
LINE
  5
757
330
755
100
AcDbEntity
  8
1
  6
SOLID
 62
     3
100
AcDbLine
 10
-519.8274536129999
 20
-2005.997070313
 30
0.0
 11
-678.916503906
 21
-2005.997070313
 31
0.0
  0
LINE
  5
758
330
755
100
AcDbEntity
  8
1
  6
SOLID
 62
     3
100
AcDbLine
 10
-657.6474609379999
 20
-1825.997070313
 30
0.0
 11
-678.916503906
 21
-1825.997070313
 31
0.0
  0
LINE
  5
759
330
755
100
AcDbEntity
  8
1
  6
SOLID
 62
     3
100
AcDbLine
 10
-677.345092773
 20
-2005.997070313
 30
0.0
 11
-677.345092773
 21
-1825.997070313
 31
0.0
  0
LINE
  5
75A
330
755
100
AcDbEntity
  8
1
  6
SOLID
 62
     3
100
AcDbLine
 10
-679.178222656
 20
-1994.997070313
 30
0.0
 11
-677.345092773
 21
-2005.997070313
 31
0.0
  0
LINE
  5
75B
330
755
100
AcDbEntity
  8
1
  6
SOLID
 62
     3
100
AcDbLine
 10
-677.345092773
 20
-2005.997070313
 30
0.0
 11
-675.5119628909999
 21
-1994.997070313
 31
0.0
  0
LINE
  5
75C
330
755
100
AcDbEntity
  8
1
  6
SOLID
 62
     3
100
AcDbLine
 10
-675.5119628909999
 20
-1994.997070313
 30
0.0
 11
-679.178222656
 21
-1994.997070313
 31
0.0
  0
LINE
  5
75D
330
755
100
AcDbEntity
  8
1
  6
SOLID
 62
     3
100
AcDbLine
 10
-677.345092773
 20
-1825.997070313
 30
0.0
 11
-677.345092773
 21
-2005.997070313
 31
0.0
  0
LINE
  5
75E
330
755
100
AcDbEntity
  8
1
  6
SOLID
 62
     3
100
AcDbLine
 10
-675.5119628909999
 20
-1836.997070313
 30
0.0
 11
-677.345092773
 21
-1825.997070313
 31
0.0
  0
LINE
  5
75F
330
755
100
AcDbEntity
  8
1
  6
SOLID
 62
     3
100
AcDbLine
 10
-677.345092773
 20
-1825.997070313
 30
0.0
 11
-679.178222656
 21
-1836.997070313
 31
0.0
  0
LINE
  5
760
330
755
100
AcDbEntity
  8
1
  6
SOLID
 62
     3
100
AcDbLine
 10
-679.178222656
 20
-1836.997070313
 30
0.0
 11
-675.5119628909999
 21
-1836.997070313
 31
0.0
  0
TEXT
  5
761
330
755
100
AcDbEntity
  8
1
  6
SOLID
 62
     3
100
AcDbText
 10
-682.845092773
 20
-1928.920410156
 30
0.0
 40
11.0
  1
180
 50
90.00000250494041
 41
1.084473349804209
 72
     5
 11
-682.845093903
 21
-1903.073795319
 31
0.0
100
AcDbText
  0
ENDBLK
  5
762
330
755
100
AcDbEntity
  8
0
100
AcDbBlockEnd
  0
ENDSEC
  0
SECTION
  2
ENTITIES
  0
INSERT
  5
5F
330
A
100
AcDbEntity
  8
1
100
AcDbBlockReference
  2
*L00
 10
0.0
 20
0.0
 30
0.0
  0
LINE
  5
60
330
A
100
AcDbEntity
  8
1
  6
SOLID
 62
     7
100
AcDbLine
 10
-240.256087515
 20
-2260.997070313
 30
0.0
 11
-213.256102773
 21
-2260.997070313
 31
0.0
  0
LINE
  5
61
330
A
100
AcDbEntity
  8
1
  6
SOLID
 62
     7
100
AcDbLine
 10
-506.2560875149999
 20
-1825.997125965
 30
0.0
 11
-506.2560875149999
 21
-1685.997098139
 31
0.0
  0
DIMENSION
  5
71
330
A
100
AcDbEntity
  8
1
  6
SOLID
 62
     3
100
AcDbDimension
  2
*D1
 10
-200.25579834
 20
-1656.049194336
 30
0.0
 11
-153.179107666
 21
-1650.549194336
 31
0.0
 71
     5
 42
0.0
  3
2
100
AcDbAlignedDimension
 13
-80.25579834
 23
-1703.997070313
 33
0.0
 14
-200.25579834
 24
-1703.997070313
 34
0.0
100
AcDbRotatedDimension
  0
TEXT
  5
72
330
A
100
AcDbEntity
  8
1
  6
SOLID
 62
     3
100
AcDbText
 10
149.442626953
 20
-2225.801025391
 30
0.0
 40
18.0
  1
G300 L0
 41
0.9418865581891891
 72
     5
 11
253.992034912
 21
-2225.801025391
 31
0.0
100
AcDbText
  0
LINE
  5
73
330
A
100
AcDbEntity
  8
1
  6
SOLID
 62
     7
100
AcDbLine
 10
-213.256102773
 20
-1960.997045178
 30
0.0
 11
-213.256102773
 21
-1825.997070313
 31
0.0
  0
LINE
  5
74
330
A
100
AcDbEntity
  8
2
  6
SOLID
 62
     7
100
AcDbLine
 10
-441.2561325169999
 20
-1957.996981753
 30
0.0
 11
-445.2560875149999
 21
-1957.996981753
 31
0.0
  0
LINE
  5
75
330
A
100
AcDbEntity
  8
3
  6
SOLID
 62
     7
100
AcDbLine
 10
-581.2561310119999
 20
-1641.997048126
 30
0.0
 11
-581.2561310119999
 21
-1646.997048126
 31
0.0
  0
LINE
  5
76
330
A
100
AcDbEntity
  8
3
  6
SOLID
 62
     7
100
AcDbLine
 10
-519.1348106689999
 20
-1653.11836847
 30
0.0
 11
-524.3774513559999
 21
-1647.875727783
 31
0.0
  0
LINE
  5
77
330
A
100
AcDbEntity
  8
3
  6
SOLID
 62
     7
100
AcDbLine
 10
-515.599276763
 20
-1649.582834564
 30
0.0
 11
-520.84191745
 21
-1644.340193877
 31
0.0
  0
LINE
  5
79
330
A
100
AcDbEntity
  8
2
  6
CENTER
 62
     7
100
AcDbLine
 10
192.296090102
 20
-1706.996992594
 30
0.0
 11
166.424193769
 21
-1706.996992594
 31
0.0
  0
LINE
  5
7A
330
A
100
AcDbEntity
  8
2
  6
CENTER
 62
     2
100
AcDbLine
 10
178.981325941
 20
-1721.01841344
 30
0.0
 11
178.981325941
 21
-1691.675014308
 31
0.0
  0
CIRCLE
  5
7B
330
A
100
AcDbEntity
  8
2
  6
SOLID
 62
     7
100
AcDbCircle
 10
178.981325941
 20
-1706.996992594
 30
0.0
 40
4.199999808999999
  0
LINE
  5
7C
330
A
100
AcDbEntity
  8
1
  6
CENTER
 62
     2
100
AcDbLine
 10
-147.255794567
 20
-1758.997070313
 30
0.0
 11
-147.255794567
 21
-1825.997070313
 31
0.0
  0
LINE
  5
7D
330
A
100
AcDbEntity
  8
1
  6
CENTER
 62
     2
100
AcDbLine
 10
-161.255794567
 20
-1758.997070313
 30
0.0
 11
-161.255794567
 21
-1825.997070313
 31
0.0
  0
LINE
  5
7E
330
A
100
AcDbEntity
  8
1
  6
CENTER
 62
     2
100
AcDbLine
 10
-175.255794567
 20
-1758.997070313
 30
0.0
 11
-175.255794567
 21
-1825.997070313
 31
0.0
  0
LINE
  5
7F
330
A
100
AcDbEntity
  8
1
  6
SOLID
 62
     4
100
AcDbLine
 10
-368.580236106
 20
-1750.997064929
 30
0.0
 11
-291.256087515
 21
-1750.997064929
 31
0.0
  0
LINE
  5
80
330
A
100
AcDbEntity
  8
1
  6
SOLID
 62
     7
100
AcDbLine
 10
-291.256087515
 20
-1658.997095447
 30
0.0
 11
-291.256087515
 21
-1708.997070313
 31
0.0
  0
LINE
  5
81
330
A
100
AcDbEntity
  8
1
  6
CENTER
 62
     2
100
AcDbLine
 10
-189.255794567
 20
-1758.997070313
 30
0.0
 11
-189.255794567
 21
-1825.997070313
 31
0.0
  0
LINE
  5
82
330
A
100
AcDbEntity
  8
1
  6
CENTER
 62
     2
100
AcDbLine
 10
-133.255794567
 20
-1758.997070313
 30
0.0
 11
-133.255794567
 21
-1825.997070313
 31
0.0
  0
LINE
  5
83
330
A
100
AcDbEntity
  8
1
  6
CENTER
 62
     2
100
AcDbLine
 10
-119.255794567
 20
-1758.997070313
 30
0.0
 11
-119.255794567
 21
-1825.997070313
 31
0.0
  0
LINE
  5
84
330
A
100
AcDbEntity
  8
1
  6
SOLID
 62
     4
100
AcDbLine
 10
-368.580236106
 20
-1691.275693822
 30
0.0
 11
-291.256087515
 21
-1691.275693822
 31
0.0
  0
LINE
  5
85
330
A
100
AcDbEntity
  8
1
  6
SOLID
 62
     4
100
AcDbLine
 10
-368.580236106
 20
-1681.877859884
 30
0.0
 11
-291.256087515
 21
-1681.877859884
 31
0.0
  0
LINE
  5
86
330
A
100
AcDbEntity
  8
1
  6
SOLID
 62
     4
100
AcDbLine
 10
-368.580236106
 20
-1674.59605607
 30
0.0
 11
-291.256087515
 21
-1674.59605607
 31
0.0
  0
LINE
  5
87
330
A
100
AcDbEntity
  8
1
  6
SOLID
 62
     4
100
AcDbLine
 10
-368.580236106
 20
-1668.900378921
 30
0.0
 11
-291.256087515
 21
-1668.900378921
 31
0.0
  0
LINE
  5
88
330
A
100
AcDbEntity
  8
1
  6
SOLID
 62
     4
100
AcDbLine
 10
-368.580236106
 20
-1664.576237048
 30
0.0
 11
-291.256087515
 21
-1664.576237048
 31
0.0
  0
LINE
  5
89
330
A
100
AcDbEntity
  8
1
  6
SOLID
 62
     4
100
AcDbLine
 10
-368.580236106
 20
-1661.649012441
 30
0.0
 11
-291.256087515
 21
-1661.649012441
 31
0.0
  0
LINE
  5
8A
330
A
100
AcDbEntity
  8
1
  6
SOLID
 62
     4
100
AcDbLine
 10
-368.580236106
 20
-1659.649012441
 30
0.0
 11
-291.256087515
 21
-1659.649012441
 31
0.0
  0
LINE
  5
8B
330
A
100
AcDbEntity
  8
1
  6
SOLID
 62
     7
100
AcDbLine
 10
-368.580236106
 20
-1658.949012431
 30
0.0
 11
-291.256087515
 21
-1658.949012431
 31
0.0
  0
LINE
  5
8C
330
A
100
AcDbEntity
  8
1
  6
SOLID
 62
     4
100
AcDbLine
 10
-368.580236106
 20
-1900.997075696
 30
0.0
 11
-291.256087515
 21
-1900.997075696
 31
0.0
  0
LINE
  5
8D
330
A
100
AcDbEntity
  8
1
  6
SOLID
 62
     4
100
AcDbLine
 10
-368.580236106
 20
-1938.597066203
 30
0.0
 11
-291.256087515
 21
-1938.597066203
 31
0.0
  0
LINE
  5
8E
330
A
100
AcDbEntity
  8
1
  6
SOLID
 62
     4
100
AcDbLine
 10
-368.580236106
 20
-1960.718446803
 30
0.0
 11
-291.256087515
 21
-1960.718446803
 31
0.0
  0
LINE
  5
8F
330
A
100
AcDbEntity
  8
1
  6
SOLID
 62
     4
100
AcDbLine
 10
-368.580236106
 20
-1970.116280741
 30
0.0
 11
-291.256087515
 21
-1970.116280741
 31
0.0
  0
LINE
  5
90
330
A
100
AcDbEntity
  8
1
  6
SOLID
 62
     4
100
AcDbLine
 10
-368.580236106
 20
-1977.398084555
 30
0.0
 11
-291.256087515
 21
-1977.398084555
 31
0.0
  0
LINE
  5
91
330
A
100
AcDbEntity
  8
1
  6
SOLID
 62
     4
100
AcDbLine
 10
-368.580236106
 20
-1983.093761704
 30
0.0
 11
-291.256087515
 21
-1983.093761704
 31
0.0
  0
LINE
  5
92
330
A
100
AcDbEntity
  8
1
  6
CENTER
 62
     2
100
AcDbLine
 10
-105.255794567
 20
-1758.997070313
 30
0.0
 11
-105.255794567
 21
-1825.997070313
 31
0.0
  0
LINE
  5
93
330
A
100
AcDbEntity
  8
1
  6
CENTER
 62
     2
100
AcDbLine
 10
-91.255794567
 20
-1758.997070313
 30
0.0
 11
-91.255794567
 21
-1825.997070313
 31
0.0
  0
LINE
  5
94
330
A
100
AcDbEntity
  8
1
  6
CENTER
 62
     2
100
AcDbLine
 10
-133.255794567
 20
-1892.997070312
 30
0.0
 11
-133.255794567
 21
-1825.997070313
 31
0.0
  0
LINE
  5
95
330
A
100
AcDbEntity
  8
1
  6
CENTER
 62
     2
100
AcDbLine
 10
-119.255794567
 20
-1892.997070312
 30
0.0
 11
-119.255794567
 21
-1825.997070313
 31
0.0
  0
LINE
  5
96
330
A
100
AcDbEntity
  8
1
  6
CENTER
 62
     2
100
AcDbLine
 10
-105.255794567
 20
-1892.997070312
 30
0.0
 11
-105.255794567
 21
-1825.997070313
 31
0.0
  0
LINE
  5
97
330
A
100
AcDbEntity
  8
1
  6
CENTER
 62
     2
100
AcDbLine
 10
-91.255794567
 20
-1892.997070312
 30
0.0
 11
-91.255794567
 21
-1825.997070313
 31
0.0
  0
LINE
  5
98
330
A
100
AcDbEntity
  8
1
  6
CENTER
 62
     2
100
AcDbLine
 10
-147.255794567
 20
-1892.997070312
 30
0.0
 11
-147.255794567
 21
-1825.997070313
 31
0.0
  0
LINE
  5
99
330
A
100
AcDbEntity
  8
1
  6
CENTER
 62
     2
100
AcDbLine
 10
-161.255794567
 20
-1892.997070312
 30
0.0
 11
-161.255794567
 21
-1825.997070313
 31
0.0
  0
LINE
  5
9A
330
A
100
AcDbEntity
  8
1
  6
CENTER
 62
     2
100
AcDbLine
 10
-175.255794567
 20
-1892.997070312
 30
0.0
 11
-175.255794567
 21
-1825.997070313
 31
0.0
  0
LINE
  5
9B
330
A
100
AcDbEntity
  8
1
  6
CENTER
 62
     2
100
AcDbLine
 10
-189.255794567
 20
-1892.997070312
 30
0.0
 11
-189.255794567
 21
-1825.997070313
 31
0.0
  0
LINE
  5
9C
330
A
100
AcDbEntity
  8
1
  6
SOLID
 62
     7
100
AcDbLine
 10
-291.256112115
 20
-1693.997039795
 30
0.0
 11
-287.256112115
 21
-1693.997039795
 31
0.0
  0
LINE
  5
9D
330
A
100
AcDbEntity
  8
2
  6
SOLID
 62
     7
100
AcDbLine
 10
-308.256131012
 20
-1599.997088137
 30
0.0
 11
-308.256131012
 21
-1575.997088137
 31
0.0
  0
LINE
  5
9E
330
A
100
AcDbEntity
  8
1
  6
SOLID
 62
     7
100
AcDbLine
 10
-308.256131012
 20
-1575.997088137
 30
0.0
 11
-313.256131012
 21
-1575.997088137
 31
0.0
  0
LINE
  5
9F
330
A
100
AcDbEntity
  8
1
  6
SOLID
 62
     7
100
AcDbLine
 10
-308.256131012
 20
-1599.997088137
 30
0.0
 11
-313.256131012
 21
-1599.997088137
 31
0.0
  0
LINE
  5
A0
330
A
100
AcDbEntity
  8
1
  6
SOLID
 62
     7
100
AcDbLine
 10
-305.256131012
 20
-1577.997088137
 30
0.0
 11
-308.256131012
 21
-1577.997088137
 31
0.0
  0
LINE
  5
A1
330
A
100
AcDbEntity
  8
1
  6
SOLID
 62
     7
100
AcDbLine
 10
-305.256131012
 20
-1597.997088137
 30
0.0
 11
-308.256131012
 21
-1597.997088137
 31
0.0
  0
LINE
  5
A2
330
A
100
AcDbEntity
  8
1
  6
SOLID
 62
     7
100
AcDbLine
 10
-305.256131012
 20
-1599.997088137
 30
0.0
 11
-305.256131012
 21
-1575.997088137
 31
0.0
  0
LINE
  5
A3
330
A
100
AcDbEntity
  8
1
  6
SOLID
 62
     7
100
AcDbLine
 10
-292.256131012
 20
-1599.997088137
 30
0.0
 11
-292.256131012
 21
-1575.997088137
 31
0.0
  0
LINE
  5
A4
330
A
100
AcDbEntity
  8
1
  6
SOLID
 62
     7
100
AcDbLine
 10
-292.256131012
 20
-1575.997088137
 30
0.0
 11
-305.256131012
 21
-1575.997088137
 31
0.0
  0
LINE
  5
A5
330
A
100
AcDbEntity
  8
1
  6
SOLID
 62
     7
100
AcDbLine
 10
-292.256131012
 20
-1599.997088137
 30
0.0
 11
-305.256131012
 21
-1599.997088137
 31
0.0
  0
LINE
  5
A6
330
A
100
AcDbEntity
  8
1
  6
SOLID
 62
     7
100
AcDbLine
 10
-289.2561310120001
 20
-1576.997088137
 30
0.0
 11
-292.256131012
 21
-1576.997088137
 31
0.0
  0
LINE
  5
A7
330
A
100
AcDbEntity
  8
1
  6
SOLID
 62
     7
100
AcDbLine
 10
-289.2561310120001
 20
-1598.997088137
 30
0.0
 11
-292.256131012
 21
-1598.997088137
 31
0.0
  0
LINE
  5
A8
330
A
100
AcDbEntity
  8
1
  6
SOLID
 62
     7
100
AcDbLine
 10
-286.256131012
 20
-1595.997088137
 30
0.0
 11
-286.256131012
 21
-1579.997088137
 31
0.0
  0
ARC
  5
A9
330
A
100
AcDbEntity
  8
1
  6
SOLID
 62
     7
100
AcDbCircle
 10
-289.2561310120001
 20
-1579.997088137
 30
0.0
 40
3.0
100
AcDbArc
 50
0.0
 51
90.0
  0
LINE
  5
AA
330
A
100
AcDbEntity
  8
1
  6
SOLID
 62
     7
100
AcDbLine
 10
-207.256102773
 20
-1825.997070313
 30
0.0
 11
-207.256102773
 21
-1758.997070313
 31
0.0
  0
ARC
  5
AB
330
A
100
AcDbEntity
  8
1
  6
SOLID
 62
     7
100
AcDbCircle
 10
-289.2561310120001
 20
-1595.997088137
 30
0.0
 40
3.0
100
AcDbArc
 50
270.0
 51
0.0
  0
LINE
  5
AC
330
A
100
AcDbEntity
  8
1
  6
CENTER
 62
     2
100
AcDbLine
 10
-284.03555382
 20
-1587.997088137
 30
0.0
 11
-292.256131012
 21
-1587.997088137
 31
0.0
  0
LINE
  5
AD
330
A
100
AcDbEntity
  8
1
  6
SOLID
 62
     7
100
AcDbLine
 10
-292.256131012
 20
-1587.997088137
 30
0.0
 11
-305.256131012
 21
-1587.997088137
 31
0.0
  0
LINE
  5
AE
330
A
100
AcDbEntity
  8
1
  6
CENTER
 62
     2
100
AcDbLine
 10
-305.256131012
 20
-1587.997088137
 30
0.0
 11
-308.256131012
 21
-1587.997088137
 31
0.0
  0
LINE
  5
AF
330
A
100
AcDbEntity
  8
1
  6
SOLID
 62
     7
100
AcDbLine
 10
-308.256131012
 20
-1587.997088137
 30
0.0
 11
-313.256131012
 21
-1587.997088137
 31
0.0
  0
LINE
  5
B0
330
A
100
AcDbEntity
  8
1
  6
SOLID
 62
     7
100
AcDbLine
 10
-307.256131012
 20
-1610.997088137
 30
0.0
 11
-307.256131012
 21
-1602.997088137
 31
0.0
  0
LINE
  5
B1
330
A
100
AcDbEntity
  8
1
  6
SOLID
 62
     7
100
AcDbLine
 10
-307.256131012
 20
-1602.997088137
 30
0.0
 11
-313.256131012
 21
-1602.997088137
 31
0.0
  0
LINE
  5
B2
330
A
100
AcDbEntity
  8
1
  6
SOLID
 62
     7
100
AcDbLine
 10
-307.256131012
 20
-1638.997088137
 30
0.0
 11
-313.256131012
 21
-1638.997088137
 31
0.0
  0
LINE
  5
B3
330
A
100
AcDbEntity
  8
1
  6
SOLID
 62
     7
100
AcDbLine
 10
-304.256131012
 20
-1608.997088137
 30
0.0
 11
-304.256131012
 21
-1602.997088137
 31
0.0
  0
LINE
  5
B4
330
A
100
AcDbEntity
  8
1
  6
SOLID
 62
     7
100
AcDbLine
 10
-289.2561310120001
 20
-1602.997088137
 30
0.0
 11
-304.256131012
 21
-1602.997088137
 31
0.0
  0
LINE
  5
B5
330
A
100
AcDbEntity
  8
1
  6
SOLID
 62
     7
100
AcDbLine
 10
-289.2561310120001
 20
-1638.997088137
 30
0.0
 11
-304.256131012
 21
-1638.997088137
 31
0.0
  0
LINE
  5
B6
330
A
100
AcDbEntity
  8
1
  6
SOLID
 62
     7
100
AcDbLine
 10
-289.2561310120001
 20
-1609.997088137
 30
0.0
 11
-289.2561310120001
 21
-1602.997088137
 31
0.0
  0
ARC
  5
B7
330
A
100
AcDbEntity
  8
2
  6
SOLID
 62
     7
100
AcDbCircle
 10
178.981325941
 20
-1706.996992594
 30
0.0
 40
5.0
100
AcDbArc
 50
20.0
 51
320.0
  0
LINE
  5
B8
330
A
100
AcDbEntity
  8
1
  6
SOLID
 62
     7
100
AcDbLine
 10
-283.256131012
 20
-1634.497088137
 30
0.0
 11
-283.256131012
 21
-1607.497088137
 31
0.0
  0
LINE
  5
B9
330
A
100
AcDbEntity
  8
2
  6
CENTER
 62
     2
100
AcDbLine
 10
234.296090102
 20
-1706.996992594
 30
0.0
 11
211.995106762
 21
-1706.996992594
 31
0.0
  0
LINE
  5
BA
330
A
100
AcDbEntity
  8
1
  6
SOLID
 62
     7
100
AcDbLine
 10
-286.256131012
 20
-1604.497088137
 30
0.0
 11
-289.2561310120001
 21
-1604.497088137
 31
0.0
  0
LINE
  5
BB
330
A
100
AcDbEntity
  8
1
  6
SOLID
 62
     7
100
AcDbLine
 10
-286.256131012
 20
-1637.497088137
 30
0.0
 11
-289.2561310120001
 21
-1637.497088137
 31
0.0
  0
LINE
  5
BC
330
A
100
AcDbEntity
  8
1
  6
SOLID
 62
     7
100
AcDbLine
 10
-74.25610277299999
 20
-1745.997070313
 30
0.0
 11
-75.256102773
 21
-1744.997070313
 31
0.0
  0
LINE
  5
BD
330
A
100
AcDbEntity
  8
1
  6
SOLID
 62
     7
100
AcDbLine
 10
-74.25610277299999
 20
-1757.997070313
 30
0.0
 11
-75.256102773
 21
-1758.997070313
 31
0.0
  0
ARC
  5
BE
330
A
100
AcDbEntity
  8
1
  6
SOLID
 62
     7
100
AcDbCircle
 10
-286.256131012
 20
-1634.497088137
 30
0.0
 40
3.0
100
AcDbArc
 50
270.0
 51
0.0
  0
LINE
  5
BF
330
A
100
AcDbEntity
  8
1
  6
SOLID
 62
     7
100
AcDbLine
 10
-74.25610277299999
 20
-1905.997070312
 30
0.0
 11
-75.256102773
 21
-1906.997070312
 31
0.0
  0
LINE
  5
C0
330
A
100
AcDbEntity
  8
1
  6
SOLID
 62
     7
100
AcDbLine
 10
-74.25610277299999
 20
-1893.997070312
 30
0.0
 11
-75.256102773
 21
-1892.997070313
 31
0.0
  0
ARC
  5
C1
330
A
100
AcDbEntity
  8
1
  6
SOLID
 62
     7
100
AcDbCircle
 10
-286.256131012
 20
-1607.497088137
 30
0.0
 40
3.0
100
AcDbArc
 50
0.0
 51
90.0
  0
LINE
  5
C2
330
A
100
AcDbEntity
  8
1
  6
SOLID
 62
     7
100
AcDbLine
 10
-304.256131012
 20
-1604.497088137
 30
0.0
 11
-307.256131012
 21
-1604.497088137
 31
0.0
  0
LINE
  5
C3
330
A
100
AcDbEntity
  8
1
  6
SOLID
 62
     7
100
AcDbLine
 10
-304.256131012
 20
-1637.497088137
 30
0.0
 11
-307.256131012
 21
-1637.497088137
 31
0.0
  0
LINE
  5
C4
330
A
100
AcDbEntity
  8
1
  6
CENTER
 62
     2
100
AcDbLine
 10
-271.134478456
 20
-1620.997088137
 30
0.0
 11
-289.2561310120001
 21
-1620.997088137
 31
0.0
  0
LINE
  5
C5
330
A
100
AcDbEntity
  8
2
  6
CENTER
 62
     2
100
AcDbLine
 10
220.981325941
 20
-1721.01841344
 30
0.0
 11
220.981325941
 21
-1691.675014308
 31
0.0
  0
CIRCLE
  5
C6
330
A
100
AcDbEntity
  8
2
  6
SOLID
 62
     7
100
AcDbCircle
 10
220.981325941
 20
-1706.996992594
 30
0.0
 40
4.199999808999999
  0
ARC
  5
C7
330
A
100
AcDbEntity
  8
2
  6
SOLID
 62
     7
100
AcDbCircle
 10
220.981325941
 20
-1706.996992594
 30
0.0
 40
5.0
100
AcDbArc
 50
20.0
 51
320.0
  0
ARC
  5
C8
330
A
100
AcDbEntity
  8
2
  6
SOLID
 62
     7
100
AcDbCircle
 10
162.481325941
 20
-1970.996992594
 30
0.0
 40
5.0
100
AcDbArc
 50
0.0
 51
90.0
  0
LINE
  5
C9
330
A
100
AcDbEntity
  8
2
  6
SOLID
 62
     7
100
AcDbLine
 10
297.481325941
 20
-1965.996992594
 30
0.0
 11
432.4813259409999
 21
-1965.996992594
 31
0.0
  0
ARC
  5
CA
330
A
100
AcDbEntity
  8
2
  6
SOLID
 62
     7
100
AcDbCircle
 10
432.4813259409999
 20
-1960.996992594
 30
0.0
 40
5.0
100
AcDbArc
 50
270.0
 51
360.0
  0
LINE
  5
CB
330
A
100
AcDbEntity
  8
2
  6
SOLID
 62
     7
100
AcDbLine
 10
384.420636171
 20
-1965.996992594
 30
0.0
 11
418.484045411
 21
-1965.996992594
 31
0.0
  0
LINE
  5
CD
330
A
100
AcDbEntity
  8
2
  6
L_DASH
 62
     3
100
AcDbLine
 10
403.9813259409999
 20
-1965.996992594
 30
0.0
 11
403.9813259409999
 21
-2005.996992594
 31
0.0
  0
ARC
  5
CE
330
A
100
AcDbEntity
  8
2
  6
SOLID
 62
     7
100
AcDbCircle
 10
357.481325941
 20
-1995.996992594
 30
0.0
 40
10.0
100
AcDbArc
 50
0.0
 51
90.0
  0
LINE
  5
CF
330
A
100
AcDbEntity
  8
2
  6
CENTER
 62
     7
100
AcDbLine
 10
397.481325941
 20
-1962.409025339
 30
0.0
 11
397.481325941
 21
-2018.048299158
 31
0.0
  0
LINE
  5
D0
330
A
100
AcDbEntity
  8
2
  6
SOLID
 62
     7
100
AcDbLine
 10
297.481325941
 20
-1965.996992594
 30
0.0
 11
162.481325941
 21
-1965.996992594
 31
0.0
  0
LINE
  5
D1
330
A
100
AcDbEntity
  8
2
  6
SOLID
 62
     7
100
AcDbLine
 10
357.481325941
 20
-1985.996992594
 30
0.0
 11
297.481325941
 21
-1985.996992594
 31
0.0
  0
LINE
  5
D2
330
A
100
AcDbEntity
  8
2
  6
SOLID
 62
     7
100
AcDbLine
 10
157.481325941
 20
-1960.996992594
 30
0.0
 11
157.481325941
 21
-1959.996992594
 31
0.0
  0
LINE
  5
D3
330
A
100
AcDbEntity
  8
2
  6
SOLID
 62
     7
100
AcDbLine
 10
259.981325941
 20
-1685.996992594
 30
0.0
 11
297.481325941
 21
-1685.996992594
 31
0.0
  0
LINE
  5
D4
330
A
100
AcDbEntity
  8
2
  6
L_DASH
 62
     3
100
AcDbLine
 10
405.4813259409999
 20
-1965.996992594
 30
0.0
 11
405.4813259409999
 21
-2005.996992594
 31
0.0
  0
LINE
  5
D5
330
A
100
AcDbEntity
  8
2
  6
L_DASH
 62
     3
100
AcDbLine
 10
390.981325941
 20
-1965.996992594
 30
0.0
 11
390.981325941
 21
-2005.996992594
 31
0.0
  0
LINE
  5
D6
330
A
100
AcDbEntity
  8
2
  6
L_DASH
 62
     3
100
AcDbLine
 10
389.481325941
 20
-1965.996992594
 30
0.0
 11
389.481325941
 21
-2005.996992594
 31
0.0
  0
ARC
  5
D7
330
A
100
AcDbEntity
  8
2
  6
SOLID
 62
     7
100
AcDbCircle
 10
432.4813259409999
 20
-1970.996992594
 30
0.0
 40
5.0
100
AcDbArc
 50
90.0
 51
180.0
  0
LINE
  5
D8
330
A
100
AcDbEntity
  8
2
  6
SOLID
 62
     7
100
AcDbLine
 10
427.481325941
 20
-1970.996992594
 30
0.0
 11
427.481325941
 21
-2005.996992594
 31
0.0
  0
ARC
  5
D9
330
A
100
AcDbEntity
  8
2
  6
SOLID
 62
     7
100
AcDbCircle
 10
162.481325941
 20
-1960.996992594
 30
0.0
 40
5.0
100
AcDbArc
 50
180.0
 51
270.0
  0
LINE
  5
DA
330
A
100
AcDbEntity
  8
2
  6
SOLID
 62
     7
100
AcDbLine
 10
232.481325941
 20
-1647.997048126
 30
0.0
 11
232.481325941
 21
-1679.996992594
 31
0.0
  0
LINE
  5
DB
330
A
100
AcDbEntity
  8
2
  6
SOLID
 62
     7
100
AcDbLine
 10
427.481325941
 20
-2005.996992594
 30
0.0
 11
367.481325941
 21
-2005.996992594
 31
0.0
  0
LINE
  5
DC
330
A
100
AcDbEntity
  8
2
  6
SOLID
 62
     7
100
AcDbLine
 10
367.481325941
 20
-1995.996992594
 30
0.0
 11
367.481325941
 21
-2005.996992594
 31
0.0
  0
ARC
  5
DD
330
A
100
AcDbEntity
  8
2
  6
SOLID
 62
     7
100
AcDbCircle
 10
234.481325941
 20
-1647.997048126
 30
0.0
 40
2.0
100
AcDbArc
 50
90.0
 51
180.0
  0
LINE
  5
DE
330
A
100
AcDbEntity
  8
2
  6
SOLID
 62
     7
100
AcDbLine
 10
222.481325941
 20
-1645.997048126
 30
0.0
 11
277.052341065
 21
-1645.997048126
 31
0.0
  0
LINE
  5
DF
330
A
100
AcDbEntity
  8
2
  6
CENTER
 62
     2
100
AcDbLine
 10
367.407431977
 20
-1825.996992594
 30
0.0
 11
218.448841709
 21
-1825.996992594
 31
0.0
  0
LINE
  5
E0
330
A
100
AcDbEntity
  8
2
  6
SOLID
 62
     7
100
AcDbLine
 10
362.481325941
 20
-1647.997048126
 30
0.0
 11
362.481325941
 21
-1679.996992594
 31
0.0
  0
ARC
  5
E1
330
A
100
AcDbEntity
  8
2
  6
SOLID
 62
     7
100
AcDbCircle
 10
360.481325941
 20
-1647.997048126
 30
0.0
 40
2.0
100
AcDbArc
 50
0.0
 51
90.0
  0
LINE
  5
E2
330
A
100
AcDbEntity
  8
2
  6
SOLID
 62
     7
100
AcDbLine
 10
372.481325941
 20
-1645.997048126
 30
0.0
 11
317.910310818
 21
-1645.997048126
 31
0.0
  0
LINE
  5
E3
330
A
100
AcDbEntity
  8
1
  6
SOLID
 62
     1
100
AcDbLine
 10
-647.8765207799999
 20
-2233.520263185
 30
0.0
 11
-647.656520772
 21
-2233.520263185
 31
0.0
  0
LINE
  5
E4
330
A
100
AcDbEntity
  8
2
  6
CENTER
 62
     7
100
AcDbLine
 10
197.481325941
 20
-1962.409025339
 30
0.0
 11
197.481325941
 21
-2018.048299158
 31
0.0
  0
LINE
  5
E5
330
A
100
AcDbEntity
  8
2
  6
SOLID
 62
     7
100
AcDbLine
 10
210.542015712
 20
-1965.996992594
 30
0.0
 11
176.4786064709999
 21
-1965.996992594
 31
0.0
  0
LINE
  5
E6
330
A
100
AcDbEntity
  8
2
  6
L_DASH
 62
     3
100
AcDbLine
 10
190.981325941
 20
-1965.996992594
 30
0.0
 11
190.981325941
 21
-2005.996992594
 31
0.0
  0
LINE
  5
E7
330
A
100
AcDbEntity
  8
2
  6
SOLID
 62
     7
100
AcDbLine
 10
167.481325941
 20
-1970.996992594
 30
0.0
 11
167.481325941
 21
-2005.996992594
 31
0.0
  0
ARC
  5
E8
330
A
100
AcDbEntity
  8
2
  6
SOLID
 62
     7
100
AcDbCircle
 10
237.481325941
 20
-1995.996992594
 30
0.0
 40
10.0
100
AcDbArc
 50
90.0
 51
180.0
  0
LINE
  5
E9
330
A
100
AcDbEntity
  8
2
  6
SOLID
 62
     7
100
AcDbLine
 10
227.481325941
 20
-1995.996992594
 30
0.0
 11
227.481325941
 21
-2005.996992594
 31
0.0
  0
LINE
  5
EA
330
A
100
AcDbEntity
  8
2
  6
SOLID
 62
     7
100
AcDbLine
 10
167.481325941
 20
-2005.996992594
 30
0.0
 11
227.481325941
 21
-2005.996992594
 31
0.0
  0
LINE
  5
EB
330
A
100
AcDbEntity
  8
2
  6
CENTER
 62
     2
100
AcDbLine
 10
197.481325941
 20
-1962.409025339
 30
0.0
 11
197.481325941
 21
-2018.048299158
 31
0.0
  0
LINE
  5
EC
330
A
100
AcDbEntity
  8
2
  6
SOLID
 62
     7
100
AcDbLine
 10
237.481325941
 20
-1985.996992594
 30
0.0
 11
297.481325941
 21
-1985.996992594
 31
0.0
  0
LINE
  5
ED
330
A
100
AcDbEntity
  8
2
  6
L_DASH
 62
     3
100
AcDbLine
 10
189.481325941
 20
-1965.996992594
 30
0.0
 11
189.481325941
 21
-2005.996992594
 31
0.0
  0
LINE
  5
EE
330
A
100
AcDbEntity
  8
2
  6
L_DASH
 62
     3
100
AcDbLine
 10
203.981325941
 20
-1965.996992594
 30
0.0
 11
203.981325941
 21
-2005.996992594
 31
0.0
  0
LINE
  5
EF
330
A
100
AcDbEntity
  8
2
  6
L_DASH
 62
     3
100
AcDbLine
 10
205.481325941
 20
-1965.996992594
 30
0.0
 11
205.481325941
 21
-2005.996992594
 31
0.0
  0
DIMENSION
  5
FF
330
A
100
AcDbEntity
  8
3
  6
SOLID
 62
     3
100
AcDbDimension
  2
*D2
 10
167.480957031
 20
-2062.036621094
 30
0.0
 11
284.557647705
 21
-2056.536621094
 31
0.0
 71
     5
 42
0.0
  3
3
100
AcDbAlignedDimension
 13
427.480957031
 23
-2005.997070313
 33
0.0
 14
167.480957031
 24
-2005.997070313
 34
0.0
100
AcDbRotatedDimension
  0
DIMENSION
  5
10F
330
A
100
AcDbEntity
  8
3
  6
SOLID
 62
     3
100
AcDbDimension
  2
*D3
 10
197.4809570309999
 20
-2040.036621094
 30
0.0
 11
284.557647705
 21
-2034.536621094
 31
0.0
 71
     5
 42
0.0
  3
4
100
AcDbAlignedDimension
 13
397.480957031
 23
-2018.048339844
 33
0.0
 14
197.4809570309999
 24
-2018.048339844
 34
0.0
100
AcDbRotatedDimension
  0
DIMENSION
  5
11F
330
A
100
AcDbEntity
  8
3
  6
SOLID
 62
     3
100
AcDbDimension
  2
*D4
 10
227.480957031
 20
-2018.036621094
 30
0.0
 11
284.557647705
 21
-2012.536621094
 31
0.0
 71
     5
 42
0.0
  3
5
100
AcDbAlignedDimension
 13
367.480957031
 23
-2005.997070313
 33
0.0
 14
227.480957031
 24
-2005.997070313
 34
0.0
100
AcDbRotatedDimension
  0
DIMENSION
  5
12F
330
A
100
AcDbEntity
  8
3
  6
SOLID
 62
     3
100
AcDbDimension
  2
*D5
 10
375.753417969
 20
-2005.997070313
 30
0.0
 11
373.903411865
 21
-1988.710083007999
 31
0.0
 71
     5
 42
0.0
  3
6
100
AcDbAlignedDimension
 13
418.4838867189999
 23
-1965.997070312999
 33
0.0
 14
427.480957031
 24
-2005.997070313
 34
0.0
 50
90.0
100
AcDbRotatedDimension
  0
LINE
  5
130
330
A
100
AcDbEntity
  8
2
  6
CENTER
 62
     2
100
AcDbLine
 10
297.481325941
 20
-1632.545286408
 30
0.0
 11
297.481325941
 21
-1998.989496933
 31
0.0
  0
LINE
  5
131
330
A
100
AcDbEntity
  8
1
  6
SOLID
 62
     7
100
AcDbLine
 10
-289.2561310120001
 20
-1620.997088137
 30
0.0
 11
-304.256131012
 21
-1620.997088137
 31
0.0
  0
LINE
  5
132
330
A
100
AcDbEntity
  8
1
  6
CENTER
 62
     2
100
AcDbLine
 10
-304.256131012
 20
-1620.997088137
 30
0.0
 11
-307.256131012
 21
-1620.997088137
 31
0.0
  0
LINE
  5
133
330
A
100
AcDbEntity
  8
1
  6
SOLID
 62
     7
100
AcDbLine
 10
-506.2560875149999
 20
-1825.997070312
 30
0.0
 11
-506.2560875149999
 21
-1965.997098139
 31
0.0
  0
LINE
  5
134
330
A
100
AcDbEntity
  8
1
  6
SOLID
 62
     7
100
AcDbLine
 10
-368.580236106
 20
-1938.597066203
 30
0.0
 11
-291.256087515
 21
-1938.597066203
 31
0.0
  0
DIMENSION
  5
144
330
A
100
AcDbEntity
  8
1
  6
SOLID
 62
     3
100
AcDbDimension
  2
*D6
 10
-518.25604248
 20
-2036.769042969
 30
0.0
 11
-491.0888061519999
 21
-2031.269042969
 31
0.0
 71
     5
 42
0.0
  3
7
100
AcDbAlignedDimension
 13
-468.256072998
 23
-2005.997070313
 33
0.0
 14
-518.25604248
 24
-2005.997070313
 34
0.0
100
AcDbRotatedDimension
  0
LINE
  5
145
330
A
100
AcDbEntity
  8
1
  6
SOLID
 62
     7
100
AcDbLine
 10
-307.256131012
 20
-1620.997088137
 30
0.0
 11
-313.256131012
 21
-1620.997088137
 31
0.0
  0
LINE
  5
146
330
A
100
AcDbEntity
  8
1
  6
SOLID
 62
     7
100
AcDbLine
 10
-209.256102773
 20
-1744.997070313
 30
0.0
 11
-75.256102773
 21
-1744.997070313
 31
0.0
  0
DIMENSION
  5
157
330
A
100
AcDbEntity
  8
1
  6
SOLID
 62
     3
100
AcDbDimension
  2
*D7
 10
-263.256103516
 20
-2031.920776367
 30
0.0
 11
-201.942611694
 21
-2026.420776367
 31
0.0
 71
     5
 42
0.0
  3
8
100
AcDbAlignedDimension
 13
-213.256103516
 23
-2005.997070313
 33
0.0
 14
-263.256103516
 24
-2005.997070313
 34
0.0
100
AcDbRotatedDimension
  0
LINE
  5
158
330
A
100
AcDbEntity
  8
1
  6
CENTER
 62
     2
100
AcDbLine
 10
-313.256131012
 20
-1620.997088137
 30
0.0
 11
-329.591114154
 21
-1620.997088137
 31
0.0
  0
LINE
  5
159
330
A
100
AcDbEntity
  8
1
  6
CENTER
 62
     2
100
AcDbLine
 10
-313.256131012
 20
-1587.997088137
 30
0.0
 11
-328.72262637
 21
-1587.997088137
 31
0.0
  0
CIRCLE
  5
15A
330
A
100
AcDbEntity
  8
1
  6
SOLID
 62
     7
100
AcDbCircle
 10
297.481325941
 20
-1825.996992594
 30
0.0
 40
56.0
  0
LINE
  5
15B
330
A
100
AcDbEntity
  8
1
  6
SOLID
 62
     7
100
AcDbLine
 10
-526.498771699
 20
-1641.997048126
 30
0.0
 11
-581.2561310119999
 21
-1641.997048126
 31
0.0
  0
CIRCLE
  5
15C
330
A
100
AcDbEntity
  8
1
  6
SOLID
 62
     1
100
AcDbCircle
 10
297.481323242
 20
-1665.997070312999
 30
0.0
 40
6.5
  0
LINE
  5
15D
330
A
100
AcDbEntity
  8
1
  6
SOLID
 62
     1
100
AcDbLine
 10
-650.7835286099999
 20
-2232.03735426
 30
0.0
 11
-647.8765207799999
 21
-2232.03735426
 31
0.0
  0
LINE
  5
15E
330
A
100
AcDbEntity
  8
1
  6
SOLID
 62
     1
100
AcDbLine
 10
-647.8765207799999
 20
-2234.577695454
 30
0.0
 11
-647.8765207799999
 21
-2224.416330679
 31
0.0
  0
ARC
  5
15F
330
A
100
AcDbEntity
  8
1
  6
SOLID
 62
     7
100
AcDbCircle
 10
-215.256102773
 20
-2410.997045178
 30
0.0
 40
2.0
100
AcDbArc
 50
270.0
 51
0.0
  0
LINE
  5
160
330
A
100
AcDbEntity
  8
1
  6
SOLID
 62
     7
100
AcDbLine
 10
-209.256102773
 20
-1758.997070313
 30
0.0
 11
-75.256102773
 21
-1758.997070313
 31
0.0
  0
LINE
  5
161
330
A
100
AcDbEntity
  8
2
  6
SOLID
 62
     7
100
AcDbLine
 10
-441.2561325169999
 20
-2407.996981753
 30
0.0
 11
-445.2560875149999
 21
-2407.996981753
 31
0.0
  0
LINE
  5
162
330
A
100
AcDbEntity
  8
1
  6
CENTER
 62
     2
100
AcDbLine
 10
-147.255794567
 20
-2185.997070313
 30
0.0
 11
-147.255794567
 21
-2275.997070313
 31
0.0
  0
LINE
  5
163
330
A
100
AcDbEntity
  8
1
  6
CENTER
 62
     2
100
AcDbLine
 10
-161.255794567
 20
-2185.997070313
 30
0.0
 11
-161.255794567
 21
-2275.997070313
 31
0.0
  0
LINE
  5
164
330
A
100
AcDbEntity
  8
1
  6
CENTER
 62
     2
100
AcDbLine
 10
-175.255794567
 20
-2185.997070313
 30
0.0
 11
-175.255794567
 21
-2275.997070313
 31
0.0
  0
LINE
  5
165
330
A
100
AcDbEntity
  8
1
  6
SOLID
 62
     4
100
AcDbLine
 10
-368.580236106
 20
-2138.997070313
 30
0.0
 11
-291.256087515
 21
-2138.997070313
 31
0.0
  0
LINE
  5
166
330
A
100
AcDbEntity
  8
1
  6
SOLID
 62
     7
100
AcDbLine
 10
-74.25610277299999
 20
-1757.997070313
 30
0.0
 11
-74.25610277299999
 21
-1745.997070313
 31
0.0
  0
LINE
  5
167
330
A
100
AcDbEntity
  8
1
  6
SOLID
 62
     7
100
AcDbLine
 10
-209.256102773
 20
-1906.997070312
 30
0.0
 11
-75.256102773
 21
-1906.997070312
 31
0.0
  0
LINE
  5
168
330
A
100
AcDbEntity
  8
1
  6
SOLID
 62
     7
100
AcDbLine
 10
-209.256102773
 20
-1892.997070312
 30
0.0
 11
-75.256102773
 21
-1892.997070312
 31
0.0
  0
LINE
  5
169
330
A
100
AcDbEntity
  8
1
  6
SOLID
 62
     7
100
AcDbLine
 10
-74.25610277299999
 20
-1893.997070312
 30
0.0
 11
-74.25610277299999
 21
-1905.997070312
 31
0.0
  0
LINE
  5
16A
330
A
100
AcDbEntity
  8
1
  6
CENTER
 62
     2
100
AcDbLine
 10
-217.208555406
 20
-1719.497071934
 30
0.0
 11
-203.17734856
 21
-1719.497071934
 31
0.0
  0
LINE
  5
16B
330
A
100
AcDbEntity
  8
1
  6
CENTER
 62
     2
100
AcDbLine
 10
-233.461948931
 20
-1751.997070313
 30
0.0
 11
-62.45493113
 21
-1751.997070313
 31
0.0
  0
LINE
  5
16C
330
A
100
AcDbEntity
  8
1
  6
SOLID
 62
     7
100
AcDbLine
 10
-209.256102773
 20
-1766.997093219
 30
0.0
 11
-209.256102773
 21
-1701.997075712
 31
0.0
  0
LINE
  5
16D
330
A
100
AcDbEntity
  8
1
  6
SOLID
 62
     7
100
AcDbLine
 10
-291.256087515
 20
-2138.997070313
 30
0.0
 11
-291.256087515
 21
-2158.997070313
 31
0.0
  0
LINE
  5
16E
330
A
100
AcDbEntity
  8
2
  6
SOLID
 62
     7
100
AcDbLine
 10
-445.2560875149999
 20
-1825.997070313
 30
0.0
 11
-445.2560875149999
 21
-1722.997070313
 31
0.0
  0
LINE
  5
16F
330
A
100
AcDbEntity
  8
1
  6
SOLID
 62
     1
100
AcDbLine
 10
303.981323242
 20
-1669.749847174
 30
0.0
 11
303.981323242
 21
-1662.244293451
 31
0.0
  0
LINE
  5
170
330
A
100
AcDbEntity
  8
1
  6
SOLID
 62
     4
100
AcDbLine
 10
-368.580236106
 20
-1987.417903577
 30
0.0
 11
-291.256087515
 21
-1987.417903577
 31
0.0
  0
LINE
  5
171
330
A
100
AcDbEntity
  8
1
  6
SOLID
 62
     4
100
AcDbLine
 10
-368.580236106
 20
-1990.345128184
 30
0.0
 11
-291.256087515
 21
-1990.345128184
 31
0.0
  0
LINE
  5
172
330
A
100
AcDbEntity
  8
1
  6
SOLID
 62
     7
100
AcDbLine
 10
-441.2561325169999
 20
-1658.997095447
 30
0.0
 11
-441.2561325169999
 21
-1708.997070313
 31
0.0
  0
LINE
  5
173
330
A
100
AcDbEntity
  8
1
  6
CENTER
 62
     2
100
AcDbLine
 10
-523.2560875149999
 20
-1715.997070312999
 30
0.0
 11
-445.767352424
 21
-1715.997070312999
 31
0.0
  0
DIMENSION
  5
183
330
A
100
AcDbEntity
  8
1
  6
SOLID
 62
     3
100
AcDbDimension
  2
*D8
 10
123.364494324
 20
-2005.996948242
 30
0.0
 11
117.864494324
 21
-1991.521118164
 31
0.0
 71
     5
 42
0.0
  3
9
100
AcDbAlignedDimension
 13
139.981323242
 23
-1959.996948242
 33
0.0
 14
167.481323242
 24
-2005.996948242
 34
0.0
 50
90.0
100
AcDbRotatedDimension
  0
LINE
  5
184
330
A
100
AcDbEntity
  8
1
  6
SOLID
 62
     7
100
AcDbLine
 10
-213.256102773
 20
-1701.997075712
 30
0.0
 11
-209.256102773
 21
-1701.997075712
 31
0.0
  0
LINE
  5
185
330
A
100
AcDbEntity
  8
1
  6
SOLID
 62
     7
100
AcDbLine
 10
-213.256102773
 20
-1766.997093219
 30
0.0
 11
-209.256102773
 21
-1766.997093219
 31
0.0
  0
LINE
  5
186
330
A
100
AcDbEntity
  8
1
  6
SOLID
 62
     7
100
AcDbLine
 10
-493.4560728069999
 20
-1928.997070313
 30
0.0
 11
-441.2561325169999
 21
-1928.997070313
 31
0.0
  0
LINE
  5
187
330
A
100
AcDbEntity
  8
1
  6
SOLID
 62
     7
100
AcDbLine
 10
-368.580236106
 20
-1942.997070313
 30
0.0
 11
-263.256102773
 21
-1942.997070313
 31
0.0
  0
DIMENSION
  5
197
330
A
100
AcDbEntity
  8
1
  6
SOLID
 62
     3
100
AcDbDimension
  2
*D9
 10
123.364494324
 20
-1959.996948242
 30
0.0
 11
117.864494324
 21
-1832.920288086
 31
0.0
 71
     5
 42
0.0
  3
10
100
AcDbAlignedDimension
 13
139.981323242
 23
-1679.996948242
 33
0.0
 14
139.981323242
 24
-1959.996948242
 34
0.0
 50
90.0
100
AcDbRotatedDimension
  0
LINE
  5
198
330
A
100
AcDbEntity
  8
1
  6
CENTER
 62
     2
100
AcDbLine
 10
-233.461948931
 20
-1899.997070312
 30
0.0
 11
-62.45493113
 21
-1899.997070312
 31
0.0
  0
LINE
  5
199
330
A
100
AcDbEntity
  8
1
  6
SOLID
 62
     7
100
AcDbLine
 10
-213.256102773
 20
-1949.997064913
 30
0.0
 11
-209.256102773
 21
-1949.997064913
 31
0.0
  0
LINE
  5
19A
330
A
100
AcDbEntity
  8
1
  6
SOLID
 62
     4
100
AcDbLine
 10
-368.580236106
 20
-1992.345128184
 30
0.0
 11
-291.256087515
 21
-1992.345128184
 31
0.0
  0
LINE
  5
19B
330
A
100
AcDbEntity
  8
1
  6
SOLID
 62
     7
100
AcDbLine
 10
-368.580236106
 20
-1993.045128194
 30
0.0
 11
-291.256087515
 21
-1993.045128194
 31
0.0
  0
LINE
  5
19C
330
A
100
AcDbEntity
  8
1
  6
SOLID
 62
     7
100
AcDbLine
 10
-209.256102773
 20
-1884.997047406
 30
0.0
 11
-209.256102773
 21
-1949.997064913
 31
0.0
  0
LINE
  5
19D
330
A
100
AcDbEntity
  8
2
  6
SOLID
 62
     7
100
AcDbLine
 10
-445.2560875149999
 20
-1825.997070313
 30
0.0
 11
-445.2560875149999
 21
-1928.997070313
 31
0.0
  0
LINE
  5
19E
330
A
100
AcDbEntity
  8
1
  6
SOLID
 62
     7
100
AcDbLine
 10
-441.2561325169999
 20
-1938.597066203
 30
0.0
 11
-441.2561325169999
 21
-1825.997070313
 31
0.0
  0
DIMENSION
  5
1AE
330
A
100
AcDbEntity
  8
1
  6
SOLID
 62
     3
100
AcDbDimension
  2
*D10
 10
96.785964966
 20
-2005.996948242
 30
0.0
 11
91.28596496600001
 21
-1856.37890625
 31
0.0
 71
     5
 42
0.0
  3
11
100
AcDbAlignedDimension
 13
139.981323242
 23
-1679.996948242
 33
0.0
 14
167.481323242
 24
-2005.996948242
 34
0.0
 50
90.0
100
AcDbRotatedDimension
  0
LINE
  5
1AF
330
A
100
AcDbEntity
  8
1
  6
CENTER
 62
     2
100
AcDbLine
 10
-217.208555406
 20
-1932.497068691
 30
0.0
 11
-203.17734856
 21
-1932.497068691
 31
0.0
  0
LINE
  5
1B0
330
A
100
AcDbEntity
  8
1
  6
SOLID
 62
     7
100
AcDbLine
 10
-213.256102773
 20
-1884.997047406
 30
0.0
 11
-209.256102773
 21
-1884.997047406
 31
0.0
  0
LINE
  5
1B1
330
A
100
AcDbEntity
  8
1
  6
SOLID
 62
     7
100
AcDbLine
 10
-207.256102773
 20
-1825.997070313
 30
0.0
 11
-207.256102773
 21
-1892.997070312
 31
0.0
  0
LINE
  5
1B2
330
A
100
AcDbEntity
  8
1
  6
SOLID
 62
     7
100
AcDbLine
 10
-200.255794567
 20
-1703.997065016
 30
0.0
 11
-200.255794567
 21
-1744.997070313
 31
0.0
  0
LINE
  5
1B3
330
A
100
AcDbEntity
  8
1
  6
CENTER
 62
     2
100
AcDbLine
 10
-189.255794567
 20
-1691.275693822
 30
0.0
 11
-189.255794567
 21
-1744.997070313
 31
0.0
  0
LINE
  5
1B4
330
A
100
AcDbEntity
  8
1
  6
CENTER
 62
     2
100
AcDbLine
 10
-175.255794567
 20
-1691.275693822
 30
0.0
 11
-175.255794567
 21
-1744.997070313
 31
0.0
  0
LINE
  5
1B5
330
A
100
AcDbEntity
  8
1
  6
CENTER
 62
     2
100
AcDbLine
 10
-161.255794567
 20
-1691.275693822
 30
0.0
 11
-161.255794567
 21
-1744.997070313
 31
0.0
  0
LINE
  5
1B6
330
A
100
AcDbEntity
  8
1
  6
CENTER
 62
     2
100
AcDbLine
 10
-147.255794567
 20
-1691.275693822
 30
0.0
 11
-147.255794567
 21
-1744.997070313
 31
0.0
  0
LINE
  5
1B7
330
A
100
AcDbEntity
  8
1
  6
SOLID
 62
     7
100
AcDbLine
 10
-80.25579456699999
 20
-1703.997065016
 30
0.0
 11
-80.25579456699999
 21
-1744.997070313
 31
0.0
  0
LINE
  5
1B8
330
A
100
AcDbEntity
  8
1
  6
CENTER
 62
     2
100
AcDbLine
 10
-133.255794567
 20
-1691.275693822
 30
0.0
 11
-133.255794567
 21
-1744.997070313
 31
0.0
  0
LINE
  5
1B9
330
A
100
AcDbEntity
  8
1
  6
SOLID
 62
     7
100
AcDbLine
 10
-441.2561325169999
 20
-1992.997045178
 30
0.0
 11
-441.2561325169999
 21
-1942.997070313
 31
0.0
  0
LINE
  5
1BA
330
A
100
AcDbEntity
  8
2
  6
SOLID
 62
     7
100
AcDbLine
 10
-445.2560875149999
 20
-1942.997070313
 30
0.0
 11
-445.2560875149999
 21
-1962.996981753
 31
0.0
  0
DIMENSION
  5
1CA
330
A
100
AcDbEntity
  8
1
  6
SOLID
 62
     3
100
AcDbDimension
  2
*D11
 10
139.981323242
 20
-2084.036621094
 30
0.0
 11
284.558013916
 21
-2078.536621094
 31
0.0
  1
  320   
 71
     5
 42
0.0
  3
12
100
AcDbAlignedDimension
 13
454.981323242
 23
-1959.996948242
 33
0.0
 14
139.981323242
 24
-1959.996948242
 34
0.0
100
AcDbRotatedDimension
  0
LINE
  5
1CB
330
A
100
AcDbEntity
  8
2
  6
SOLID
 62
     7
100
AcDbLine
 10
437.4813259409999
 20
-1960.996992594
 30
0.0
 11
437.4813259409999
 21
-1959.996992594
 31
0.0
  0
LINE
  5
1CC
330
A
100
AcDbEntity
  8
1
  6
SOLID
 62
     7
100
AcDbLine
 10
454.9813259409999
 20
-1959.996992594
 30
0.0
 11
334.981325941
 21
-1959.996992594
 31
0.0
  0
LINE
  5
1CD
330
A
100
AcDbEntity
  8
1
  6
CENTER
 62
     2
100
AcDbLine
 10
-119.255794567
 20
-1691.275693822
 30
0.0
 11
-119.255794567
 21
-1744.997070313
 31
0.0
  0
LINE
  5
1CE
330
A
100
AcDbEntity
  8
1
  6
CENTER
 62
     2
100
AcDbLine
 10
-105.255794567
 20
-1691.275693822
 30
0.0
 11
-105.255794567
 21
-1744.997070313
 31
0.0
  0
LINE
  5
1CF
330
A
100
AcDbEntity
  8
1
  6
CENTER
 62
     2
100
AcDbLine
 10
-91.255794567
 20
-1691.275693822
 30
0.0
 11
-91.255794567
 21
-1744.997070313
 31
0.0
  0
LINE
  5
1D0
330
A
100
AcDbEntity
  8
1
  6
SOLID
 62
     7
100
AcDbLine
 10
-200.255794567
 20
-1825.997070313
 30
0.0
 11
-200.255794567
 21
-1892.997070312
 31
0.0
  0
LINE
  5
1D1
330
A
100
AcDbEntity
  8
1
  6
CENTER
 62
     2
100
AcDbLine
 10
-189.255794567
 20
-1960.718446803
 30
0.0
 11
-189.255794567
 21
-1906.997070312
 31
0.0
  0
LINE
  5
1D2
330
A
100
AcDbEntity
  8
2
  6
CENTER
 62
     2
100
AcDbLine
 10
402.6665617809999
 20
-1944.996992594
 30
0.0
 11
428.538458114
 21
-1944.996992594
 31
0.0
  0
LINE
  5
1D3
330
A
100
AcDbEntity
  8
1
  6
CENTER
 62
     2
100
AcDbLine
 10
-175.255794567
 20
-1960.718446803
 30
0.0
 11
-175.255794567
 21
-1906.997070312
 31
0.0
  0
LINE
  5
1D4
330
A
100
AcDbEntity
  8
1
  6
CENTER
 62
     2
100
AcDbLine
 10
-161.255794567
 20
-1960.718446803
 30
0.0
 11
-161.255794567
 21
-1906.997070312
 31
0.0
  0
LINE
  5
1D5
330
A
100
AcDbEntity
  8
1
  6
CENTER
 62
     2
100
AcDbLine
 10
-147.255794567
 20
-1960.718446803
 30
0.0
 11
-147.255794567
 21
-1906.997070312
 31
0.0
  0
LINE
  5
1D6
330
A
100
AcDbEntity
  8
1
  6
CENTER
 62
     2
100
AcDbLine
 10
-133.255794567
 20
-1960.718446803
 30
0.0
 11
-133.255794567
 21
-1906.997070312
 31
0.0
  0
LINE
  5
1D7
330
A
100
AcDbEntity
  8
1
  6
CENTER
 62
     2
100
AcDbLine
 10
-119.255794567
 20
-1960.718446803
 30
0.0
 11
-119.255794567
 21
-1906.997070312
 31
0.0
  0
LINE
  5
1D8
330
A
100
AcDbEntity
  8
1
  6
CENTER
 62
     2
100
AcDbLine
 10
-105.255794567
 20
-1960.718446803
 30
0.0
 11
-105.255794567
 21
-1906.997070312
 31
0.0
  0
LINE
  5
1D9
330
A
100
AcDbEntity
  8
2
  6
CENTER
 62
     2
100
AcDbLine
 10
360.666561781
 20
-1944.996992594
 30
0.0
 11
382.967545121
 21
-1944.996992594
 31
0.0
  0
LINE
  5
1DA
330
A
100
AcDbEntity
  8
1
  6
CENTER
 62
     2
100
AcDbLine
 10
-91.255794567
 20
-1960.718446803
 30
0.0
 11
-91.255794567
 21
-1906.997070312
 31
0.0
  0
LINE
  5
1DB
330
A
100
AcDbEntity
  8
1
  6
SOLID
 62
     7
100
AcDbLine
 10
-80.25579456699999
 20
-1758.997070313
 30
0.0
 11
-80.25579456699999
 21
-1892.997070312
 31
0.0
  0
LINE
  5
1DC
330
A
100
AcDbEntity
  8
1
  6
CENTER
 62
     2
100
AcDbLine
 10
-189.255794567
 20
-2185.997070313
 30
0.0
 11
-189.255794567
 21
-2275.997070313
 31
0.0
  0
LINE
  5
1DD
330
A
100
AcDbEntity
  8
1
  6
CENTER
 62
     2
100
AcDbLine
 10
-133.255794567
 20
-2185.997070313
 30
0.0
 11
-133.255794567
 21
-2275.997070313
 31
0.0
  0
LINE
  5
1DE
330
A
100
AcDbEntity
  8
2
  6
CENTER
 62
     2
100
AcDbLine
 10
415.9813259409999
 20
-1930.975571747
 30
0.0
 11
415.9813259409999
 21
-1960.31897088
 31
0.0
  0
CIRCLE
  5
1DF
330
A
100
AcDbEntity
  8
2
  6
SOLID
 62
     7
100
AcDbCircle
 10
415.9813259409999
 20
-1944.996992594
 30
0.0
 40
4.199999808999999
  0
ARC
  5
1E0
330
A
100
AcDbEntity
  8
2
  6
SOLID
 62
     7
100
AcDbCircle
 10
415.9813259409999
 20
-1944.996992594
 30
0.0
 40
5.0
100
AcDbArc
 50
200.0
 51
140.0
  0
LINE
  5
1E1
330
A
100
AcDbEntity
  8
2
  6
CENTER
 62
     2
100
AcDbLine
 10
373.9813259409999
 20
-1930.975571747
 30
0.0
 11
373.9813259409999
 21
-1960.31897088
 31
0.0
  0
CIRCLE
  5
1E2
330
A
100
AcDbEntity
  8
2
  6
SOLID
 62
     7
100
AcDbCircle
 10
373.9813259409999
 20
-1944.996992594
 30
0.0
 40
4.199999808999999
  0
ARC
  5
1E3
330
A
100
AcDbEntity
  8
2
  6
SOLID
 62
     7
100
AcDbCircle
 10
373.9813259409999
 20
-1944.996992594
 30
0.0
 40
5.0
100
AcDbArc
 50
200.0
 51
140.0
  0
ARC
  5
1E4
330
A
100
AcDbEntity
  8
1
  6
SOLID
 62
     7
100
AcDbCircle
 10
297.481325941
 20
-1825.996992594
 30
0.0
 40
127.0
100
AcDbArc
 50
270.0
 51
287.174063718
  0
ARC
  5
1E5
330
A
100
AcDbEntity
  8
1
  6
SOLID
 62
     7
100
AcDbCircle
 10
297.481325941
 20
-1825.996992594
 30
0.0
 40
100.0
100
AcDbArc
 50
270.0
 51
292.024312837
  0
LINE
  5
1E6
330
A
100
AcDbEntity
  8
1
  6
SOLID
 62
     7
100
AcDbLine
 10
259.981325941
 20
-1679.996992594
 30
0.0
 11
259.981325941
 21
-1784.40672931
 31
0.0
  0
ARC
  5
1E7
330
A
100
AcDbEntity
  8
1
  6
SOLID
 62
     7
100
AcDbCircle
 10
297.481325941
 20
-1825.996992594
 30
0.0
 40
100.0
100
AcDbArc
 50
67.975687163
 51
90.0
  0
LINE
  5
1E8
330
A
100
AcDbEntity
  8
1
  6
SOLID
 62
     7
100
AcDbLine
 10
334.981325941
 20
-1679.996992594
 30
0.0
 11
334.981325941
 21
-1784.40672931
 31
0.0
  0
ARC
  5
1E9
330
A
100
AcDbEntity
  8
1
  6
SOLID
 62
     7
100
AcDbCircle
 10
297.481325941
 20
-1825.996992594
 30
0.0
 40
127.0
100
AcDbArc
 50
72.825936282
 51
90.0
  0
LINE
  5
1EA
330
A
100
AcDbEntity
  8
1
  6
SOLID
 62
     7
100
AcDbLine
 10
334.981325941
 20
-1867.587255877
 30
0.0
 11
334.981325941
 21
-1959.996992594
 31
0.0
  0
LINE
  5
1EB
330
A
100
AcDbEntity
  8
2
  6
CENTER
 62
     7
100
AcDbLine
 10
360.666561781
 20
-1706.996992594
 30
0.0
 11
382.967545121
 21
-1706.996992594
 31
0.0
  0
LINE
  5
1EC
330
A
100
AcDbEntity
  8
2
  6
CENTER
 62
     2
100
AcDbLine
 10
373.9813259409999
 20
-1721.01841344
 30
0.0
 11
373.9813259409999
 21
-1691.675014308
 31
0.0
  0
CIRCLE
  5
1ED
330
A
100
AcDbEntity
  8
2
  6
SOLID
 62
     7
100
AcDbCircle
 10
373.9813259409999
 20
-1706.996992594
 30
0.0
 40
4.199999808999999
  0
ARC
  5
1EE
330
A
100
AcDbEntity
  8
2
  6
SOLID
 62
     7
100
AcDbCircle
 10
373.9813259409999
 20
-1706.996992594
 30
0.0
 40
5.0
100
AcDbArc
 50
220.0
 51
160.0
  0
LINE
  5
1EF
330
A
100
AcDbEntity
  8
1
  6
SOLID
 62
     7
100
AcDbLine
 10
454.9813259409999
 20
-1679.996992594
 30
0.0
 11
334.981325941
 21
-1679.996992594
 31
0.0
  0
LINE
  5
1F0
330
A
100
AcDbEntity
  8
1
  6
SOLID
 62
     7
100
AcDbLine
 10
454.9813259409999
 20
-1691.996992594
 30
0.0
 11
334.981325941
 21
-1691.996992594
 31
0.0
  0
LINE
  5
1F1
330
A
100
AcDbEntity
  8
1
  6
SOLID
 62
     7
100
AcDbLine
 10
454.9813259409999
 20
-1679.996992594
 30
0.0
 11
454.9813259409999
 21
-1959.996992594
 31
0.0
  0
LINE
  5
1F2
330
A
100
AcDbEntity
  8
2
  6
CENTER
 62
     2
100
AcDbLine
 10
402.6665617809999
 20
-1706.996992594
 30
0.0
 11
428.538458114
 21
-1706.996992594
 31
0.0
  0
LINE
  5
1F3
330
A
100
AcDbEntity
  8
2
  6
CENTER
 62
     2
100
AcDbLine
 10
415.9813259409999
 20
-1721.01841344
 30
0.0
 11
415.9813259409999
 21
-1691.675014308
 31
0.0
  0
CIRCLE
  5
1F4
330
A
100
AcDbEntity
  8
2
  6
SOLID
 62
     7
100
AcDbCircle
 10
415.9813259409999
 20
-1706.996992594
 30
0.0
 40
4.199999808999999
  0
ARC
  5
1F5
330
A
100
AcDbEntity
  8
2
  6
SOLID
 62
     7
100
AcDbCircle
 10
415.9813259409999
 20
-1706.996992594
 30
0.0
 40
5.0
100
AcDbArc
 50
220.0
 51
160.0
  0
LINE
  5
1F6
330
A
100
AcDbEntity
  8
2
  6
SOLID
 62
     7
100
AcDbLine
 10
334.981325941
 20
-1685.996992594
 30
0.0
 11
297.481325941
 21
-1685.996992594
 31
0.0
  0
ARC
  5
1F7
330
A
100
AcDbEntity
  8
1
  6
SOLID
 62
     7
100
AcDbCircle
 10
297.481325941
 20
-1825.996992594
 30
0.0
 40
127.0
100
AcDbArc
 50
252.825936282
 51
270.0
  0
ARC
  5
1F8
330
A
100
AcDbEntity
  8
1
  6
SOLID
 62
     7
100
AcDbCircle
 10
297.481325941
 20
-1825.996992594
 30
0.0
 40
100.0
100
AcDbArc
 50
247.975687163
 51
270.0
  0
LINE
  5
1F9
330
A
100
AcDbEntity
  8
2
  6
CENTER
 62
     2
100
AcDbLine
 10
248.981325941
 20
-1823.604511247
 30
0.0
 11
248.981325941
 21
-1832.155827902999
 31
0.0
  0
LINE
  5
1FA
330
A
100
AcDbEntity
  8
2
  6
CENTER
 62
     2
100
AcDbLine
 10
192.296090102
 20
-1944.996992594
 30
0.0
 11
166.424193769
 21
-1944.996992594
 31
0.0
  0
LINE
  5
1FB
330
A
100
AcDbEntity
  8
2
  6
CENTER
 62
     2
100
AcDbLine
 10
178.981325941
 20
-1930.975571747
 30
0.0
 11
178.981325941
 21
-1960.31897088
 31
0.0
  0
CIRCLE
  5
1FC
330
A
100
AcDbEntity
  8
2
  6
SOLID
 62
     7
100
AcDbCircle
 10
178.981325941
 20
-1944.996992594
 30
0.0
 40
4.199999808999999
  0
ARC
  5
1FD
330
A
100
AcDbEntity
  8
2
  6
SOLID
 62
     7
100
AcDbCircle
 10
178.981325941
 20
-1944.996992594
 30
0.0
 40
5.0
100
AcDbArc
 50
40.0
 51
340.0
  0
LINE
  5
1FE
330
A
100
AcDbEntity
  8
2
  6
CENTER
 62
     2
100
AcDbLine
 10
234.296090102
 20
-1944.996992594
 30
0.0
 11
211.995106762
 21
-1944.996992594
 31
0.0
  0
LINE
  5
1FF
330
A
100
AcDbEntity
  8
2
  6
CENTER
 62
     2
100
AcDbLine
 10
220.981325941
 20
-1930.975571747
 30
0.0
 11
220.981325941
 21
-1960.31897088
 31
0.0
  0
CIRCLE
  5
200
330
A
100
AcDbEntity
  8
2
  6
SOLID
 62
     7
100
AcDbCircle
 10
220.981325941
 20
-1944.996992594
 30
0.0
 40
4.199999808999999
  0
LINE
  5
201
330
A
100
AcDbEntity
  8
2
  6
CENTER
 62
     2
100
AcDbLine
 10
345.981325941
 20
-1821.720322831
 30
0.0
 11
345.981325941
 21
-1830.851389769
 31
0.0
  0
ARC
  5
202
330
A
100
AcDbEntity
  8
1
  6
SOLID
 62
     7
100
AcDbCircle
 10
297.481325941
 20
-1825.996992594
 30
0.0
 40
100.0
100
AcDbArc
 50
90.0
 51
112.024312837
  0
ARC
  5
203
330
A
100
AcDbEntity
  8
2
  6
SOLID
 62
     7
100
AcDbCircle
 10
220.981325941
 20
-1944.996992594
 30
0.0
 40
5.0
100
AcDbArc
 50
40.0
 51
340.0
  0
ARC
  5
204
330
A
100
AcDbEntity
  8
1
  6
SOLID
 62
     7
100
AcDbCircle
 10
297.481325941
 20
-1825.996992594
 30
0.0
 40
127.0
100
AcDbArc
 50
90.0
 51
107.174063718
  0
LINE
  5
205
330
A
100
AcDbEntity
  8
1
  6
SOLID
 62
     7
100
AcDbLine
 10
139.981325941
 20
-1679.996992594
 30
0.0
 11
259.981325941
 21
-1679.996992594
 31
0.0
  0
LINE
  5
206
330
A
100
AcDbEntity
  8
1
  6
SOLID
 62
     7
100
AcDbLine
 10
139.981325941
 20
-1691.996992594
 30
0.0
 11
259.981325941
 21
-1691.996992594
 31
0.0
  0
LINE
  5
207
330
A
100
AcDbEntity
  8
1
  6
SOLID
 62
     7
100
AcDbLine
 10
139.981325941
 20
-1959.996992594
 30
0.0
 11
259.981325941
 21
-1959.996992594
 31
0.0
  0
LINE
  5
208
330
A
100
AcDbEntity
  8
1
  6
SOLID
 62
     1
100
AcDbLine
 10
297.481323242
 20
-1673.502624035
 30
0.0
 11
303.981323406
 21
-1669.749847123
 31
0.0
  0
LINE
  5
209
330
A
100
AcDbEntity
  8
1
  6
SOLID
 62
     1
100
AcDbLine
 10
290.981323242
 20
-1669.749847174
 30
0.0
 11
297.481323406
 21
-1673.502624085
 31
0.0
  0
LINE
  5
20A
330
A
100
AcDbEntity
  8
1
  6
SOLID
 62
     1
100
AcDbLine
 10
290.981323242
 20
-1662.244293451
 30
0.0
 11
290.981323242
 21
-1669.749847174
 31
0.0
  0
LINE
  5
20B
330
A
100
AcDbEntity
  8
1
  6
CENTER
 62
     2
100
AcDbLine
 10
-523.2560875149999
 20
-1935.997070313
 30
0.0
 11
-445.767352424
 21
-1935.997070313
 31
0.0
  0
LINE
  5
20C
330
A
100
AcDbEntity
  8
1
  6
SOLID
 62
     7
100
AcDbLine
 10
-291.256087515
 20
-1992.997045178
 30
0.0
 11
-291.256087515
 21
-1942.997070313
 31
0.0
  0
DIMENSION
  5
21D
330
A
100
AcDbEntity
  8
1
  6
SOLID
 62
     3
100
AcDbDimension
  2
*D12
 10
-22.251976013
 20
-1947.997070313
 30
0.0
 11
-27.751976013
 21
-1863.209838867
 31
0.0
  1
 %%c 210/240   
 71
     5
 42
0.0
  3
13
100
AcDbAlignedDimension
 13
-80.25579834
 23
-1703.997070313
 33
0.0
 14
-80.25579834
 24
-1947.997070313
 34
0.0
 50
90.0
100
AcDbRotatedDimension
  0
LINE
  5
21E
330
A
100
AcDbEntity
  8
1
  6
SOLID
 62
     7
100
AcDbLine
 10
-291.256087515
 20
-1938.597066203
 30
0.0
 11
-291.256087515
 21
-1825.997070313
 31
0.0
  0
LINE
  5
21F
330
A
100
AcDbEntity
  8
1
  6
SOLID
 62
     7
100
AcDbLine
 10
-287.256087515
 20
-1928.997070313
 30
0.0
 11
-287.256087515
 21
-1825.997070313
 31
0.0
  0
DIMENSION
  5
22F
330
A
100
AcDbEntity
  8
1
  6
SOLID
 62
     3
100
AcDbDimension
  2
*D13
 10
-140.25579834
 20
-2062.13671875
 30
0.0
 11
-118.321334839
 21
-2056.63671875
 31
0.0
 71
     5
 42
0.0
  3
14
100
AcDbAlignedDimension
 13
-80.25579834
 23
-1846.516845703
 33
0.0
 14
-140.25579834
 24
-1947.997070313
 34
0.0
100
AcDbRotatedDimension
  0
LINE
  5
230
330
A
100
AcDbEntity
  8
1
  6
SOLID
 62
     7
100
AcDbLine
 10
-291.256087515
 20
-1928.997070313
 30
0.0
 11
-263.256102773
 21
-1928.997070313
 31
0.0
  0
LINE
  5
231
330
A
100
AcDbEntity
  8
1
  6
SOLID
 62
     7
100
AcDbLine
 10
-287.256087515
 20
-1962.997045177999
 30
0.0
 11
-287.256087515
 21
-1942.997070313
 31
0.0
  0
DIMENSION
  5
241
330
A
100
AcDbEntity
  8
1
  6
SOLID
 62
     3
100
AcDbDimension
  2
*D14
 10
-707.7968139649999
 20
-2005.997070313
 30
0.0
 11
-713.2968139649999
 21
-1796.420410156
 31
0.0
 71
     5
 42
0.0
  3
15
100
AcDbAlignedDimension
 13
-513.2561035159999
 23
-1560.997192383
 33
0.0
 14
-518.25604248
 24
-2005.997070313
 34
0.0
 50
90.0
100
AcDbRotatedDimension
  0
LINE
  5
242
330
A
100
AcDbEntity
  8
1
  6
CENTER
 62
     2
100
AcDbLine
 10
-285.818838889
 20
-1935.997070313
 30
0.0
 11
-220.159743285
 21
-1935.997070313
 31
0.0
  0
LINE
  5
243
330
A
100
AcDbEntity
  8
1
  6
SOLID
 62
     7
100
AcDbLine
 10
-232.256102773
 20
-1942.997070313
 30
0.0
 11
-228.256102773
 21
-1942.997070313
 31
0.0
  0
DIMENSION
  5
253
330
A
100
AcDbEntity
  8
1
  6
SOLID
 62
     3
100
AcDbDimension
  2
*D15
 10
-236.256103516
 20
-2062.236572266
 30
0.0
 11
-196.780105591
 21
-2056.736572266
 31
0.0
 71
     5
 42
0.0
  3
16
100
AcDbAlignedDimension
 13
-140.25579834
 23
-1846.516845703
 33
0.0
 14
-236.256103516
 24
-2005.997070313
 34
0.0
100
AcDbRotatedDimension
  0
LINE
  5
254
330
A
100
AcDbEntity
  8
1
  6
SOLID
 62
     7
100
AcDbLine
 10
-232.256102773
 20
-1928.997070313
 30
0.0
 11
-228.256102773
 21
-1928.997070313
 31
0.0
  0
LINE
  5
255
330
A
100
AcDbEntity
  8
1
  6
SOLID
 62
     7
100
AcDbLine
 10
-232.256102773
 20
-1927.497070313
 30
0.0
 11
-232.256102773
 21
-1944.497070313
 31
0.0
  0
LINE
  5
256
330
A
100
AcDbEntity
  8
1
  6
SOLID
 62
     1
100
AcDbLine
 10
-619.6561431799999
 20
-1699.681948185
 30
0.0
 11
-620.0561431849999
 21
-1699.681948185
 31
0.0
  0
LINE
  5
257
330
A
100
AcDbEntity
  8
1
  6
SOLID
 62
     1
100
AcDbLine
 10
-619.6561431799999
 20
-1714.311948299
 30
0.0
 11
-619.6561431799999
 21
-1699.681948185
 31
0.0
  0
LINE
  5
258
330
A
100
AcDbEntity
  8
1
  6
SOLID
 62
     1
100
AcDbLine
 10
-620.0561431849999
 20
-1714.311948299
 30
0.0
 11
-619.6561431799999
 21
-1714.311948299
 31
0.0
  0
LINE
  5
259
330
A
100
AcDbEntity
  8
1
  6
SOLID
 62
     1
100
AcDbLine
 10
-626.0561432749999
 20
-1713.925151348
 30
0.0
 11
-626.0561432749999
 21
-1700.068745136
 31
0.0
  0
ARC
  5
25A
330
A
100
AcDbEntity
  8
1
  6
SOLID
 62
     1
100
AcDbCircle
 10
-621.966828154
 20
-1713.925151348
 30
0.0
 40
4.089315121
100
AcDbArc
 50
145.615740999
 51
214.384259001
  0
LINE
  5
25B
330
A
100
AcDbEntity
  8
1
  6
SOLID
 62
     1
100
AcDbLine
 10
-625.341611853
 20
-1711.615750313
 30
0.0
 11
-620.0561431849999
 21
-1711.615750313
 31
0.0
  0
ARC
  5
25C
330
A
100
AcDbEntity
  8
1
  6
SOLID
 62
     1
100
AcDbCircle
 10
-610.7706799219999
 20
-1706.996948242
 30
0.0
 40
15.285463353
100
AcDbArc
 50
162.412040055
 51
197.587959945
  0
LINE
  5
25D
330
A
100
AcDbEntity
  8
1
  6
SOLID
 62
     1
100
AcDbLine
 10
-625.341611853
 20
-1702.378146172
 30
0.0
 11
-620.0561431849999
 21
-1702.378146172
 31
0.0
  0
ARC
  5
25E
330
A
100
AcDbEntity
  8
1
  6
SOLID
 62
     1
100
AcDbCircle
 10
-621.966828154
 20
-1700.068745136
 30
0.0
 40
4.089315121
100
AcDbArc
 50
145.615740999
 51
214.384259001
  0
LINE
  5
25F
330
A
100
AcDbEntity
  8
1
  6
SOLID
 62
     1
100
AcDbLine
 10
-620.0561431849999
 20
-1697.759344101
 30
0.0
 11
-625.341611853
 21
-1697.759344101
 31
0.0
  0
LINE
  5
260
330
A
100
AcDbEntity
  8
1
  6
SOLID
 62
     1
100
AcDbLine
 10
-620.0561431849999
 20
-1716.234552383
 30
0.0
 11
-620.0561431849999
 21
-1697.759344101
 31
0.0
  0
LINE
  5
261
330
A
100
AcDbEntity
  8
1
  6
SOLID
 62
     1
100
AcDbLine
 10
-625.341611853
 20
-1716.234552383
 30
0.0
 11
-620.0561431849999
 21
-1716.234552383
 31
0.0
  0
LINE
  5
262
330
A
100
AcDbEntity
  8
1
  6
SOLID
 62
     7
100
AcDbLine
 10
-619.6560890409999
 20
-1691.997070313
 30
0.0
 11
-619.6560890409999
 21
-1825.997070313
 31
0.0
  0
LINE
  5
263
330
A
100
AcDbEntity
  8
1
  6
SOLID
 62
     7
100
AcDbLine
 10
-560.656087133
 20
-1679.997070313
 30
0.0
 11
-560.656087133
 21
-1825.997070313
 31
0.0
  0
LINE
  5
264
330
A
100
AcDbEntity
  8
1
  6
SOLID
 62
     7
100
AcDbLine
 10
-541.2560875149999
 20
-1679.997070313
 30
0.0
 11
-560.656087133
 21
-1679.997070313
 31
0.0
  0
LINE
  5
265
330
A
100
AcDbEntity
  8
1
  6
SOLID
 62
     7
100
AcDbLine
 10
-560.656087133
 20
-1691.997070313
 30
0.0
 11
-619.6560890409999
 21
-1691.997070313
 31
0.0
  0
LINE
  5
266
330
A
100
AcDbEntity
  8
1
  6
SOLID
 62
     7
100
AcDbLine
 10
-541.2560875149999
 20
-1679.997070313
 30
0.0
 11
-541.2560875149999
 21
-1825.997070313
 31
0.0
  0
LINE
  5
267
330
A
100
AcDbEntity
  8
1
  6
SOLID
 62
     7
100
AcDbLine
 10
-647.6561143809999
 20
-1787.899000147
 30
0.0
 11
-647.6561143809999
 21
-1864.095140477999
 31
0.0
  0
LINE
  5
268
330
A
100
AcDbEntity
  8
1
  6
SOLID
 62
     7
100
AcDbLine
 10
-621.1560995130001
 20
-1787.497070313
 30
0.0
 11
-646.156103909
 21
-1787.497070313
 31
0.0
  0
ARC
  5
269
330
A
100
AcDbEntity
  8
1
  6
SOLID
 62
     7
100
AcDbCircle
 10
-646.156103909
 20
-1790.497070313
 30
0.0
 40
3.0
100
AcDbArc
 50
90.0
 51
120.000230943
  0
LINE
  5
26A
330
A
100
AcDbEntity
  8
1
  6
SOLID
 62
     7
100
AcDbLine
 10
-80.25579456699999
 20
-1906.997070312
 30
0.0
 11
-80.25579456699999
 21
-1947.997065016
 31
0.0
  0
LINE
  5
26B
330
A
100
AcDbEntity
  8
1
  6
SOLID
 62
     7
100
AcDbLine
 10
-200.255794567
 20
-1906.997070312
 30
0.0
 11
-200.255794567
 21
-1947.997065016
 31
0.0
  0
LINE
  5
26C
330
A
100
AcDbEntity
  8
1
  6
SOLID
 62
     7
100
AcDbLine
 10
-80.25579456699999
 20
-1703.997065016
 30
0.0
 11
-200.255794567
 21
-1703.997065016
 31
0.0
  0
LINE
  5
26D
330
A
100
AcDbEntity
  8
1
  6
SOLID
 62
     7
100
AcDbLine
 10
-80.25579456699999
 20
-1947.997065016
 30
0.0
 11
-200.255794567
 21
-1947.997065016
 31
0.0
  0
LINE
  5
26E
330
A
100
AcDbEntity
  8
1
  6
SOLID
 62
     7
100
AcDbLine
 10
-207.321784973
 20
-1738.997070313
 30
0.0
 11
-206.921784878
 21
-1738.997070313
 31
0.0
  0
LINE
  5
26F
330
A
100
AcDbEntity
  8
1
  6
SOLID
 62
     7
100
AcDbLine
 10
-206.921784878
 20
-1738.997070313
 30
0.0
 11
-206.921784878
 21
-1722.997070313
 31
0.0
  0
LINE
  5
270
330
A
100
AcDbEntity
  8
1
  6
SOLID
 62
     7
100
AcDbLine
 10
-206.921784878
 20
-1722.997070313
 30
0.0
 11
-207.321784973
 21
-1722.997070313
 31
0.0
  0
LINE
  5
271
330
A
100
AcDbEntity
  8
1
  6
CENTER
 62
     2
100
AcDbLine
 10
-368.580236106
 20
-1825.997070313
 30
0.0
 11
-70.328100788
 21
-1825.997070313
 31
0.0
  0
ARC
  5
272
330
A
100
AcDbEntity
  8
1
  6
SOLID
 62
     7
100
AcDbCircle
 10
-621.1560995130001
 20
-1790.497070313
 30
0.0
 40
3.0
100
AcDbArc
 50
59.99976905699998
 51
90.0
  0
LINE
  5
273
330
A
100
AcDbEntity
  8
1
  6
SOLID
 62
     7
100
AcDbLine
 10
-523.2560875149999
 20
-1700.997070313
 30
0.0
 11
-541.2560875149999
 21
-1700.997070313
 31
0.0
  0
LINE
  5
274
330
A
100
AcDbEntity
  8
1
  6
SOLID
 62
     1
100
AcDbLine
 10
-647.8761422459999
 20
-1831.0777527
 30
0.0
 11
-647.8761422459999
 21
-1820.916387925
 31
0.0
  0
LINE
  5
275
330
A
100
AcDbEntity
  8
1
  6
SOLID
 62
     1
100
AcDbLine
 10
-651.176142367
 20
-1829.807582103
 30
0.0
 11
-651.176142367
 21
-1822.186558522
 31
0.0
  0
ARC
  5
276
330
A
100
AcDbEntity
  8
1
  6
SOLID
 62
     1
100
AcDbCircle
 10
-642.76913734
 20
-1825.997070313
 30
0.0
 40
8.407005026
100
AcDbArc
 50
162.412040055
 51
197.587959945
  0
LINE
  5
277
330
A
100
AcDbEntity
  8
1
  6
SOLID
 62
     1
100
AcDbLine
 10
-647.656142238
 20
-1821.973820194
 30
0.0
 11
-647.8761422459999
 21
-1821.973820194
 31
0.0
  0
LINE
  5
278
330
A
100
AcDbEntity
  8
1
  6
SOLID
 62
     7
100
AcDbLine
 10
-523.2562553699999
 20
-1700.997070313
 30
0.0
 11
-523.2562553699999
 21
-1776.997070313
 31
0.0
  0
LINE
  5
279
330
A
100
AcDbEntity
  8
1
  6
SOLID
 62
     1
100
AcDbLine
 10
-650.783150076
 20
-1823.456729119
 30
0.0
 11
-647.8761422459999
 21
-1823.456729119
 31
0.0
  0
LINE
  5
27A
330
A
100
AcDbEntity
  8
1
  6
SOLID
 62
     1
100
AcDbLine
 10
-647.8761422459999
 20
-1820.916387925
 30
0.0
 11
-650.783150076
 21
-1820.916387925
 31
0.0
  0
ARC
  5
27B
330
A
100
AcDbEntity
  8
1
  6
SOLID
 62
     1
100
AcDbCircle
 10
-648.927019001
 20
-1822.186558522
 30
0.0
 40
2.249123364999999
100
AcDbArc
 50
145.615740999
 51
214.384259001
  0
LINE
  5
27C
330
A
100
AcDbEntity
  8
1
  6
SOLID
 62
     7
100
AcDbLine
 10
-621.1560995130001
 20
-1864.497070313
 30
0.0
 11
-646.156103909
 21
-1864.497070313
 31
0.0
  0
LINE
  5
27D
330
A
100
AcDbEntity
  8
1
  6
SOLID
 62
     1
100
AcDbLine
 10
-647.8761422459999
 20
-1830.020320431
 30
0.0
 11
-647.656142238
 21
-1830.020320431
 31
0.0
  0
LINE
  5
27E
330
A
100
AcDbEntity
  8
1
  6
SOLID
 62
     1
100
AcDbLine
 10
-650.783150076
 20
-1828.537411506
 30
0.0
 11
-647.8761422459999
 21
-1828.537411506
 31
0.0
  0
LINE
  5
27F
330
A
100
AcDbEntity
  8
1
  6
SOLID
 62
     7
100
AcDbLine
 10
-523.2562553699999
 20
-1950.997070312
 30
0.0
 11
-523.2562553699999
 21
-1874.997070313
 31
0.0
  0
LINE
  5
280
330
A
100
AcDbEntity
  8
2
  6
SOLID
 62
     7
100
AcDbLine
 10
-313.256131012
 20
-1645.997217096
 30
0.0
 11
-513.2561310119999
 21
-1645.997217096
 31
0.0
  0
LINE
  5
281
330
A
100
AcDbEntity
  8
2
  6
SOLID
 62
     7
100
AcDbLine
 10
-513.2561310119999
 20
-1685.997098139
 30
0.0
 11
-513.2561310119999
 21
-1560.997217096
 31
0.0
  0
ARC
  5
282
330
A
100
AcDbEntity
  8
3
  6
SOLID
 62
     7
100
AcDbCircle
 10
-470.256072256
 20
-1967.997098139
 30
0.0
 40
2.0
100
AcDbArc
 50
0.0
 51
90.0
  0
ARC
  5
283
330
A
100
AcDbEntity
  8
3
  6
SOLID
 62
     7
100
AcDbCircle
 10
-506.2560722559999
 20
-1976.657352177
 30
0.0
 40
2.0
100
AcDbArc
 50
90.0
 51
180.0
  0
ARC
  5
284
330
A
100
AcDbEntity
  8
3
  6
SOLID
 62
     7
100
AcDbCircle
 10
-490.2560722559999
 20
-1972.657352177
 30
0.0
 40
2.0
100
AcDbArc
 50
270.0
 51
0.0
  0
LINE
  5
285
330
A
100
AcDbEntity
  8
2
  6
SOLID
 62
     7
100
AcDbLine
 10
-488.256072256
 20
-1962.99710083
 30
0.0
 11
-488.256072256
 21
-1972.657352177
 31
0.0
  0
LINE
  5
286
330
A
100
AcDbEntity
  8
3
  6
SOLID
 62
     7
100
AcDbLine
 10
-506.2560722559999
 20
-1974.657352177
 30
0.0
 11
-490.2560722559999
 21
-1974.657352177
 31
0.0
  0
LINE
  5
287
330
A
100
AcDbEntity
  8
2
  6
SOLID
 62
     7
100
AcDbLine
 10
-523.2560875149999
 20
-1825.997070312
 30
0.0
 11
-523.2560875149999
 21
-1965.997098139
 31
0.0
  0
LINE
  5
288
330
A
100
AcDbEntity
  8
2
  6
SOLID
 62
     7
100
AcDbLine
 10
-506.2560875149999
 20
-1685.997098139
 30
0.0
 11
-523.2560875149999
 21
-1685.997098139
 31
0.0
  0
LINE
  5
289
330
A
100
AcDbEntity
  8
2
  6
SOLID
 62
     7
100
AcDbLine
 10
-445.2560875149999
 20
-1708.997070313
 30
0.0
 11
-445.2560875149999
 21
-1688.997158872
 31
0.0
  0
LINE
  5
28A
330
A
100
AcDbEntity
  8
1
  6
SOLID
 62
     7
100
AcDbLine
 10
-235.643733199
 20
-1946.497070313
 30
0.0
 11
-234.256102773
 21
-1946.497070313
 31
0.0
  0
ARC
  5
28B
330
A
100
AcDbEntity
  8
2
  6
SOLID
 62
     7
100
AcDbCircle
 10
-510.2560722559999
 20
-1983.997098139
 30
0.0
 40
2.0
100
AcDbArc
 50
270.0
 51
0.0
  0
LINE
  5
28C
330
A
100
AcDbEntity
  8
2
  6
SOLID
 62
     7
100
AcDbLine
 10
-510.2560722559999
 20
-1985.997098139
 30
0.0
 11
-516.256072256
 21
-1985.997098139
 31
0.0
  0
ARC
  5
28D
330
A
100
AcDbEntity
  8
2
  6
SOLID
 62
     7
100
AcDbCircle
 10
-516.256072256
 20
-1983.997098139
 30
0.0
 40
2.0
100
AcDbArc
 50
180.0
 51
270.0
  0
LINE
  5
28E
330
A
100
AcDbEntity
  8
2
  6
SOLID
 62
     7
100
AcDbLine
 10
-508.256072256
 20
-1964.99710083
 30
0.0
 11
-508.256072256
 21
-1983.997098139
 31
0.0
  0
ARC
  5
28F
330
A
100
AcDbEntity
  8
2
  6
SOLID
 62
     7
100
AcDbCircle
 10
-511.2561310119999
 20
-1647.997217096
 30
0.0
 40
2.0
100
AcDbArc
 50
90.0
 51
180.0
  0
LINE
  5
290
330
A
100
AcDbEntity
  8
2
  6
SOLID
 62
     7
100
AcDbLine
 10
-473.2561628769999
 20
-1647.997217096
 30
0.0
 11
-473.2561628769999
 21
-1683.997158872
 31
0.0
  0
ARC
  5
291
330
A
100
AcDbEntity
  8
2
  6
SOLID
 62
     7
100
AcDbCircle
 10
-475.2561628769999
 20
-1647.997217096
 30
0.0
 40
2.0
100
AcDbArc
 50
0.0
 51
90.0
  0
LINE
  5
292
330
A
100
AcDbEntity
  8
2
  6
SOLID
 62
     7
100
AcDbLine
 10
-445.2560875149999
 20
-1688.997158872
 30
0.0
 11
-468.2561628769999
 21
-1688.997158872
 31
0.0
  0
ARC
  5
293
330
A
100
AcDbEntity
  8
2
  6
SOLID
 62
     7
100
AcDbCircle
 10
-468.2561628769999
 20
-1683.997158872
 30
0.0
 40
5.0
100
AcDbArc
 50
180.0
 51
270.0
  0
LINE
  5
294
330
A
100
AcDbEntity
  8
2
  6
SOLID
 62
     7
100
AcDbLine
 10
-441.2561325169999
 20
-1693.997158872
 30
0.0
 11
-445.2560875149999
 21
-1693.997158872
 31
0.0
  0
LINE
  5
295
330
A
100
AcDbEntity
  8
2
  6
SOLID
 62
     7
100
AcDbLine
 10
-523.2560875149999
 20
-1825.997125965
 30
0.0
 11
-523.2560875149999
 21
-1685.997098139
 31
0.0
  0
LINE
  5
296
330
A
100
AcDbEntity
  8
2
  6
SOLID
 62
     7
100
AcDbLine
 10
-473.2560875149999
 20
-1647.997153671
 30
0.0
 11
-473.2560875149999
 21
-1683.997095447
 31
0.0
  0
LINE
  5
297
330
A
100
AcDbEntity
  8
2
  6
SOLID
 62
     7
100
AcDbLine
 10
-518.256072256
 20
-1967.997098139
 30
0.0
 11
-518.256072256
 21
-1983.997098139
 31
0.0
  0
LINE
  5
298
330
A
100
AcDbEntity
  8
2
  6
SOLID
 62
     7
100
AcDbLine
 10
-464.256087515
 20
-1688.997095447
 30
0.0
 11
-468.256087515
 21
-1688.997095447
 31
0.0
  0
ARC
  5
299
330
A
100
AcDbEntity
  8
2
  6
SOLID
 62
     7
100
AcDbCircle
 10
-468.256087515
 20
-1683.997095447
 30
0.0
 40
5.0
100
AcDbArc
 50
180.0
 51
270.0
  0
LINE
  5
29A
330
A
100
AcDbEntity
  8
2
  6
SOLID
 62
     7
100
AcDbLine
 10
-518.256072256
 20
-1983.997098139
 30
0.0
 11
-518.256072256
 21
-2005.997098139
 31
0.0
  0
LINE
  5
29B
330
A
100
AcDbEntity
  8
1
  6
SOLID
 62
     7
100
AcDbLine
 10
-200.255794567
 20
-1758.997070313
 30
0.0
 11
-200.255794567
 21
-1825.997070313
 31
0.0
  0
LINE
  5
29C
330
A
100
AcDbEntity
  8
2
  6
L_DASH
 62
     7
100
AcDbLine
 10
-489.7560722559999
 20
-1974.657352177
 30
0.0
 11
-489.7560722559999
 21
-2005.997098139
 31
0.0
  0
LINE
  5
29D
330
A
100
AcDbEntity
  8
2
  6
SOLID
 62
     7
100
AcDbLine
 10
-518.256072256
 20
-2005.997098139
 30
0.0
 11
-468.2560722559999
 21
-2005.997098139
 31
0.0
  0
LINE
  5
29E
330
A
100
AcDbEntity
  8
2
  6
L_DASH
 62
     7
100
AcDbLine
 10
-488.256072256
 20
-1974.657352177
 30
0.0
 11
-488.256072256
 21
-2005.997098139
 31
0.0
  0
LINE
  5
29F
330
A
100
AcDbEntity
  8
2
  6
L_DASH
 62
     7
100
AcDbLine
 10
-502.7560722559999
 20
-1974.657352177
 30
0.0
 11
-502.7560722559999
 21
-2005.997098139
 31
0.0
  0
LINE
  5
2A0
330
A
100
AcDbEntity
  8
2
  6
L_DASH
 62
     7
100
AcDbLine
 10
-504.256072256
 20
-1974.657352177
 30
0.0
 11
-504.256072256
 21
-2005.997098139
 31
0.0
  0
LINE
  5
2A1
330
A
100
AcDbEntity
  8
2
  6
SOLID
 62
     7
100
AcDbLine
 10
-488.256072256
 20
-1965.997098139
 30
0.0
 11
-470.256072256
 21
-1965.997098139
 31
0.0
  0
LINE
  5
2A2
330
A
100
AcDbEntity
  8
2
  6
SOLID
 62
     7
100
AcDbLine
 10
-464.256087515
 20
-1962.997095447
 30
0.0
 11
-465.2560722559999
 21
-1962.997095447
 31
0.0
  0
LINE
  5
2A3
330
A
100
AcDbEntity
  8
2
  6
SOLID
 62
     7
100
AcDbLine
 10
-468.2560722559999
 20
-1967.997098139
 30
0.0
 11
-468.2560722559999
 21
-2005.997098139
 31
0.0
  0
LINE
  5
2A4
330
A
100
AcDbEntity
  8
2
  6
SOLID
 62
     7
100
AcDbLine
 10
-445.2560875149999
 20
-1962.99710083
 30
0.0
 11
-506.2560722559999
 21
-1962.99710083
 31
0.0
  0
ARC
  5
2A5
330
A
100
AcDbEntity
  8
2
  6
SOLID
 62
     7
100
AcDbCircle
 10
-520.256072256
 20
-1967.997098139
 30
0.0
 40
2.0
100
AcDbArc
 50
0.0
 51
90.0
  0
ARC
  5
2A6
330
A
100
AcDbEntity
  8
2
  6
SOLID
 62
     7
100
AcDbCircle
 10
-506.2560722559999
 20
-1964.99710083
 30
0.0
 40
2.0
100
AcDbArc
 50
90.0
 51
180.0
  0
LINE
  5
2A7
330
A
100
AcDbEntity
  8
2
  6
SOLID
 62
     7
100
AcDbLine
 10
-523.2560875149999
 20
-1965.997098139
 30
0.0
 11
-506.2560875149999
 21
-1965.997098139
 31
0.0
  0
LINE
  5
2A8
330
A
100
AcDbEntity
  8
1
  6
SOLID
 62
     7
100
AcDbLine
 10
259.981325941
 20
-1867.587255877
 30
0.0
 11
259.981325941
 21
-1959.996992594
 31
0.0
  0
ARC
  5
2A9
330
A
100
AcDbEntity
  8
1
  6
SOLID
 62
     7
100
AcDbCircle
 10
-215.256102773
 20
-1690.997095447
 30
0.0
 40
2.0
100
AcDbArc
 50
0.0
 51
90.0
  0
LINE
  5
2AA
330
A
100
AcDbEntity
  8
1
  6
SOLID
 62
     7
100
AcDbLine
 10
-235.643733199
 20
-1925.497070313
 30
0.0
 11
-234.256102773
 21
-1925.497070313
 31
0.0
  0
ARC
  5
2AB
330
A
100
AcDbEntity
  8
1
  6
SOLID
 62
     7
100
AcDbCircle
 10
-234.256102773
 20
-1944.497070313
 30
0.0
 40
2.0
100
AcDbArc
 50
270.0
 51
0.0
  0
CIRCLE
  5
2AC
330
A
100
AcDbEntity
  8
1
  6
SOLID
 62
     3
100
AcDbCircle
 10
297.481325941
 20
-1825.996992594
 30
0.0
 40
28.0
  0
LINE
  5
2AD
330
A
100
AcDbEntity
  8
1
  6
SOLID
 62
     7
100
AcDbLine
 10
139.981325941
 20
-1679.996992594
 30
0.0
 11
139.981325941
 21
-1959.996992594
 31
0.0
  0
ARC
  5
2AE
330
A
100
AcDbEntity
  8
1
  6
SOLID
 62
     7
100
AcDbCircle
 10
-208.256102773
 20
-1929.997098139
 30
0.0
 40
1.0
100
AcDbArc
 50
270.0
 51
0.0
  0
LINE
  5
2AF
330
A
100
AcDbEntity
  8
1
  6
SOLID
 62
     7
100
AcDbLine
 10
-207.256102773
 20
-1906.997070312
 30
0.0
 11
-207.256102773
 21
-1929.997098139
 31
0.0
  0
LINE
  5
2B0
330
A
100
AcDbEntity
  8
2
  6
SOLID
 62
     7
100
AcDbLine
 10
-313.256131012
 20
-1645.997217096
 30
0.0
 11
-313.256131012
 21
-1560.997217096
 31
0.0
  0
LINE
  5
2B1
330
A
100
AcDbEntity
  8
1
  6
SOLID
 62
     7
100
AcDbLine
 10
-208.256102773
 20
-1930.997098139
 30
0.0
 11
-213.256102773
 21
-1930.997098139
 31
0.0
  0
ARC
  5
2B2
330
A
100
AcDbEntity
  8
1
  6
SOLID
 62
     7
100
AcDbCircle
 10
-223.256102773
 20
-1952.99710083
 30
0.0
 40
10.0
100
AcDbArc
 50
270.0
 51
0.0
  0
LINE
  5
2B3
330
A
100
AcDbEntity
  8
1
  6
SOLID
 62
     7
100
AcDbLine
 10
-213.256102773
 20
-1690.997095447
 30
0.0
 11
-213.256102773
 21
-1825.997070313
 31
0.0
  0
ARC
  5
2B4
330
A
100
AcDbEntity
  8
1
  6
SOLID
 62
     7
100
AcDbCircle
 10
-208.256102773
 20
-1721.997098139
 30
0.0
 40
1.0
100
AcDbArc
 50
0.0
 51
90.0
  0
LINE
  5
2B5
330
A
100
AcDbEntity
  8
1
  6
SOLID
 62
     7
100
AcDbLine
 10
-207.256102773
 20
-1744.997070313
 30
0.0
 11
-207.256102773
 21
-1721.997098139
 31
0.0
  0
LINE
  5
2B6
330
A
100
AcDbEntity
  8
20
  6
L_DASH
 62
     7
100
AcDbLine
 10
-244.256102773
 20
-1965.997098139
 30
0.0
 11
-244.256102773
 21
-2005.997098139
 31
0.0
  0
LINE
  5
2B7
330
A
100
AcDbEntity
  8
20
  6
L_DASH
 62
     7
100
AcDbLine
 10
-228.256102773
 20
-1965.997098139
 30
0.0
 11
-228.256102773
 21
-2005.997098139
 31
0.0
  0
LINE
  5
2B8
330
A
100
AcDbEntity
  8
20
  6
L_DASH
 62
     7
100
AcDbLine
 10
-242.756102773
 20
-1965.997098139
 30
0.0
 11
-242.756102773
 21
-2005.997098139
 31
0.0
  0
LINE
  5
2B9
330
A
100
AcDbEntity
  8
20
  6
L_DASH
 62
     7
100
AcDbLine
 10
-229.756102773
 20
-1965.997098139
 30
0.0
 11
-229.756102773
 21
-2005.997098139
 31
0.0
  0
LINE
  5
2BA
330
A
100
AcDbEntity
  8
41
  6
L_DASH
 62
     7
100
AcDbLine
 10
-214.256102773
 20
-1965.997098139
 30
0.0
 11
-247.256102773
 21
-1965.997098139
 31
0.0
  0
LINE
  5
2BB
330
A
100
AcDbEntity
  8
41
  6
SOLID
 62
     7
100
AcDbLine
 10
-213.256102773
 20
-2005.997098139
 30
0.0
 11
-263.256102773
 21
-2005.997098139
 31
0.0
  0
LINE
  5
2BC
330
A
100
AcDbEntity
  8
41
  6
SOLID
 62
     7
100
AcDbLine
 10
-287.256113047
 20
-1962.997095447
 30
0.0
 11
-266.256102773
 21
-1962.997095447
 31
0.0
  0
ARC
  5
2BD
330
A
100
AcDbEntity
  8
1
  6
SOLID
 62
     7
100
AcDbCircle
 10
-243.256102773
 20
-1967.99710083
 30
0.0
 40
5.0
100
AcDbArc
 50
90.0
 51
180.0
  0
LINE
  5
2BE
330
A
100
AcDbEntity
  8
41
  6
SOLID
 62
     7
100
AcDbLine
 10
-287.256087515
 20
-1688.997095447
 30
0.0
 11
-215.256102773
 21
-1688.997095447
 31
0.0
  0
LINE
  5
2BF
330
A
100
AcDbEntity
  8
1
  6
SOLID
 62
     7
100
AcDbLine
 10
-218.500035206
 20
-1974.657352177
 30
0.0
 11
-246.308703366
 21
-1974.657352177
 31
0.0
  0
LINE
  5
2C0
330
A
100
AcDbEntity
  8
1
  6
SOLID
 62
     7
100
AcDbLine
 10
-243.256102773
 20
-1962.99710083
 30
0.0
 11
-223.256102773
 21
-1962.99710083
 31
0.0
  0
ARC
  5
2C1
330
A
100
AcDbEntity
  8
1
  6
SOLID
 62
     7
100
AcDbCircle
 10
-266.256102773
 20
-1965.997095447
 30
0.0
 40
3.0
100
AcDbArc
 50
0.0
 51
90.0
  0
LINE
  5
2C2
330
A
100
AcDbEntity
  8
20
  6
SOLID
 62
     7
100
AcDbLine
 10
-263.256102773
 20
-1840.997070312999
 30
0.0
 11
-263.256102773
 21
-2005.997098139
 31
0.0
  0
ARC
  5
2C3
330
A
100
AcDbEntity
  8
1
  6
SOLID
 62
     7
100
AcDbCircle
 10
-261.256102773
 20
-1983.997098139
 30
0.0
 40
2.0
100
AcDbArc
 50
180.0
 51
270.0
  0
LINE
  5
2C4
330
A
100
AcDbEntity
  8
41
  6
SOLID
 62
     7
100
AcDbLine
 10
-261.256102773
 20
-1985.997098139
 30
0.0
 11
-250.256102773
 21
-1985.997098139
 31
0.0
  0
ARC
  5
2C5
330
A
100
AcDbEntity
  8
1
  6
SOLID
 62
     7
100
AcDbCircle
 10
-250.256102773
 20
-1983.997098139
 30
0.0
 40
2.0
100
AcDbArc
 50
270.0
 51
0.0
  0
LINE
  5
2C6
330
A
100
AcDbEntity
  8
20
  6
SOLID
 62
     7
100
AcDbLine
 10
-248.256102773
 20
-1840.997070312999
 30
0.0
 11
-248.256102773
 21
-1983.997098139
 31
0.0
  0
LINE
  5
2C7
330
A
100
AcDbEntity
  8
1
  6
SOLID
 62
     7
100
AcDbLine
 10
-287.256112861
 20
-1961.997073341
 30
0.0
 11
-287.256112115
 21
-1957.997073341
 31
0.0
  0
LINE
  5
2C8
330
A
100
AcDbEntity
  8
1
  6
SOLID
 62
     7
100
AcDbLine
 10
-208.256102773
 20
-1720.997098139
 30
0.0
 11
-209.256102773
 21
-1720.997098139
 31
0.0
  0
LINE
  5
2C9
330
A
100
AcDbEntity
  8
1
  6
SOLID
 62
     7
100
AcDbLine
 10
-291.256087515
 20
-1713.397074422
 30
0.0
 11
-291.256087515
 21
-1825.997070313
 31
0.0
  0
ARC
  5
2CA
330
A
100
AcDbEntity
  8
1
  6
SOLID
 62
     7
100
AcDbCircle
 10
-234.256102773
 20
-1927.497070313
 30
0.0
 40
2.0
100
AcDbArc
 50
0.0
 51
90.0
  0
LINE
  5
2CB
330
A
100
AcDbEntity
  8
2
  6
SOLID
 62
     7
100
AcDbLine
 10
-313.256131012
 20
-1560.997217096
 30
0.0
 11
-513.2561310119999
 21
-1560.997217096
 31
0.0
  0
LINE
  5
2CC
330
A
100
AcDbEntity
  8
1
  6
SOLID
 62
     7
100
AcDbLine
 10
-441.2561325169999
 20
-1713.397074422
 30
0.0
 11
-441.2561325169999
 21
-1825.997070313
 31
0.0
  0
LINE
  5
2CD
330
A
100
AcDbEntity
  8
1
  6
SOLID
 62
     4
100
AcDbLine
 10
-441.2561325169999
 20
-2138.997070313
 30
0.0
 11
-368.580236106
 21
-2138.997070313
 31
0.0
  0
LINE
  5
2CE
330
A
100
AcDbEntity
  8
1
  6
SOLID
 62
     7
100
AcDbLine
 10
-291.256112115
 20
-1957.99710083
 30
0.0
 11
-287.256112115
 21
-1957.99710083
 31
0.0
  0
LINE
  5
2CF
330
A
100
AcDbEntity
  8
1
  6
SOLID
 62
     7
100
AcDbLine
 10
-287.256087515
 20
-1722.997070313
 30
0.0
 11
-287.256087515
 21
-1825.997070313
 31
0.0
  0
LINE
  5
2D0
330
A
100
AcDbEntity
  8
1
  6
SOLID
 62
     7
100
AcDbLine
 10
-213.256102773
 20
-1930.997098139
 30
0.0
 11
-213.256102773
 21
-2005.997098139
 31
0.0
  0
LINE
  5
2D1
330
A
100
AcDbEntity
  8
1
  6
SOLID
 62
     7
100
AcDbLine
 10
-441.2561079159999
 20
-1957.99710083
 30
0.0
 11
-445.2560875149999
 21
-1957.99710083
 31
0.0
  0
LINE
  5
2D2
330
A
100
AcDbEntity
  8
1
  6
SOLID
 62
     3
100
AcDbLine
 10
-228.256102773
 20
-1928.997070313
 30
0.0
 11
-228.256102773
 21
-1942.997070313
 31
0.0
  0
LINE
  5
2D3
330
A
100
AcDbEntity
  8
1
  6
SOLID
 62
     3
100
AcDbLine
 10
-232.256102773
 20
-1941.797070265
 30
0.0
 11
-227.256102773
 21
-1941.797070265
 31
0.0
  0
LINE
  5
2D4
330
A
100
AcDbEntity
  8
1
  6
SOLID
 62
     1
100
AcDbLine
 10
297.481323242
 20
-1658.49151659
 30
0.0
 11
290.981323078
 21
-1662.244293502
 31
0.0
  0
LINE
  5
2D5
330
A
100
AcDbEntity
  8
1
  6
SOLID
 62
     1
100
AcDbLine
 10
303.981323242
 20
-1662.244293451
 30
0.0
 11
297.481323078
 21
-1658.49151654
 31
0.0
  0
LINE
  5
2D6
330
A
100
AcDbEntity
  8
1
  6
CENTER
 62
     2
100
AcDbLine
 10
-285.818838889
 20
-1715.997070312999
 30
0.0
 11
-220.159743285
 21
-1715.997070312999
 31
0.0
  0
LINE
  5
2D7
330
A
100
AcDbEntity
  8
20
  6
SOLID
 62
     7
100
AcDbLine
 10
-263.256102773
 20
-1810.997070313
 30
0.0
 11
-263.256102773
 21
-1690.997095447
 31
0.0
  0
ARC
  5
2D8
330
A
100
AcDbEntity
  8
1
  6
SOLID
 62
     7
100
AcDbCircle
 10
-261.256102773
 20
-1690.997095447
 30
0.0
 40
2.0
100
AcDbArc
 50
90.0
 51
180.0
  0
LINE
  5
2D9
330
A
100
AcDbEntity
  8
41
  6
SOLID
 62
     7
100
AcDbLine
 10
-261.256102773
 20
-1688.997095447
 30
0.0
 11
-250.256102773
 21
-1688.997095447
 31
0.0
  0
ARC
  5
2DA
330
A
100
AcDbEntity
  8
1
  6
SOLID
 62
     7
100
AcDbCircle
 10
-250.256102773
 20
-1690.997095447
 30
0.0
 40
2.0
100
AcDbArc
 50
360.0
 51
90.0
  0
LINE
  5
2DB
330
A
100
AcDbEntity
  8
20
  6
SOLID
 62
     7
100
AcDbLine
 10
-248.256102773
 20
-1810.997070313
 30
0.0
 11
-248.256102773
 21
-1690.997095447
 31
0.0
  0
LINE
  5
2DC
330
A
100
AcDbEntity
  8
1
  6
SOLID
 62
     7
100
AcDbLine
 10
-368.580236106
 20
-1708.997070313
 30
0.0
 11
-263.256102773
 21
-1708.997070313
 31
0.0
  0
LINE
  5
2DD
330
A
100
AcDbEntity
  8
1
  6
SOLID
 62
     7
100
AcDbLine
 10
-291.256087515
 20
-1722.997070313
 30
0.0
 11
-263.256102773
 21
-1722.997070313
 31
0.0
  0
LINE
  5
2DE
330
A
100
AcDbEntity
  8
1
  6
SOLID
 62
     7
100
AcDbLine
 10
-287.256087515
 20
-1688.997095447
 30
0.0
 11
-287.256087515
 21
-1708.997070313
 31
0.0
  0
LINE
  5
2DF
330
A
100
AcDbEntity
  8
1
  6
SOLID
 62
     7
100
AcDbLine
 10
-368.580236106
 20
-1713.397074422
 30
0.0
 11
-291.256087515
 21
-1713.397074422
 31
0.0
  0
LINE
  5
2E0
330
A
100
AcDbEntity
  8
1
  6
SOLID
 62
     7
100
AcDbLine
 10
-493.4560728069999
 20
-1722.997070313
 30
0.0
 11
-441.2561325169999
 21
-1722.997070313
 31
0.0
  0
LINE
  5
2E1
330
A
100
AcDbEntity
  8
1
  6
SOLID
 62
     3
100
AcDbLine
 10
-232.256102773
 20
-1930.19707036
 30
0.0
 11
-227.256102773
 21
-1930.19707036
 31
0.0
  0
ARC
  5
2E2
330
A
100
AcDbEntity
  8
1
  6
SOLID
 62
     7
100
AcDbCircle
 10
-273.256102773
 20
-1810.997070313
 30
0.0
 40
10.0
100
AcDbArc
 50
302.093034625
 51
0.0
  0
LINE
  5
2E3
330
A
100
AcDbEntity
  8
1
  6
SOLID
 62
     7
100
AcDbLine
 10
-227.256102773
 20
-1929.997070313
 30
0.0
 11
-227.256102773
 21
-1941.997070313
 31
0.0
  0
LINE
  5
2E4
330
A
100
AcDbEntity
  8
1
  6
SOLID
 62
     7
100
AcDbLine
 10
-228.256102773
 20
-1942.997070313
 30
0.0
 11
-227.256102773
 21
-1941.997070313
 31
0.0
  0
ARC
  5
2E5
330
A
100
AcDbEntity
  8
1
  6
SOLID
 62
     7
100
AcDbCircle
 10
-238.256102773
 20
-1810.997070313
 30
0.0
 40
10.0
100
AcDbArc
 50
180.0
 51
234.685305238
  0
LINE
  5
2E6
330
A
100
AcDbEntity
  8
1
  6
SOLID
 62
     7
100
AcDbLine
 10
-228.256102773
 20
-1928.997070313
 30
0.0
 11
-227.256102773
 21
-1929.997070312
 31
0.0
  0
LINE
  5
2E7
330
A
100
AcDbEntity
  8
1
  6
SOLID
 62
     1
100
AcDbLine
 10
-650.7835286099999
 20
-2234.577695454
 30
0.0
 11
-647.8765207799999
 21
-2234.577695454
 31
0.0
  0
ARC
  5
2E8
330
A
100
AcDbEntity
  8
1
  6
SOLID
 62
     7
100
AcDbCircle
 10
-273.256102773
 20
-1840.997070312999
 30
0.0
 40
10.0
100
AcDbArc
 50
0.0
 51
63.661444203
  0
LINE
  5
2E9
330
A
100
AcDbEntity
  8
1
  6
CENTER
 62
     2
100
AcDbLine
 10
-119.255794567
 20
-2185.997070313
 30
0.0
 11
-119.255794567
 21
-2275.997070313
 31
0.0
  0
ARC
  5
2EA
330
A
100
AcDbEntity
  8
1
  6
SOLID
 62
     7
100
AcDbCircle
 10
-238.256102773
 20
-1840.997070312999
 30
0.0
 40
10.0
100
AcDbArc
 50
125.235881258
 51
180.0
  0
LINE
  5
2EB
330
A
100
AcDbEntity
  8
1
  6
SOLID
 62
     1
100
AcDbLine
 10
-651.1765209009999
 20
-2233.307524857
 30
0.0
 11
-651.1765209009999
 21
-2225.686501276
 31
0.0
  0
LINE
  5
2EC
330
A
100
AcDbEntity
  8
1
  6
SOLID
 62
     4
100
AcDbLine
 10
-368.580236106
 20
-2143.626949364
 30
0.0
 11
-291.256087515
 21
-2143.626949364
 31
0.0
  0
LINE
  5
2ED
330
A
100
AcDbEntity
  8
1
  6
SOLID
 62
     4
100
AcDbLine
 10
-368.580236106
 20
-2151.909660815
 30
0.0
 11
-291.256087515
 21
-2151.909660815
 31
0.0
  0
LINE
  5
2EE
330
A
100
AcDbEntity
  8
1
  6
SOLID
 62
     7
100
AcDbLine
 10
-213.256102773
 20
-2410.997045178
 30
0.0
 11
-213.256102773
 21
-2275.997070313
 31
0.0
  0
LINE
  5
2EF
330
A
100
AcDbEntity
  8
41
  6
SOLID
 62
     7
100
AcDbLine
 10
-287.256087515
 20
-2412.997045178
 30
0.0
 11
-215.256102773
 21
-2412.997045178
 31
0.0
  0
LINE
  5
2F0
330
A
100
AcDbEntity
  8
20
  6
SOLID
 62
     7
100
AcDbLine
 10
-263.256102773
 20
-2292.122029469
 30
0.0
 11
-263.256102773
 21
-2410.997045178
 31
0.0
  0
LINE
  5
2F1
330
A
100
AcDbEntity
  8
3
  6
SOLID
 62
     7
100
AcDbLine
 10
327.481325941
 20
-1638.997048126
 30
0.0
 11
327.481325941
 21
-1643.997048126
 31
0.0
  0
LINE
  5
2F2
330
A
100
AcDbEntity
  8
3
  6
SOLID
 62
     7
100
AcDbLine
 10
267.481325941
 20
-1638.997048126
 30
0.0
 11
267.481325941
 21
-1643.997048126
 31
0.0
  0
LINE
  5
2F3
330
A
100
AcDbEntity
  8
3
  6
SOLID
 62
     7
100
AcDbLine
 10
-243.256087515
 20
-1620.997095447
 30
0.0
 11
-248.256087515
 21
-1620.997095447
 31
0.0
  0
LINE
  5
2F4
330
A
100
AcDbEntity
  8
3
  6
SOLID
 62
     7
100
AcDbLine
 10
-254.377407858
 20
-1683.118415791
 30
0.0
 11
-249.134767171
 21
-1677.875775103
 31
0.0
  0
ARC
  5
2F5
330
A
100
AcDbEntity
  8
1
  6
SOLID
 62
     7
100
AcDbCircle
 10
-261.256102773
 20
-2410.997045178
 30
0.0
 40
2.0
100
AcDbArc
 50
180.0
 51
270.0
  0
LINE
  5
2F6
330
A
100
AcDbEntity
  8
41
  6
SOLID
 62
     7
100
AcDbLine
 10
-261.256102773
 20
-2412.997045178
 30
0.0
 11
-250.256102773
 21
-2412.997045178
 31
0.0
  0
CIRCLE
  5
2F7
330
A
100
AcDbEntity
  8
1
  6
SOLID
 62
     3
100
AcDbCircle
 10
297.481325941
 20
-1825.996992594
 30
0.0
 40
28.0
  0
ARC
  5
2F8
330
A
100
AcDbEntity
  8
1
  6
SOLID
 62
     7
100
AcDbCircle
 10
-250.256102773
 20
-2410.997045178
 30
0.0
 40
2.0
100
AcDbArc
 50
270.0
 51
0.0
  0
LINE
  5
2F9
330
A
100
AcDbEntity
  8
20
  6
SOLID
 62
     7
100
AcDbLine
 10
-248.256102773
 20
-2296.097477758
 30
0.0
 11
-248.256102773
 21
-2410.997045178
 31
0.0
  0
LINE
  5
2FA
330
A
100
AcDbEntity
  8
3
  6
SOLID
 62
     7
100
AcDbLine
 10
-250.841873952
 20
-1686.653949696
 30
0.0
 11
-245.599233265
 21
-1681.411309009
 31
0.0
  0
LINE
  5
2FB
330
A
100
AcDbEntity
  8
1
  6
SOLID
 62
     7
100
AcDbLine
 10
-256.498728202
 20
-2412.997045178
 30
0.0
 11
-278.256087515
 21
-2412.997045178
 31
0.0
  0
LINE
  5
2FC
330
A
100
AcDbEntity
  8
1
  6
SOLID
 62
     7
100
AcDbLine
 10
-232.256102773
 20
-1708.997070313
 30
0.0
 11
-228.256102773
 21
-1708.997070313
 31
0.0
  0
LINE
  5
2FD
330
A
100
AcDbEntity
  8
1
  6
SOLID
 62
     7
100
AcDbLine
 10
-232.256102773
 20
-1722.997070313
 30
0.0
 11
-228.256102773
 21
-1722.997070313
 31
0.0
  0
LINE
  5
2FE
330
A
100
AcDbEntity
  8
1
  6
SOLID
 62
     7
100
AcDbLine
 10
-232.256102773
 20
-1724.497070313
 30
0.0
 11
-232.256102773
 21
-1707.497070313
 31
0.0
  0
LINE
  5
2FF
330
A
100
AcDbEntity
  8
1
  6
SOLID
 62
     7
100
AcDbLine
 10
-235.643733199
 20
-1705.497070313
 30
0.0
 11
-234.256102773
 21
-1705.497070313
 31
0.0
  0
LINE
  5
300
330
A
100
AcDbEntity
  8
1
  6
SOLID
 62
     7
100
AcDbLine
 10
-235.643733199
 20
-1726.497070313
 30
0.0
 11
-234.256102773
 21
-1726.497070313
 31
0.0
  0
CIRCLE
  5
301
330
A
100
AcDbEntity
  8
1
  6
SOLID
 62
     7
100
AcDbCircle
 10
297.481325941
 20
-1825.996992594
 30
0.0
 40
32.5
  0
ARC
  5
302
330
A
100
AcDbEntity
  8
1
  6
SOLID
 62
     7
100
AcDbCircle
 10
-234.256102773
 20
-1707.497070313
 30
0.0
 40
2.0
100
AcDbArc
 50
0.0
 51
90.0
  0
LINE
  5
303
330
A
100
AcDbEntity
  8
1
  6
SOLID
 62
     3
100
AcDbLine
 10
315.019075762
 20
-1653.997048126
 30
0.0
 11
280.069601562
 21
-1653.997048126
 31
0.0
  0
LINE
  5
304
330
A
100
AcDbEntity
  8
1
  6
SOLID
 62
     7
100
AcDbLine
 10
-243.256087515
 20
-1675.75445476
 30
0.0
 11
-243.256087515
 21
-1620.997095447
 31
0.0
  0
ARC
  5
305
330
A
100
AcDbEntity
  8
1
  6
SOLID
 62
     7
100
AcDbCircle
 10
-234.256102773
 20
-1724.497070313
 30
0.0
 40
2.0
100
AcDbArc
 50
270.0
 51
0.0
  0
LINE
  5
306
330
A
100
AcDbEntity
  8
1
  6
SOLID
 62
     3
100
AcDbLine
 10
-228.256102773
 20
-1722.997070313
 30
0.0
 11
-228.256102773
 21
-1708.997070313
 31
0.0
  0
LINE
  5
307
330
A
100
AcDbEntity
  8
1
  6
SOLID
 62
     3
100
AcDbLine
 10
-232.256102773
 20
-1710.19707036
 30
0.0
 11
-227.256102773
 21
-1710.19707036
 31
0.0
  0
LINE
  5
308
330
A
100
AcDbEntity
  8
1
  6
SOLID
 62
     3
100
AcDbLine
 10
-232.256102773
 20
-1721.797070265
 30
0.0
 11
-227.256102773
 21
-1721.797070265
 31
0.0
  0
LINE
  5
309
330
A
100
AcDbEntity
  8
1
  6
SOLID
 62
     7
100
AcDbLine
 10
-227.256102773
 20
-1721.997070313
 30
0.0
 11
-227.256102773
 21
-1709.997070313
 31
0.0
  0
LINE
  5
30A
330
A
100
AcDbEntity
  8
1
  6
SOLID
 62
     7
100
AcDbLine
 10
-228.256102773
 20
-1708.997070313
 30
0.0
 11
-227.256102773
 21
-1709.997070313
 31
0.0
  0
LINE
  5
30B
330
A
100
AcDbEntity
  8
1
  6
SOLID
 62
     7
100
AcDbLine
 10
-228.256102773
 20
-1722.997070313
 30
0.0
 11
-227.256102773
 21
-1721.997070313
 31
0.0
  0
LINE
  5
30C
330
A
100
AcDbEntity
  8
3
  6
SOLID
 62
     7
100
AcDbLine
 10
279.704958075
 20
-1654.070206037
 30
0.0
 11
276.39519623
 21
-1643.997048126
 31
0.0
  0
LINE
  5
30D
330
A
100
AcDbEntity
  8
1
  6
SOLID
 62
     7
100
AcDbLine
 10
-248.256087515
 20
-1675.75445476
 30
0.0
 11
-248.256087515
 21
-1620.997095447
 31
0.0
  0
LINE
  5
30E
330
A
100
AcDbEntity
  8
1
  6
SOLID
 62
     7
100
AcDbLine
 10
-278.256087515
 20
-1688.997095447
 30
0.0
 11
-278.256087515
 21
-1683.997095447
 31
0.0
  0
LINE
  5
30F
330
A
100
AcDbEntity
  8
3
  6
SOLID
 62
     7
100
AcDbLine
 10
310.481325941
 20
-1676.997048126
 30
0.0
 11
315.257693808
 21
-1654.070206037
 31
0.0
  0
LINE
  5
310
330
A
100
AcDbEntity
  8
3
  6
SOLID
 62
     7
100
AcDbLine
 10
284.4813259409999
 20
-1676.997048126
 30
0.0
 11
279.704958075
 21
-1654.070206037
 31
0.0
  0
LINE
  5
311
330
A
100
AcDbEntity
  8
2
  6
CENTER
 62
     2
100
AcDbLine
 10
-496.256072256
 20
-1974.657352177
 30
0.0
 11
-496.256072256
 21
-2005.997098139
 31
0.0
  0
LINE
  5
312
330
A
100
AcDbEntity
  8
1
  6
SOLID
 62
     7
100
AcDbLine
 10
-256.498728202
 20
-1688.997095447
 30
0.0
 11
-278.256087515
 21
-1688.997095447
 31
0.0
  0
LINE
  5
313
330
A
100
AcDbEntity
  8
1
  6
SOLID
 62
     7
100
AcDbLine
 10
327.481325941
 20
-1638.997048126
 30
0.0
 11
267.481325941
 21
-1638.997048126
 31
0.0
  0
LINE
  5
314
330
A
100
AcDbEntity
  8
1
  6
SOLID
 62
     7
100
AcDbLine
 10
327.481325941
 20
-1643.997048126
 30
0.0
 11
267.481325941
 21
-1643.997048126
 31
0.0
  0
LINE
  5
315
330
A
100
AcDbEntity
  8
1
  6
CENTER
 62
     2
100
AcDbLine
 10
313.728991626
 20
-1665.997048126
 30
0.0
 11
282.524570271
 21
-1665.997048126
 31
0.0
  0
LINE
  5
316
330
A
100
AcDbEntity
  8
1
  6
SOLID
 62
     7
100
AcDbLine
 10
-526.498771699
 20
-1646.997048126
 30
0.0
 11
-581.2561310119999
 21
-1646.997048126
 31
0.0
  0
LINE
  5
317
330
A
100
AcDbEntity
  8
3
  6
SOLID
 62
     7
100
AcDbLine
 10
-240.256087515
 20
-2305.997070313
 30
0.0
 11
-245.256087515
 21
-2305.997070313
 31
0.0
  0
LINE
  5
318
330
A
100
AcDbEntity
  8
3
  6
SOLID
 62
     7
100
AcDbLine
 10
-240.256087515
 20
-2245.997070313
 30
0.0
 11
-245.256087515
 21
-2245.997070313
 31
0.0
  0
LINE
  5
319
330
A
100
AcDbEntity
  8
1
  6
SOLID
 62
     3
100
AcDbLine
 10
-255.256087515
 20
-2293.534820133
 30
0.0
 11
-255.256087515
 21
-2258.585345933
 31
0.0
  0
LINE
  5
31A
330
A
100
AcDbEntity
  8
3
  6
SOLID
 62
     7
100
AcDbLine
 10
-255.329245425
 20
-2258.220702446
 30
0.0
 11
-245.256087515
 21
-2254.910940601
 31
0.0
  0
LINE
  5
31B
330
A
100
AcDbEntity
  8
3
  6
SOLID
 62
     7
100
AcDbLine
 10
-278.256087515
 20
-2288.997070313
 30
0.0
 11
-255.329245425
 21
-2293.773438179
 31
0.0
  0
LINE
  5
31C
330
A
100
AcDbEntity
  8
1
  6
SOLID
 62
     7
100
AcDbLine
 10
-513.2561310119999
 20
-1676.997048126
 30
0.0
 11
-518.2561310119999
 21
-1676.997048126
 31
0.0
  0
LINE
  5
31D
330
A
100
AcDbEntity
  8
1
  6
SOLID
 62
     7
100
AcDbLine
 10
-256.498728202
 20
-1683.997095447
 30
0.0
 11
-278.256087515
 21
-1683.997095447
 31
0.0
  0
LINE
  5
31E
330
A
100
AcDbEntity
  8
1
  6
CENTER
 62
     2
100
AcDbLine
 10
-267.256087515
 20
-1697.143668667
 30
0.0
 11
-267.256087515
 21
-1680.010589998
 31
0.0
  0
ARC
  5
31F
330
A
100
AcDbEntity
  8
3
  6
SOLID
 62
     7
100
AcDbCircle
 10
-256.498728202
 20
-1680.997095447
 30
0.0
 40
3.0
100
AcDbArc
 50
270.0
 51
315.0
  0
ARC
  5
320
330
A
100
AcDbEntity
  8
3
  6
SOLID
 62
     7
100
AcDbCircle
 10
-256.498728202
 20
-1680.997095447
 30
0.0
 40
8.0
100
AcDbArc
 50
270.0
 51
315.0
  0
ARC
  5
321
330
A
100
AcDbEntity
  8
3
  6
SOLID
 62
     7
100
AcDbCircle
 10
-251.256087515
 20
-1675.75445476
 30
0.0
 40
8.0
100
AcDbArc
 50
315.0
 51
0.0
  0
ARC
  5
322
330
A
100
AcDbEntity
  8
3
  6
SOLID
 62
     7
100
AcDbCircle
 10
-251.256087515
 20
-1675.75445476
 30
0.0
 40
3.0
100
AcDbArc
 50
315.0
 51
0.0
  0
LINE
  5
323
330
A
100
AcDbEntity
  8
3
  6
SOLID
 62
     7
100
AcDbLine
 10
315.257693808
 20
-1654.070206037
 30
0.0
 11
318.5674556529999
 21
-1643.997048126
 31
0.0
  0
LINE
  5
324
330
A
100
AcDbEntity
  8
20
  6
CENTER
 62
     2
100
AcDbLine
 10
-236.256102773
 20
-1965.997098139
 30
0.0
 11
-236.256102773
 21
-2005.997098139
 31
0.0
  0
LINE
  5
325
330
A
100
AcDbEntity
  8
1
  6
SOLID
 62
     4
100
AcDbLine
 10
-368.580236106
 20
-2154.618382313
 30
0.0
 11
-291.256087515
 21
-2154.618382313
 31
0.0
  0
LINE
  5
326
330
A
100
AcDbEntity
  8
1
  6
SOLID
 62
     7
100
AcDbLine
 10
-368.580236106
 20
-2392.997070313
 30
0.0
 11
-263.256102773
 21
-2392.997070313
 31
0.0
  0
LINE
  5
327
330
A
100
AcDbEntity
  8
1
  6
SOLID
 62
     4
100
AcDbLine
 10
-368.580236106
 20
-2400.08447981
 30
0.0
 11
-291.256087515
 21
-2400.08447981
 31
0.0
  0
LINE
  5
328
330
A
100
AcDbEntity
  8
1
  6
SOLID
 62
     4
100
AcDbLine
 10
-368.580236106
 20
-2176.63787175
 30
0.0
 11
-291.256087515
 21
-2176.63787175
 31
0.0
  0
LINE
  5
329
330
A
100
AcDbEntity
  8
1
  6
SOLID
 62
     4
100
AcDbLine
 10
-368.580236106
 20
-2179.356268875
 30
0.0
 11
-291.256087515
 21
-2179.356268875
 31
0.0
  0
LINE
  5
32A
330
A
100
AcDbEntity
  8
1
  6
SOLID
 62
     4
100
AcDbLine
 10
-368.580236106
 20
-2190.63787175
 30
0.0
 11
-291.256087515
 21
-2190.63787175
 31
0.0
  0
LINE
  5
32B
330
A
100
AcDbEntity
  8
1
  6
SOLID
 62
     4
100
AcDbLine
 10
-368.580236106
 20
-2193.356268875
 30
0.0
 11
-291.256087515
 21
-2193.356268875
 31
0.0
  0
LINE
  5
32C
330
A
100
AcDbEntity
  8
1
  6
SOLID
 62
     7
100
AcDbLine
 10
310.481325941
 20
-1676.997048126
 30
0.0
 11
284.4813259409999
 21
-1676.997048126
 31
0.0
  0
LINE
  5
32D
330
A
100
AcDbEntity
  8
3
  6
SOLID
 62
     7
100
AcDbLine
 10
-278.256087515
 20
-2262.997070313
 30
0.0
 11
-255.329245425
 21
-2258.220702446
 31
0.0
  0
LINE
  5
32E
330
A
100
AcDbEntity
  8
1
  6
SOLID
 62
     7
100
AcDbLine
 10
-240.256087515
 20
-2305.997070313
 30
0.0
 11
-240.256087515
 21
-2245.997070313
 31
0.0
  0
LINE
  5
32F
330
A
100
AcDbEntity
  8
1
  6
SOLID
 62
     4
100
AcDbLine
 10
-368.580236106
 20
-2397.375758312
 30
0.0
 11
-291.256087515
 21
-2397.375758312
 31
0.0
  0
LINE
  5
330
330
A
100
AcDbEntity
  8
41
  6
SOLID
 62
     7
100
AcDbLine
 10
-324.256131012
 20
-2213.497078237
 30
0.0
 11
-324.256131012
 21
-2202.997070313
 31
0.0
  0
LINE
  5
331
330
A
100
AcDbEntity
  8
1
  6
SOLID
 62
     4
100
AcDbLine
 10
-313.256131012
 20
-2207.356268875
 30
0.0
 11
-291.256087515
 21
-2207.356268875
 31
0.0
  0
LINE
  5
332
330
A
100
AcDbEntity
  8
1
  6
SOLID
 62
     4
100
AcDbLine
 10
-313.256131012
 20
-2204.63787175
 30
0.0
 11
-291.256087515
 21
-2204.63787175
 31
0.0
  0
LINE
  5
333
330
A
100
AcDbEntity
  8
1
  6
SOLID
 62
     4
100
AcDbLine
 10
-313.256131012
 20
-2218.63787175
 30
0.0
 11
-291.256087515
 21
-2218.63787175
 31
0.0
  0
LINE
  5
334
330
A
100
AcDbEntity
  8
1
  6
CENTER
 62
     2
100
AcDbLine
 10
-105.255794567
 20
-2185.997070313
 30
0.0
 11
-105.255794567
 21
-2275.997070313
 31
0.0
  0
LINE
  5
335
330
A
100
AcDbEntity
  8
1
  6
SOLID
 62
     1
100
AcDbLine
 10
-261.441062323
 20
-1683.997094705
 30
0.0
 11
-261.441062323
 21
-1683.597094699
 31
0.0
  0
LINE
  5
336
330
A
100
AcDbEntity
  8
1
  6
SOLID
 62
     1
100
AcDbLine
 10
-273.071062437
 20
-1683.997094705
 30
0.0
 11
-261.441062323
 21
-1683.997094705
 31
0.0
  0
LINE
  5
337
330
A
100
AcDbEntity
  8
1
  6
SOLID
 62
     1
100
AcDbLine
 10
-273.071062437
 20
-1683.597094699
 30
0.0
 11
-273.071062437
 21
-1683.997094705
 31
0.0
  0
LINE
  5
338
330
A
100
AcDbEntity
  8
1
  6
SOLID
 62
     1
100
AcDbLine
 10
-272.885227672
 20
-1678.697094514
 30
0.0
 11
-261.626897088
 21
-1678.697094514
 31
0.0
  0
ARC
  5
339
330
A
100
AcDbEntity
  8
1
  6
SOLID
 62
     1
100
AcDbCircle
 10
-272.885227672
 20
-1682.019664043
 30
0.0
 40
3.322569528999999
100
AcDbArc
 50
55.61575084600001
 51
124.384249154
  0
LINE
  5
33A
330
A
100
AcDbEntity
  8
1
  6
SOLID
 62
     1
100
AcDbLine
 10
-271.008839241
 20
-1679.277651145
 30
0.0
 11
-271.008839241
 21
-1683.597094699
 31
0.0
  0
ARC
  5
33B
330
A
100
AcDbEntity
  8
1
  6
SOLID
 62
     1
100
AcDbCircle
 10
-267.25606238
 20
-1691.116537683
 30
0.0
 40
12.419443168
100
AcDbArc
 50
72.41204532399999
 51
107.587954676
  0
LINE
  5
33C
330
A
100
AcDbEntity
  8
1
  6
SOLID
 62
     1
100
AcDbLine
 10
-263.503285519
 20
-1679.277651145
 30
0.0
 11
-263.503285519
 21
-1683.597094699
 31
0.0
  0
ARC
  5
33D
330
A
100
AcDbEntity
  8
1
  6
SOLID
 62
     1
100
AcDbCircle
 10
-261.626897088
 20
-1682.019664043
 30
0.0
 40
3.322569528999999
100
AcDbArc
 50
55.61575084600001
 51
124.384249154
  0
LINE
  5
33E
330
A
100
AcDbEntity
  8
1
  6
SOLID
 62
     1
100
AcDbLine
 10
-259.750508658
 20
-1683.597094699
 30
0.0
 11
-259.750508658
 21
-1679.277651145
 31
0.0
  0
LINE
  5
33F
330
A
100
AcDbEntity
  8
1
  6
SOLID
 62
     1
100
AcDbLine
 10
-274.761616103
 20
-1683.597094699
 30
0.0
 11
-259.750508658
 21
-1683.597094699
 31
0.0
  0
LINE
  5
340
330
A
100
AcDbEntity
  8
1
  6
SOLID
 62
     1
100
AcDbLine
 10
-274.761616103
 20
-1679.277651145
 30
0.0
 11
-274.761616103
 21
-1683.597094699
 31
0.0
  0
LINE
  5
341
330
A
100
AcDbEntity
  8
1
  6
CENTER
 62
     2
100
AcDbLine
 10
-91.255794567
 20
-2185.997070313
 30
0.0
 11
-91.255794567
 21
-2275.997070313
 31
0.0
  0
LINE
  5
342
330
A
100
AcDbEntity
  8
1
  6
CENTER
 62
     2
100
AcDbLine
 10
-133.255794567
 20
-2342.997070313
 30
0.0
 11
-133.255794567
 21
-2275.997070313
 31
0.0
  0
LINE
  5
343
330
A
100
AcDbEntity
  8
1
  6
CENTER
 62
     2
100
AcDbLine
 10
-119.255794567
 20
-2342.997070313
 30
0.0
 11
-119.255794567
 21
-2275.997070313
 31
0.0
  0
LINE
  5
344
330
A
100
AcDbEntity
  8
1
  6
CENTER
 62
     2
100
AcDbLine
 10
-105.255794567
 20
-2342.997070313
 30
0.0
 11
-105.255794567
 21
-2275.997070313
 31
0.0
  0
LINE
  5
345
330
A
100
AcDbEntity
  8
1
  6
CENTER
 62
     2
100
AcDbLine
 10
-91.255794567
 20
-2342.997070313
 30
0.0
 11
-91.255794567
 21
-2275.997070313
 31
0.0
  0
LINE
  5
346
330
A
100
AcDbEntity
  8
1
  6
CENTER
 62
     2
100
AcDbLine
 10
-147.255794567
 20
-2342.997070313
 30
0.0
 11
-147.255794567
 21
-2275.997070313
 31
0.0
  0
LINE
  5
347
330
A
100
AcDbEntity
  8
1
  6
CENTER
 62
     2
100
AcDbLine
 10
-161.255794567
 20
-2342.997070313
 30
0.0
 11
-161.255794567
 21
-2275.997070313
 31
0.0
  0
LINE
  5
348
330
A
100
AcDbEntity
  8
1
  6
CENTER
 62
     2
100
AcDbLine
 10
-175.255794567
 20
-2342.997070313
 30
0.0
 11
-175.255794567
 21
-2275.997070313
 31
0.0
  0
LINE
  5
349
330
A
100
AcDbEntity
  8
1
  6
CENTER
 62
     2
100
AcDbLine
 10
-189.255794567
 20
-2342.997070313
 30
0.0
 11
-189.255794567
 21
-2275.997070313
 31
0.0
  0
LINE
  5
34A
330
A
100
AcDbEntity
  8
1
  6
SOLID
 62
     7
100
AcDbLine
 10
-291.256112115
 20
-2143.997039795
 30
0.0
 11
-287.256112115
 21
-2143.997039795
 31
0.0
  0
LINE
  5
34B
330
A
100
AcDbEntity
  8
1
  6
SOLID
 62
     7
100
AcDbLine
 10
-207.256102773
 20
-2275.997070313
 30
0.0
 11
-207.256102773
 21
-2185.997070313
 31
0.0
  0
LINE
  5
34C
330
A
100
AcDbEntity
  8
1
  6
SOLID
 62
     7
100
AcDbLine
 10
-74.25610277299999
 20
-2172.997070313
 30
0.0
 11
-75.256102773
 21
-2171.997070313
 31
0.0
  0
LINE
  5
34D
330
A
100
AcDbEntity
  8
1
  6
SOLID
 62
     7
100
AcDbLine
 10
-74.25610277299999
 20
-2184.997070313
 30
0.0
 11
-75.256102773
 21
-2185.997070313
 31
0.0
  0
LINE
  5
34E
330
A
100
AcDbEntity
  8
1
  6
SOLID
 62
     7
100
AcDbLine
 10
-74.25610277299999
 20
-2355.997070313
 30
0.0
 11
-75.256102773
 21
-2356.997070312
 31
0.0
  0
LINE
  5
34F
330
A
100
AcDbEntity
  8
1
  6
SOLID
 62
     7
100
AcDbLine
 10
-74.25610277299999
 20
-2343.997070313
 30
0.0
 11
-75.256102773
 21
-2342.997070313
 31
0.0
  0
LINE
  5
350
330
A
100
AcDbEntity
  8
2
  6
SOLID
 62
     7
100
AcDbLine
 10
-523.2562553699999
 20
-2135.997070313
 30
0.0
 11
-523.2562553699999
 21
-2252.337538003
 31
0.0
  0
LINE
  5
351
330
A
100
AcDbEntity
  8
1
  6
SOLID
 62
     4
100
AcDbLine
 10
-368.580236106
 20
-2375.356268875
 30
0.0
 11
-291.256087515
 21
-2375.356268875
 31
0.0
  0
LINE
  5
352
330
A
100
AcDbEntity
  8
1
  6
SOLID
 62
     7
100
AcDbLine
 10
-513.2561310119999
 20
-1655.239688813
 30
0.0
 11
-513.2561310119999
 21
-1676.997048126
 31
0.0
  0
LINE
  5
353
330
A
100
AcDbEntity
  8
1
  6
SOLID
 62
     7
100
AcDbLine
 10
-518.2561310119999
 20
-1655.239688813
 30
0.0
 11
-518.2561310119999
 21
-1676.997048126
 31
0.0
  0
LINE
  5
354
330
A
100
AcDbEntity
  8
1
  6
SOLID
 62
     7
100
AcDbLine
 10
-240.256087515
 20
-2290.997070313
 30
0.0
 11
-213.256102773
 21
-2290.997070313
 31
0.0
  0
LINE
  5
355
330
A
100
AcDbEntity
  8
1
  6
SOLID
 62
     7
100
AcDbLine
 10
-209.256102773
 20
-2171.997070313
 30
0.0
 11
-75.256102773
 21
-2171.997070313
 31
0.0
  0
LINE
  5
356
330
A
100
AcDbEntity
  8
1
  6
CENTER
 62
     2
100
AcDbLine
 10
-505.1095577919999
 20
-1665.997048126
 30
0.0
 11
-522.2426364609999
 21
-1665.997048126
 31
0.0
  0
ARC
  5
357
330
A
100
AcDbEntity
  8
3
  6
SOLID
 62
     7
100
AcDbCircle
 10
-521.2561310119999
 20
-1655.239688813
 30
0.0
 40
3.0
100
AcDbArc
 50
360.0
 51
45.0
  0
LINE
  5
358
330
A
100
AcDbEntity
  8
1
  6
SOLID
 62
     7
100
AcDbLine
 10
-286.256131012
 20
-2260.997070313
 30
0.0
 11
-268.655971807
 21
-2260.997070313
 31
0.0
  0
LINE
  5
359
330
A
100
AcDbEntity
  8
1
  6
SOLID
 62
     7
100
AcDbLine
 10
-209.256102773
 20
-2185.997070313
 30
0.0
 11
-75.256102773
 21
-2185.997070313
 31
0.0
  0
LINE
  5
35A
330
A
100
AcDbEntity
  8
1
  6
SOLID
 62
     7
100
AcDbLine
 10
-74.25610277299999
 20
-2184.997070313
 30
0.0
 11
-74.25610277299999
 21
-2172.997070313
 31
0.0
  0
LINE
  5
35B
330
A
100
AcDbEntity
  8
1
  6
SOLID
 62
     7
100
AcDbLine
 10
-209.256102773
 20
-2356.997070313
 30
0.0
 11
-75.256102773
 21
-2356.997070313
 31
0.0
  0
LINE
  5
35C
330
A
100
AcDbEntity
  8
1
  6
SOLID
 62
     7
100
AcDbLine
 10
-209.256102773
 20
-2342.997070313
 30
0.0
 11
-75.256102773
 21
-2342.997070313
 31
0.0
  0
LINE
  5
35D
330
A
100
AcDbEntity
  8
1
  6
SOLID
 62
     7
100
AcDbLine
 10
-74.25610277299999
 20
-2343.997070312
 30
0.0
 11
-74.25610277299999
 21
-2355.997070312
 31
0.0
  0
LINE
  5
35E
330
A
100
AcDbEntity
  8
1
  6
CENTER
 62
     2
100
AcDbLine
 10
-217.208555406
 20
-2169.497071934
 30
0.0
 11
-203.17734856
 21
-2169.497071934
 31
0.0
  0
LINE
  5
35F
330
A
100
AcDbEntity
  8
1
  6
CENTER
 62
     2
100
AcDbLine
 10
-233.461948931
 20
-2178.997070313
 30
0.0
 11
-62.45493113
 21
-2178.997070313
 31
0.0
  0
LINE
  5
360
330
A
100
AcDbEntity
  8
1
  6
SOLID
 62
     7
100
AcDbLine
 10
-209.256102773
 20
-2193.997093219
 30
0.0
 11
-209.256102773
 21
-2151.997075712
 31
0.0
  0
LINE
  5
361
330
A
100
AcDbEntity
  8
2
  6
SOLID
 62
     7
100
AcDbLine
 10
-445.2560875149999
 20
-2200.997070313
 30
0.0
 11
-445.2560875149999
 21
-2172.997070313
 31
0.0
  0
LINE
  5
362
330
A
100
AcDbEntity
  8
1
  6
SOLID
 62
     7
100
AcDbLine
 10
-560.656087133
 20
-2118.496992594
 30
0.0
 11
-560.656087133
 21
-2247.507759599
 31
0.0
  0
LINE
  5
363
330
A
100
AcDbEntity
  8
1
  6
SOLID
 62
     7
100
AcDbLine
 10
-441.2561325169999
 20
-2138.997070313
 30
0.0
 11
-441.2561325169999
 21
-2158.997070313
 31
0.0
  0
LINE
  5
364
330
A
100
AcDbEntity
  8
1
  6
CENTER
 62
     2
100
AcDbLine
 10
-523.2560875149999
 20
-2165.997070313
 30
0.0
 11
-445.767352424
 21
-2165.997070313
 31
0.0
  0
LINE
  5
365
330
A
100
AcDbEntity
  8
1
  6
SOLID
 62
     7
100
AcDbLine
 10
-213.256102773
 20
-2151.997075712
 30
0.0
 11
-209.256102773
 21
-2151.997075712
 31
0.0
  0
LINE
  5
366
330
A
100
AcDbEntity
  8
1
  6
SOLID
 62
     7
100
AcDbLine
 10
-213.256102773
 20
-2193.997093219
 30
0.0
 11
-209.256102773
 21
-2193.997093219
 31
0.0
  0
LINE
  5
367
330
A
100
AcDbEntity
  8
1
  6
SOLID
 62
     7
100
AcDbLine
 10
-493.4560728069999
 20
-2378.997070313
 30
0.0
 11
-441.2561325169999
 21
-2378.997070313
 31
0.0
  0
LINE
  5
368
330
A
100
AcDbEntity
  8
1
  6
SOLID
 62
     7
100
AcDbLine
 10
-368.580236106
 20
-2392.997070313
 30
0.0
 11
-263.256102773
 21
-2392.997070313
 31
0.0
  0
LINE
  5
369
330
A
100
AcDbEntity
  8
1
  6
CENTER
 62
     2
100
AcDbLine
 10
-233.461948931
 20
-2349.997070313
 30
0.0
 11
-62.45493113
 21
-2349.997070313
 31
0.0
  0
LINE
  5
36A
330
A
100
AcDbEntity
  8
1
  6
SOLID
 62
     7
100
AcDbLine
 10
-213.256102773
 20
-2399.997064913
 30
0.0
 11
-209.256102773
 21
-2399.997064913
 31
0.0
  0
LINE
  5
36B
330
A
100
AcDbEntity
  8
1
  6
SOLID
 62
     7
100
AcDbLine
 10
-560.656087133
 20
-2264.30772367
 30
0.0
 11
-560.656087133
 21
-2287.686416955
 31
0.0
  0
LINE
  5
36C
330
A
100
AcDbEntity
  8
1
  6
SOLID
 62
     7
100
AcDbLine
 10
-209.256102773
 20
-2334.997047406
 30
0.0
 11
-209.256102773
 21
-2399.997064913
 31
0.0
  0
LINE
  5
36D
330
A
100
AcDbEntity
  8
2
  6
SOLID
 62
     7
100
AcDbLine
 10
-445.2560875149999
 20
-2350.997070313
 30
0.0
 11
-445.2560875149999
 21
-2378.997070313
 31
0.0
  0
LINE
  5
36E
330
A
100
AcDbEntity
  8
1
  6
SOLID
 62
     4
100
AcDbLine
 10
-368.580236106
 20
-2372.63787175
 30
0.0
 11
-291.256087515
 21
-2372.63787175
 31
0.0
  0
LINE
  5
36F
330
A
100
AcDbEntity
  8
1
  6
CENTER
 62
     2
100
AcDbLine
 10
-217.208555406
 20
-2382.497068691
 30
0.0
 11
-203.17734856
 21
-2382.497068691
 31
0.0
  0
LINE
  5
370
330
A
100
AcDbEntity
  8
1
  6
SOLID
 62
     7
100
AcDbLine
 10
-213.256102773
 20
-2334.997047406
 30
0.0
 11
-209.256102773
 21
-2334.997047406
 31
0.0
  0
LINE
  5
371
330
A
100
AcDbEntity
  8
1
  6
SOLID
 62
     7
100
AcDbLine
 10
-207.256102773
 20
-2275.997070313
 30
0.0
 11
-207.256102773
 21
-2342.997070313
 31
0.0
  0
LINE
  5
372
330
A
100
AcDbEntity
  8
1
  6
SOLID
 62
     7
100
AcDbLine
 10
-200.255794567
 20
-2153.997065016
 30
0.0
 11
-200.255794567
 21
-2171.997070313
 31
0.0
  0
LINE
  5
373
330
A
100
AcDbEntity
  8
1
  6
CENTER
 62
     2
100
AcDbLine
 10
-189.255794567
 20
-2141.275693822
 30
0.0
 11
-189.255794567
 21
-2171.997070313
 31
0.0
  0
LINE
  5
374
330
A
100
AcDbEntity
  8
1
  6
CENTER
 62
     2
100
AcDbLine
 10
-175.255794567
 20
-2141.275693822
 30
0.0
 11
-175.255794567
 21
-2171.997070313
 31
0.0
  0
LINE
  5
375
330
A
100
AcDbEntity
  8
1
  6
CENTER
 62
     2
100
AcDbLine
 10
-161.255794567
 20
-2141.275693822
 30
0.0
 11
-161.255794567
 21
-2171.997070313
 31
0.0
  0
LINE
  5
376
330
A
100
AcDbEntity
  8
1
  6
CENTER
 62
     2
100
AcDbLine
 10
-147.255794567
 20
-2141.275693822
 30
0.0
 11
-147.255794567
 21
-2171.997070313
 31
0.0
  0
LINE
  5
377
330
A
100
AcDbEntity
  8
1
  6
SOLID
 62
     7
100
AcDbLine
 10
-80.25579456699999
 20
-2153.997065016
 30
0.0
 11
-80.25579456699999
 21
-2171.997070313
 31
0.0
  0
LINE
  5
378
330
A
100
AcDbEntity
  8
1
  6
CENTER
 62
     2
100
AcDbLine
 10
-133.255794567
 20
-2141.275693822
 30
0.0
 11
-133.255794567
 21
-2171.997070313
 31
0.0
  0
LINE
  5
379
330
A
100
AcDbEntity
  8
1
  6
SOLID
 62
     7
100
AcDbLine
 10
-441.2561325169999
 20
-2412.997070313
 30
0.0
 11
-441.2561325169999
 21
-2392.997070313
 31
0.0
  0
LINE
  5
37A
330
A
100
AcDbEntity
  8
2
  6
SOLID
 62
     7
100
AcDbLine
 10
-445.2560875149999
 20
-2392.997070313
 30
0.0
 11
-445.2560875149999
 21
-2412.996981753
 31
0.0
  0
LINE
  5
37B
330
A
100
AcDbEntity
  8
1
  6
CENTER
 62
     2
100
AcDbLine
 10
-119.255794567
 20
-2141.275693822
 30
0.0
 11
-119.255794567
 21
-2171.997070313
 31
0.0
  0
LINE
  5
37C
330
A
100
AcDbEntity
  8
1
  6
CENTER
 62
     2
100
AcDbLine
 10
-105.255794567
 20
-2141.275693822
 30
0.0
 11
-105.255794567
 21
-2171.997070313
 31
0.0
  0
LINE
  5
37D
330
A
100
AcDbEntity
  8
1
  6
CENTER
 62
     2
100
AcDbLine
 10
-91.255794567
 20
-2141.275693822
 30
0.0
 11
-91.255794567
 21
-2171.997070313
 31
0.0
  0
LINE
  5
37E
330
A
100
AcDbEntity
  8
1
  6
SOLID
 62
     7
100
AcDbLine
 10
-200.255794567
 20
-2275.997070313
 30
0.0
 11
-200.255794567
 21
-2342.997070313
 31
0.0
  0
LINE
  5
37F
330
A
100
AcDbEntity
  8
1
  6
CENTER
 62
     2
100
AcDbLine
 10
-189.255794567
 20
-2410.718446803
 30
0.0
 11
-189.255794567
 21
-2356.997070313
 31
0.0
  0
LINE
  5
380
330
A
100
AcDbEntity
  8
1
  6
CENTER
 62
     2
100
AcDbLine
 10
-175.255794567
 20
-2410.718446803
 30
0.0
 11
-175.255794567
 21
-2356.997070313
 31
0.0
  0
LINE
  5
381
330
A
100
AcDbEntity
  8
1
  6
CENTER
 62
     2
100
AcDbLine
 10
-161.255794567
 20
-2410.718446803
 30
0.0
 11
-161.255794567
 21
-2356.997070313
 31
0.0
  0
LINE
  5
382
330
A
100
AcDbEntity
  8
1
  6
CENTER
 62
     2
100
AcDbLine
 10
-147.255794567
 20
-2410.718446803
 30
0.0
 11
-147.255794567
 21
-2356.997070313
 31
0.0
  0
LINE
  5
383
330
A
100
AcDbEntity
  8
1
  6
CENTER
 62
     2
100
AcDbLine
 10
-133.255794567
 20
-2410.718446803
 30
0.0
 11
-133.255794567
 21
-2356.997070313
 31
0.0
  0
LINE
  5
384
330
A
100
AcDbEntity
  8
1
  6
CENTER
 62
     2
100
AcDbLine
 10
-119.255794567
 20
-2410.718446803
 30
0.0
 11
-119.255794567
 21
-2356.997070313
 31
0.0
  0
LINE
  5
385
330
A
100
AcDbEntity
  8
1
  6
CENTER
 62
     2
100
AcDbLine
 10
-105.255794567
 20
-2410.718446803
 30
0.0
 11
-105.255794567
 21
-2356.997070313
 31
0.0
  0
LINE
  5
386
330
A
100
AcDbEntity
  8
1
  6
CENTER
 62
     2
100
AcDbLine
 10
-91.255794567
 20
-2410.718446803
 30
0.0
 11
-91.255794567
 21
-2356.997070313
 31
0.0
  0
LINE
  5
387
330
A
100
AcDbEntity
  8
1
  6
SOLID
 62
     7
100
AcDbLine
 10
-80.25579456699999
 20
-2185.997070313
 30
0.0
 11
-80.25579456699999
 21
-2342.997070313
 31
0.0
  0
LINE
  5
388
330
A
100
AcDbEntity
  8
1
  6
CENTER
 62
     2
100
AcDbLine
 10
-523.2560875149999
 20
-2385.997070313
 30
0.0
 11
-445.767352424
 21
-2385.997070313
 31
0.0
  0
LINE
  5
389
330
A
100
AcDbEntity
  8
1
  6
SOLID
 62
     7
100
AcDbLine
 10
-291.256087515
 20
-2412.997070313
 30
0.0
 11
-291.256087515
 21
-2392.997070313
 31
0.0
  0
LINE
  5
38A
330
A
100
AcDbEntity
  8
1
  6
SOLID
 62
     4
100
AcDbLine
 10
-368.580236106
 20
-2361.356268875
 30
0.0
 11
-291.256087515
 21
-2361.356268875
 31
0.0
  0
LINE
  5
38B
330
A
100
AcDbEntity
  8
1
  6
SOLID
 62
     7
100
AcDbLine
 10
-287.256087515
 20
-2283.761023417
 30
0.0
 11
-287.256087515
 21
-2276.23308156
 31
0.0
  0
ARC
  5
38C
330
A
100
AcDbEntity
  8
3
  6
SOLID
 62
     7
100
AcDbCircle
 10
-521.2561310119999
 20
-1655.239688813
 30
0.0
 40
8.0
100
AcDbArc
 50
360.0
 51
45.0
  0
LINE
  5
38D
330
A
100
AcDbEntity
  8
1
  6
SOLID
 62
     7
100
AcDbLine
 10
-286.256131012
 20
-2290.997070313
 30
0.0
 11
-268.655971807
 21
-2290.997070313
 31
0.0
  0
LINE
  5
38E
330
A
100
AcDbEntity
  8
1
  6
SOLID
 62
     7
100
AcDbLine
 10
-291.256087515
 20
-2378.997070313
 30
0.0
 11
-263.256102773
 21
-2378.997070313
 31
0.0
  0
LINE
  5
38F
330
A
100
AcDbEntity
  8
1
  6
SOLID
 62
     7
100
AcDbLine
 10
-287.256087515
 20
-2412.997045178
 30
0.0
 11
-287.256087515
 21
-2392.997070313
 31
0.0
  0
ARC
  5
390
330
A
100
AcDbEntity
  8
3
  6
SOLID
 62
     7
100
AcDbCircle
 10
-526.498771699
 20
-1649.997048126
 30
0.0
 40
8.0
100
AcDbArc
 50
45.0
 51
90.0
  0
ARC
  5
391
330
A
100
AcDbEntity
  8
3
  6
SOLID
 62
     7
100
AcDbCircle
 10
-526.498771699
 20
-1649.997048126
 30
0.0
 40
3.0
100
AcDbArc
 50
45.0
 51
90.0
  0
LINE
  5
392
330
A
100
AcDbEntity
  8
1
  6
SOLID
 62
     7
100
AcDbLine
 10
-245.256087515
 20
-2305.997070313
 30
0.0
 11
-245.256087515
 21
-2245.997070313
 31
0.0
  0
LINE
  5
393
330
A
100
AcDbEntity
  8
1
  6
CENTER
 62
     2
100
AcDbLine
 10
-285.818838889
 20
-2385.997070313
 30
0.0
 11
-220.159743285
 21
-2385.997070313
 31
0.0
  0
LINE
  5
394
330
A
100
AcDbEntity
  8
1
  6
SOLID
 62
     7
100
AcDbLine
 10
-232.256102773
 20
-2392.997070313
 30
0.0
 11
-228.256102773
 21
-2392.997070313
 31
0.0
  0
LINE
  5
395
330
A
100
AcDbEntity
  8
3
  6
SOLID
 62
     7
100
AcDbLine
 10
-506.25625537
 20
-2135.997070312
 30
0.0
 11
-461.4655554469999
 21
-2158.997070312
 31
0.0
  0
LINE
  5
396
330
A
100
AcDbEntity
  8
1
  6
SOLID
 62
     7
100
AcDbLine
 10
-232.256102773
 20
-2378.997070313
 30
0.0
 11
-228.256102773
 21
-2378.997070313
 31
0.0
  0
LINE
  5
397
330
A
100
AcDbEntity
  8
1
  6
SOLID
 62
     7
100
AcDbLine
 10
-232.256102773
 20
-2377.497070313
 30
0.0
 11
-232.256102773
 21
-2394.497070313
 31
0.0
  0
CIRCLE
  5
398
330
A
100
AcDbEntity
  8
1
  6
SOLID
 62
     3
100
AcDbCircle
 10
297.481325941
 20
-1825.996992594
 30
0.0
 40
10.0
  0
ARC
  5
399
330
A
100
AcDbEntity
  8
1
  6
SOLID
 62
     1
100
AcDbCircle
 10
-648.9273975349999
 20
-2233.307524857
 30
0.0
 40
2.249123364999999
100
AcDbArc
 50
145.615740999
 51
214.384259001
  0
ARC
  5
39A
330
A
100
AcDbEntity
  8
1
  6
SOLID
 62
     1
100
AcDbCircle
 10
-642.769515874
 20
-2229.497013066
 30
0.0
 40
8.407005026
100
AcDbArc
 50
162.412040055
 51
197.587959945
  0
LINE
  5
39B
330
A
100
AcDbEntity
  8
1
  6
CENTER
 62
     2
100
AcDbLine
 10
-613.13746758
 20
-2229.497013066
 30
0.0
 11
-656.1765209009999
 21
-2229.497013066
 31
0.0
  0
LINE
  5
39C
330
A
100
AcDbEntity
  8
1
  6
SOLID
 62
     1
100
AcDbLine
 10
-650.7835286099999
 20
-2226.956671873
 30
0.0
 11
-647.8765207799999
 21
-2226.956671873
 31
0.0
  0
ARC
  5
39D
330
A
100
AcDbEntity
  8
1
  6
SOLID
 62
     1
100
AcDbCircle
 10
-648.9273975349999
 20
-2225.686501276
 30
0.0
 40
2.249123364999999
100
AcDbArc
 50
145.615740999
 51
214.384259001
  0
LINE
  5
39E
330
A
100
AcDbEntity
  8
1
  6
SOLID
 62
     7
100
AcDbLine
 10
-647.656521182
 20
-2221.398999337
 30
0.0
 11
-647.656330601
 21
-2275.997070313
 31
0.0
  0
LINE
  5
39F
330
A
100
AcDbEntity
  8
1
  6
SOLID
 62
     7
100
AcDbLine
 10
-619.656424752
 20
-2238.497070313
 30
0.0
 11
-541.256423226
 21
-2238.497070313
 31
0.0
  0
LINE
  5
3A0
330
A
100
AcDbEntity
  8
1
  6
SOLID
 62
     7
100
AcDbLine
 10
-590.6563766859999
 20
-2239.497013066
 30
0.0
 11
-589.6563766859999
 21
-2240.497013066
 31
0.0
  0
LINE
  5
3A1
330
A
100
AcDbEntity
  8
1
  6
SOLID
 62
     7
100
AcDbLine
 10
-619.656424752
 20
-2118.496992594
 30
0.0
 11
-619.656424752
 21
-2275.997070313
 31
0.0
  0
LINE
  5
3A2
330
A
100
AcDbEntity
  8
1
  6
SOLID
 62
     7
100
AcDbLine
 10
-590.6563766859999
 20
-2239.497013066
 30
0.0
 11
-619.656424752
 21
-2239.497013066
 31
0.0
  0
LINE
  5
3A3
330
A
100
AcDbEntity
  8
1
  6
SOLID
 62
     7
100
AcDbLine
 10
-619.656424752
 20
-2221.398936855
 30
0.0
 11
-619.656424752
 21
-2239.497013066
 31
0.0
  0
LINE
  5
3A4
330
A
100
AcDbEntity
  8
1
  6
SOLID
 62
     7
100
AcDbLine
 10
-589.6563766859999
 20
-2275.997070313
 30
0.0
 11
-589.6563766859999
 21
-2240.497013066
 31
0.0
  0
LINE
  5
3A5
330
A
100
AcDbEntity
  8
1
  6
SOLID
 62
     7
100
AcDbLine
 10
-589.2562553699999
 20
-2298.497070312
 30
0.0
 11
-589.2562553699999
 21
-2253.497070312
 31
0.0
  0
LINE
  5
3A6
330
A
100
AcDbEntity
  8
1
  6
SOLID
 62
     7
100
AcDbLine
 10
-589.2562553699999
 20
-2253.497070313
 30
0.0
 11
-571.099265845
 21
-2253.497070313
 31
0.0
  0
LINE
  5
3A7
330
A
100
AcDbEntity
  8
1
  6
SOLID
 62
     7
100
AcDbLine
 10
-558.256423226
 20
-2238.497070313
 30
0.0
 11
-558.256423226
 21
-2246.825236141
 31
0.0
  0
LINE
  5
3A8
330
A
100
AcDbEntity
  8
1
  6
SOLID
 62
     7
100
AcDbLine
 10
-541.256423226
 20
-2118.496992594
 30
0.0
 11
-541.256423226
 21
-2275.997070313
 31
0.0
  0
LINE
  5
3A9
330
A
100
AcDbEntity
  8
1
  6
SOLID
 62
     7
100
AcDbLine
 10
-558.256423226
 20
-2313.497070313
 30
0.0
 11
-558.256423226
 21
-2305.168904484
 31
0.0
  0
LINE
  5
3AA
330
A
100
AcDbEntity
  8
1
  6
SOLID
 62
     7
100
AcDbLine
 10
-589.2562553699999
 20
-2265.997115289
 30
0.0
 11
-589.6563766859999
 21
-2265.997115289
 31
0.0
  0
ARC
  5
3AB
330
A
100
AcDbEntity
  8
1
  6
SOLID
 62
     7
100
AcDbCircle
 10
-621.156424752
 20
-2223.997013066
 30
0.0
 40
3.0
100
AcDbArc
 50
60.0
 51
90.0
  0
LINE
  5
3AC
330
A
100
AcDbEntity
  8
1
  6
SOLID
 62
     7
100
AcDbLine
 10
-621.156424752
 20
-2220.997013066
 30
0.0
 11
-646.156512114
 21
-2220.997013066
 31
0.0
  0
LINE
  5
3AD
330
A
100
AcDbEntity
  8
1
  6
SOLID
 62
     1
100
AcDbLine
 10
-626.056424847
 20
-2205.925151348
 30
0.0
 11
-626.056424847
 21
-2192.068745136
 31
0.0
  0
LINE
  5
3AE
330
A
100
AcDbEntity
  8
1
  6
SOLID
 62
     7
100
AcDbLine
 10
-80.25579456699999
 20
-2356.997070313
 30
0.0
 11
-80.25579456699999
 21
-2397.997065016
 31
0.0
  0
LINE
  5
3AF
330
A
100
AcDbEntity
  8
1
  6
SOLID
 62
     7
100
AcDbLine
 10
-200.255794567
 20
-2356.997070313
 30
0.0
 11
-200.255794567
 21
-2397.997065016
 31
0.0
  0
LINE
  5
3B0
330
A
100
AcDbEntity
  8
1
  6
SOLID
 62
     7
100
AcDbLine
 10
-80.25579456699999
 20
-2153.997065016
 30
0.0
 11
-200.255794567
 21
-2153.997065016
 31
0.0
  0
LINE
  5
3B1
330
A
100
AcDbEntity
  8
1
  6
SOLID
 62
     7
100
AcDbLine
 10
-80.25579456699999
 20
-2397.997065016
 30
0.0
 11
-200.255794567
 21
-2397.997065016
 31
0.0
  0
LINE
  5
3B2
330
A
100
AcDbEntity
  8
1
  6
SOLID
 62
     7
100
AcDbLine
 10
-207.256102773
 20
-2188.997070313
 30
0.0
 11
-206.921784878
 21
-2188.997070313
 31
0.0
  0
LINE
  5
3B3
330
A
100
AcDbEntity
  8
1
  6
SOLID
 62
     7
100
AcDbLine
 10
-206.921784878
 20
-2188.997070313
 30
0.0
 11
-206.921784878
 21
-2185.997070313
 31
0.0
  0
LINE
  5
3B4
330
A
100
AcDbEntity
  8
1
  6
CENTER
 62
     2
100
AcDbLine
 10
-551.2561310119999
 20
-2246.165559353
 30
0.0
 11
-551.2561310119999
 21
-2303.792593091
 31
0.0
  0
ARC
  5
3B5
330
A
100
AcDbEntity
  8
1
  6
SOLID
 62
     1
100
AcDbCircle
 10
-610.770961495
 20
-2198.996948242
 30
0.0
 40
15.285463353
100
AcDbArc
 50
162.412040055
 51
197.587959945
  0
LINE
  5
3B6
330
A
100
AcDbEntity
  8
1
  6
SOLID
 62
     1
100
AcDbLine
 10
-625.3418934249999
 20
-2194.378146172
 30
0.0
 11
-620.056424758
 21
-2194.378146172
 31
0.0
  0
ARC
  5
3B7
330
A
100
AcDbEntity
  8
1
  6
SOLID
 62
     1
100
AcDbCircle
 10
-621.967109726
 20
-2192.068745136
 30
0.0
 40
4.089315121
100
AcDbArc
 50
145.615740999
 51
214.384259001
  0
LINE
  5
3B8
330
A
100
AcDbEntity
  8
3
  6
SOLID
 62
     7
100
AcDbLine
 10
-255.329245425
 20
-2293.773438179
 30
0.0
 11
-245.256087515
 21
-2297.083200024
 31
0.0
  0
DIMENSION
  5
3C8
330
A
100
AcDbEntity
  8
1
  6
SOLID
 62
     3
100
AcDbDimension
  2
*D16
 10
-651.176147461
 20
-1534.40222168
 30
0.0
 11
-378.639282227
 21
-1528.90222168
 31
0.0
  1
  570   
 71
     5
 42
0.0
  3
17
100
AcDbAlignedDimension
 13
-80.25579834
 23
-1703.997070313
 33
0.0
 14
-651.176147461
 24
-1822.186523438
 34
0.0
100
AcDbRotatedDimension
  0
LINE
  5
3C9
330
A
100
AcDbEntity
  8
1
  6
SOLID
 62
     1
100
AcDbLine
 10
-620.056424758
 20
-2189.759344101
 30
0.0
 11
-625.3418934249999
 21
-2189.759344101
 31
0.0
  0
LINE
  5
3CA
330
A
100
AcDbEntity
  8
1
  6
SOLID
 62
     1
100
AcDbLine
 10
-619.656424752
 20
-2191.681948185
 30
0.0
 11
-620.056424758
 21
-2191.681948185
 31
0.0
  0
LINE
  5
3CB
330
A
100
AcDbEntity
  8
2
  6
SOLID
 62
     7
100
AcDbLine
 10
-445.2562553699999
 20
-2138.997070313
 30
0.0
 11
-503.377905626
 21
-2137.475101337
 31
0.0
  0
LINE
  5
3CC
330
A
100
AcDbEntity
  8
1
  6
SOLID
 62
     1
100
AcDbLine
 10
-620.056424758
 20
-2208.234552383
 30
0.0
 11
-620.056424758
 21
-2189.759344101
 31
0.0
  0
LINE
  5
3CD
330
A
100
AcDbEntity
  8
1
  6
SOLID
 62
     1
100
AcDbLine
 10
-625.3418934249999
 20
-2203.615750313
 30
0.0
 11
-620.056424758
 21
-2203.615750313
 31
0.0
  0
LINE
  5
3CE
330
A
100
AcDbEntity
  8
1
  6
SOLID
 62
     7
100
AcDbLine
 10
-278.256087515
 20
-2288.997070313
 30
0.0
 11
-278.256087515
 21
-2262.997070313
 31
0.0
  0
LINE
  5
3CF
330
A
100
AcDbEntity
  8
1
  6
SOLID
 62
     7
100
AcDbLine
 10
-313.256131012
 20
-2215.497078237
 30
0.0
 11
-315.256131012
 21
-2213.497078237
 31
0.0
  0
LINE
  5
3D0
330
A
100
AcDbEntity
  8
1
  6
SOLID
 62
     1
100
AcDbLine
 10
-625.3418934249999
 20
-2208.234552383
 30
0.0
 11
-620.056424758
 21
-2208.234552383
 31
0.0
  0
LINE
  5
3D1
330
A
100
AcDbEntity
  8
1
  6
SOLID
 62
     1
100
AcDbLine
 10
-620.056424758
 20
-2206.311948299
 30
0.0
 11
-619.656424752
 21
-2206.311948299
 31
0.0
  0
LINE
  5
3D2
330
A
100
AcDbEntity
  8
2
  6
SOLID
 62
     7
100
AcDbLine
 10
-445.2562553699999
 20
-2158.997070313
 30
0.0
 11
-445.2562553699999
 21
-2138.997070313
 31
0.0
  0
LINE
  5
3D3
330
A
100
AcDbEntity
  8
2
  6
SOLID
 62
     7
100
AcDbLine
 10
-308.256131012
 20
-2306.997052488
 30
0.0
 11
-308.256131012
 21
-2330.997052488
 31
0.0
  0
LINE
  5
3D4
330
A
100
AcDbEntity
  8
1
  6
SOLID
 62
     7
100
AcDbLine
 10
-235.643733199
 20
-2396.497070313
 30
0.0
 11
-234.256102773
 21
-2396.497070313
 31
0.0
  0
LINE
  5
3D5
330
A
100
AcDbEntity
  8
3
  6
SOLID
 62
     7
100
AcDbLine
 10
-506.25625537
 20
-2415.997070313
 30
0.0
 11
-461.4655554469999
 21
-2392.997070313
 31
0.0
  0
LINE
  5
3D6
330
A
100
AcDbEntity
  8
2
  6
SOLID
 62
     7
100
AcDbLine
 10
-441.2561325169999
 20
-2143.997158872
 30
0.0
 11
-445.2560875149999
 21
-2143.997158872
 31
0.0
  0
LINE
  5
3D7
330
A
100
AcDbEntity
  8
1
  6
SOLID
 62
     7
100
AcDbLine
 10
-200.255794567
 20
-2185.997070313
 30
0.0
 11
-200.255794567
 21
-2275.997070313
 31
0.0
  0
ARC
  5
3D8
330
A
100
AcDbEntity
  8
1
  6
SOLID
 62
     7
100
AcDbCircle
 10
-215.256102773
 20
-2140.997095447
 30
0.0
 40
2.0
100
AcDbArc
 50
0.0
 51
90.0
  0
LINE
  5
3D9
330
A
100
AcDbEntity
  8
1
  6
SOLID
 62
     7
100
AcDbLine
 10
-235.643733199
 20
-2375.497070313
 30
0.0
 11
-234.256102773
 21
-2375.497070313
 31
0.0
  0
ARC
  5
3DA
330
A
100
AcDbEntity
  8
1
  6
SOLID
 62
     7
100
AcDbCircle
 10
-234.256102773
 20
-2394.497070313
 30
0.0
 40
2.0
100
AcDbArc
 50
270.0
 51
0.0
  0
ARC
  5
3DB
330
A
100
AcDbEntity
  8
3
  6
SOLID
 62
     7
100
AcDbCircle
 10
-551.2561310119999
 20
-2275.997070313
 30
0.0
 40
15.0
100
AcDbArc
 50
90.0
 51
270.0
  0
ARC
  5
3DC
330
A
100
AcDbEntity
  8
3
  6
SOLID
 62
     7
100
AcDbCircle
 10
-551.2561310119999
 20
-2275.997070313
 30
0.0
 40
15.0
100
AcDbArc
 50
270.0
 51
90.0
  0
LINE
  5
3DD
330
A
100
AcDbEntity
  8
1
  6
SOLID
 62
     7
100
AcDbLine
 10
-324.256131012
 20
-2202.997070313
 30
0.0
 11
-326.256131012
 21
-2200.997070312
 31
0.0
  0
ARC
  5
3DE
330
A
100
AcDbEntity
  8
1
  6
SOLID
 62
     7
100
AcDbCircle
 10
-208.256102773
 20
-2379.997098139
 30
0.0
 40
1.0
100
AcDbArc
 50
270.0
 51
0.0
  0
LINE
  5
3DF
330
A
100
AcDbEntity
  8
1
  6
SOLID
 62
     7
100
AcDbLine
 10
-207.256102773
 20
-2356.997070313
 30
0.0
 11
-207.256102773
 21
-2379.997098139
 31
0.0
  0
LINE
  5
3E0
330
A
100
AcDbEntity
  8
1
  6
SOLID
 62
     7
100
AcDbLine
 10
-208.256102773
 20
-2380.997098139
 30
0.0
 11
-213.256102773
 21
-2380.997098139
 31
0.0
  0
LINE
  5
3E1
330
A
100
AcDbEntity
  8
1
  6
SOLID
 62
     7
100
AcDbLine
 10
-213.256102773
 20
-2140.997095447
 30
0.0
 11
-213.256102773
 21
-2275.997070313
 31
0.0
  0
ARC
  5
3E2
330
A
100
AcDbEntity
  8
1
  6
SOLID
 62
     7
100
AcDbCircle
 10
-208.256102773
 20
-2171.997098139
 30
0.0
 40
1.0
100
AcDbArc
 50
0.0
 51
90.0
  0
LINE
  5
3E3
330
A
100
AcDbEntity
  8
1
  6
SOLID
 62
     7
100
AcDbLine
 10
-207.256102773
 20
-2194.997070313
 30
0.0
 11
-207.256102773
 21
-2185.997070313
 31
0.0
  0
LINE
  5
3E4
330
A
100
AcDbEntity
  8
41
  6
SOLID
 62
     7
100
AcDbLine
 10
-287.256087515
 20
-2138.997095447
 30
0.0
 11
-215.256102773
 21
-2138.997095447
 31
0.0
  0
ARC
  5
3E5
330
A
100
AcDbEntity
  8
1
  6
SOLID
 62
     1
100
AcDbCircle
 10
-621.967109726
 20
-2205.925151348
 30
0.0
 40
4.089315121
100
AcDbArc
 50
145.615740999
 51
214.384259001
  0
LINE
  5
3E6
330
A
100
AcDbEntity
  8
1
  6
SOLID
 62
     7
100
AcDbLine
 10
-541.256423226
 20
-2118.496992594
 30
0.0
 11
-619.656424752
 21
-2118.496992594
 31
0.0
  0
LINE
  5
3E7
330
A
100
AcDbEntity
  8
1
  6
SOLID
 62
     7
100
AcDbLine
 10
-287.256112861
 20
-2411.997073341
 30
0.0
 11
-287.256112115
 21
-2407.997073341
 31
0.0
  0
LINE
  5
3E8
330
A
100
AcDbEntity
  8
1
  6
SOLID
 62
     7
100
AcDbLine
 10
-208.256102773
 20
-2170.997098139
 30
0.0
 11
-209.256102773
 21
-2170.997098139
 31
0.0
  0
LINE
  5
3E9
330
A
100
AcDbEntity
  8
1
  6
SOLID
 62
     7
100
AcDbLine
 10
-287.256087515
 20
-2308.761023417
 30
0.0
 11
-287.256087515
 21
-2304.23308156
 31
0.0
  0
ARC
  5
3EA
330
A
100
AcDbEntity
  8
1
  6
SOLID
 62
     7
100
AcDbCircle
 10
-234.256102773
 20
-2377.497070313
 30
0.0
 40
2.0
100
AcDbArc
 50
0.0
 51
90.0
  0
LINE
  5
3EB
330
A
100
AcDbEntity
  8
1
  6
SOLID
 62
     7
100
AcDbLine
 10
-441.2561325169999
 20
-2172.997070313
 30
0.0
 11
-441.2561325169999
 21
-2200.997070313
 31
0.0
  0
ARC
  5
3EC
330
A
100
AcDbEntity
  8
1
  6
SOLID
 62
     3
100
AcDbCircle
 10
297.481325941
 20
-1825.996992594
 30
0.0
 40
13.0
100
AcDbArc
 50
194.477606223
 51
14.845775288
  0
LINE
  5
3ED
330
A
100
AcDbEntity
  8
1
  6
SOLID
 62
     7
100
AcDbLine
 10
-291.256112115
 20
-2407.99710083
 30
0.0
 11
-287.256112115
 21
-2407.99710083
 31
0.0
  0
LINE
  5
3EE
330
A
100
AcDbEntity
  8
1
  6
SOLID
 62
     7
100
AcDbLine
 10
-291.256087515
 20
-2307.997052488
 30
0.0
 11
-291.256087515
 21
-2304.997052488
 31
0.0
  0
LINE
  5
3EF
330
A
100
AcDbEntity
  8
1
  6
SOLID
 62
     1
100
AcDbLine
 10
-619.6564788909999
 20
-2149.681948185
 30
0.0
 11
-620.0564788969999
 21
-2149.681948185
 31
0.0
  0
LINE
  5
3F0
330
A
100
AcDbEntity
  8
1
  6
SOLID
 62
     7
100
AcDbLine
 10
-441.2561079159999
 20
-2407.99710083
 30
0.0
 11
-445.2560875149999
 21
-2407.99710083
 31
0.0
  0
LINE
  5
3F1
330
A
100
AcDbEntity
  8
1
  6
SOLID
 62
     3
100
AcDbLine
 10
-228.256102773
 20
-2378.997070313
 30
0.0
 11
-228.256102773
 21
-2392.997070313
 31
0.0
  0
LINE
  5
3F2
330
A
100
AcDbEntity
  8
3
  6
SOLID
 62
     7
100
AcDbLine
 10
-513.2561310119999
 20
-2297.573268491
 30
0.0
 11
-528.256131012
 21
-2300.698230827
 31
0.0
  0
LINE
  5
3F3
330
A
100
AcDbEntity
  8
3
  6
SOLID
 62
     7
100
AcDbLine
 10
-513.2561310119999
 20
-2254.420872134
 30
0.0
 11
-528.256131012
 21
-2251.295909798
 31
0.0
  0
LINE
  5
3F4
330
A
100
AcDbEntity
  8
1
  6
SOLID
 62
     3
100
AcDbLine
 10
-232.256102773
 20
-2391.797070265
 30
0.0
 11
-227.256102773
 21
-2391.797070265
 31
0.0
  0
LINE
  5
3F5
330
A
100
AcDbEntity
  8
1
  6
CENTER
 62
     2
100
AcDbLine
 10
-285.818838889
 20
-2165.997070313
 30
0.0
 11
-220.159743285
 21
-2165.997070313
 31
0.0
  0
LINE
  5
3F6
330
A
100
AcDbEntity
  8
20
  6
SOLID
 62
     7
100
AcDbLine
 10
-263.256102773
 20
-2259.872111156
 30
0.0
 11
-263.256102773
 21
-2140.997095447
 31
0.0
  0
ARC
  5
3F7
330
A
100
AcDbEntity
  8
1
  6
SOLID
 62
     7
100
AcDbCircle
 10
-261.256102773
 20
-2140.997095447
 30
0.0
 40
2.0
100
AcDbArc
 50
90.0
 51
180.0
  0
LINE
  5
3F8
330
A
100
AcDbEntity
  8
41
  6
SOLID
 62
     7
100
AcDbLine
 10
-261.256102773
 20
-2138.997095447
 30
0.0
 11
-250.256102773
 21
-2138.997095447
 31
0.0
  0
ARC
  5
3F9
330
A
100
AcDbEntity
  8
1
  6
SOLID
 62
     7
100
AcDbCircle
 10
-250.256102773
 20
-2140.997095447
 30
0.0
 40
2.0
100
AcDbArc
 50
360.0
 51
90.0
  0
LINE
  5
3FA
330
A
100
AcDbEntity
  8
20
  6
SOLID
 62
     7
100
AcDbLine
 10
-248.256102773
 20
-2255.896662867
 30
0.0
 11
-248.256102773
 21
-2140.997095447
 31
0.0
  0
LINE
  5
3FB
330
A
100
AcDbEntity
  8
1
  6
SOLID
 62
     7
100
AcDbLine
 10
-368.580236106
 20
-2158.997070313
 30
0.0
 11
-263.256102773
 21
-2158.997070313
 31
0.0
  0
LINE
  5
3FC
330
A
100
AcDbEntity
  8
1
  6
SOLID
 62
     7
100
AcDbLine
 10
-368.580236106
 20
-2172.997070313
 30
0.0
 11
-263.256102773
 21
-2172.997070313
 31
0.0
  0
LINE
  5
3FD
330
A
100
AcDbEntity
  8
1
  6
SOLID
 62
     7
100
AcDbLine
 10
-287.256087515
 20
-2138.997095447
 30
0.0
 11
-287.256087515
 21
-2158.997070313
 31
0.0
  0
LINE
  5
3FE
330
A
100
AcDbEntity
  8
1
  6
SOLID
 62
     4
100
AcDbLine
 10
-368.580236106
 20
-2358.63787175
 30
0.0
 11
-291.256087515
 21
-2358.63787175
 31
0.0
  0
LINE
  5
3FF
330
A
100
AcDbEntity
  8
1
  6
SOLID
 62
     7
100
AcDbLine
 10
-493.4560728069999
 20
-2172.997070313
 30
0.0
 11
-441.2561325169999
 21
-2172.997070313
 31
0.0
  0
LINE
  5
400
330
A
100
AcDbEntity
  8
1
  6
SOLID
 62
     3
100
AcDbLine
 10
-232.256102773
 20
-2380.19707036
 30
0.0
 11
-227.256102773
 21
-2380.19707036
 31
0.0
  0
LINE
  5
401
330
A
100
AcDbEntity
  8
41
  6
SOLID
 62
     7
100
AcDbLine
 10
-509.7561310119999
 20
-2350.997070313
 30
0.0
 11
-511.756131012
 21
-2348.997070312
 31
0.0
  0
LINE
  5
402
330
A
100
AcDbEntity
  8
1
  6
SOLID
 62
     7
100
AcDbLine
 10
-227.256102773
 20
-2379.997070313
 30
0.0
 11
-227.256102773
 21
-2391.997070313
 31
0.0
  0
LINE
  5
403
330
A
100
AcDbEntity
  8
1
  6
SOLID
 62
     7
100
AcDbLine
 10
-228.256102773
 20
-2392.997070313
 30
0.0
 11
-227.256102773
 21
-2391.997070313
 31
0.0
  0
LINE
  5
404
330
A
100
AcDbEntity
  8
41
  6
SOLID
 62
     7
100
AcDbLine
 10
-513.2561310119999
 20
-2275.997070313
 30
0.0
 11
-513.2561310119999
 21
-2339.997062388
 31
0.0
  0
LINE
  5
405
330
A
100
AcDbEntity
  8
1
  6
SOLID
 62
     7
100
AcDbLine
 10
-228.256102773
 20
-2378.997070313
 30
0.0
 11
-227.256102773
 21
-2379.997070313
 31
0.0
  0
LINE
  5
406
330
A
100
AcDbEntity
  8
41
  6
SOLID
 62
     7
100
AcDbLine
 10
-511.756131012
 20
-2339.997062388
 30
0.0
 11
-511.756131012
 21
-2348.997070312
 31
0.0
  0
CIRCLE
  5
407
330
A
100
AcDbEntity
  8
1
  6
SOLID
 62
     1
100
AcDbCircle
 10
-267.256088257
 20
-2275.997070313
 30
0.0
 40
6.5
  0
LINE
  5
408
330
A
100
AcDbEntity
  8
1
  6
SOLID
 62
     1
100
AcDbLine
 10
-260.756088257
 20
-2279.749847174
 30
0.0
 11
-260.756088257
 21
-2272.244293451
 31
0.0
  0
LINE
  5
409
330
A
100
AcDbEntity
  8
1
  6
SOLID
 62
     7
100
AcDbLine
 10
-232.256102773
 20
-2158.997070313
 30
0.0
 11
-228.256102773
 21
-2158.997070313
 31
0.0
  0
LINE
  5
40A
330
A
100
AcDbEntity
  8
1
  6
SOLID
 62
     7
100
AcDbLine
 10
-232.256102773
 20
-2172.997070313
 30
0.0
 11
-228.256102773
 21
-2172.997070313
 31
0.0
  0
LINE
  5
40B
330
A
100
AcDbEntity
  8
1
  6
SOLID
 62
     7
100
AcDbLine
 10
-232.256102773
 20
-2174.497070313
 30
0.0
 11
-232.256102773
 21
-2157.497070313
 31
0.0
  0
LINE
  5
40C
330
A
100
AcDbEntity
  8
1
  6
SOLID
 62
     7
100
AcDbLine
 10
-235.643733199
 20
-2155.497070313
 30
0.0
 11
-234.256102773
 21
-2155.497070313
 31
0.0
  0
LINE
  5
40D
330
A
100
AcDbEntity
  8
1
  6
SOLID
 62
     7
100
AcDbLine
 10
-235.643733199
 20
-2176.497070313
 30
0.0
 11
-234.256102773
 21
-2176.497070313
 31
0.0
  0
ARC
  5
40E
330
A
100
AcDbEntity
  8
1
  6
SOLID
 62
     7
100
AcDbCircle
 10
-234.256102773
 20
-2157.497070313
 30
0.0
 40
2.0
100
AcDbArc
 50
0.0
 51
90.0
  0
LINE
  5
40F
330
A
100
AcDbEntity
  8
1
  6
SOLID
 62
     1
100
AcDbLine
 10
-267.256088257
 20
-2283.502624035
 30
0.0
 11
-260.756088093
 21
-2279.749847122999
 31
0.0
  0
ARC
  5
410
330
A
100
AcDbEntity
  8
1
  6
SOLID
 62
     7
100
AcDbCircle
 10
-234.256102773
 20
-2174.497070313
 30
0.0
 40
2.0
100
AcDbArc
 50
270.0
 51
0.0
  0
LINE
  5
411
330
A
100
AcDbEntity
  8
1
  6
SOLID
 62
     3
100
AcDbLine
 10
-228.256102773
 20
-2172.997070313
 30
0.0
 11
-228.256102773
 21
-2158.997070313
 31
0.0
  0
LINE
  5
412
330
A
100
AcDbEntity
  8
1
  6
SOLID
 62
     3
100
AcDbLine
 10
-232.256102773
 20
-2160.19707036
 30
0.0
 11
-227.256102773
 21
-2160.19707036
 31
0.0
  0
LINE
  5
413
330
A
100
AcDbEntity
  8
1
  6
SOLID
 62
     3
100
AcDbLine
 10
-232.256102773
 20
-2171.797070265
 30
0.0
 11
-227.256102773
 21
-2171.797070265
 31
0.0
  0
LINE
  5
414
330
A
100
AcDbEntity
  8
1
  6
SOLID
 62
     7
100
AcDbLine
 10
-227.256102773
 20
-2171.997070313
 30
0.0
 11
-227.256102773
 21
-2159.997070313
 31
0.0
  0
LINE
  5
415
330
A
100
AcDbEntity
  8
1
  6
SOLID
 62
     7
100
AcDbLine
 10
-228.256102773
 20
-2158.997070313
 30
0.0
 11
-227.256102773
 21
-2159.997070313
 31
0.0
  0
LINE
  5
416
330
A
100
AcDbEntity
  8
1
  6
SOLID
 62
     7
100
AcDbLine
 10
-228.256102773
 20
-2172.997070313
 30
0.0
 11
-227.256102773
 21
-2171.997070313
 31
0.0
  0
LINE
  5
417
330
A
100
AcDbEntity
  8
1
  6
SOLID
 62
     1
100
AcDbLine
 10
-273.756088257
 20
-2279.749847174
 30
0.0
 11
-267.256088093
 21
-2283.502624085
 31
0.0
  0
LINE
  5
418
330
A
100
AcDbEntity
  8
1
  6
SOLID
 62
     1
100
AcDbLine
 10
-273.756088257
 20
-2272.244293451
 30
0.0
 11
-273.756088257
 21
-2279.749847174
 31
0.0
  0
LINE
  5
419
330
A
100
AcDbEntity
  8
1
  6
SOLID
 62
     7
100
AcDbLine
 10
-256.498728202
 20
-2138.997095447
 30
0.0
 11
-278.256087515
 21
-2138.997095447
 31
0.0
  0
LINE
  5
41A
330
A
100
AcDbEntity
  8
1
  6
SOLID
 62
     1
100
AcDbLine
 10
-267.256088257
 20
-2268.49151659
 30
0.0
 11
-273.756088421
 21
-2272.244293502001
 31
0.0
  0
LINE
  5
41B
330
A
100
AcDbEntity
  8
1
  6
CENTER
 62
     2
100
AcDbLine
 10
-267.256087515
 20
-2288.176655219
 30
0.0
 11
-267.256087515
 21
-2265.46685646
 31
0.0
  0
LINE
  5
41C
330
A
100
AcDbEntity
  8
1
  6
SOLID
 62
     1
100
AcDbLine
 10
-260.756088257
 20
-2272.244293451
 30
0.0
 11
-267.256088421
 21
-2268.49151654
 31
0.0
  0
LINE
  5
41D
330
A
100
AcDbEntity
  8
41
  6
SOLID
 62
     7
100
AcDbLine
 10
-441.7561310119999
 20
-2350.997070313
 30
0.0
 11
-509.7561310119999
 21
-2350.997070313
 31
0.0
  0
LINE
  5
41E
330
A
100
AcDbEntity
  8
3
  6
SOLID
 62
     7
100
AcDbLine
 10
-528.256131012
 20
-2300.698230827
 30
0.0
 11
-544.1163230949999
 21
-2305.13507201
 31
0.0
  0
LINE
  5
41F
330
A
100
AcDbEntity
  8
3
  6
SOLID
 62
     7
100
AcDbLine
 10
-528.256131012
 20
-2251.295909798
 30
0.0
 11
-544.1163230949999
 21
-2246.859068615
 31
0.0
  0
LINE
  5
420
330
A
100
AcDbEntity
  8
41
  6
CENTER
 62
     2
100
AcDbLine
 10
-318.256131012
 20
-2284.989465149
 30
0.0
 11
-318.256131012
 21
-2265.505007158
 31
0.0
  0
LINE
  5
421
330
A
100
AcDbEntity
  8
1
  6
SOLID
 62
     7
100
AcDbLine
 10
233.481325941
 20
-1644.497048126
 30
0.0
 11
222.481325941
 21
-1644.497048126
 31
0.0
  0
ARC
  5
422
330
A
100
AcDbEntity
  8
3
  6
SOLID
 62
     7
100
AcDbCircle
 10
-551.2561310119999
 20
-2275.997070313
 30
0.0
 40
30.0
100
AcDbArc
 50
76.23184895299999
 51
283.768151047
  0
LINE
  5
423
330
A
100
AcDbEntity
  8
1
  6
SOLID
 62
     7
100
AcDbLine
 10
-513.2561310119999
 20
-2254.420872134
 30
0.0
 11
-513.2561310119999
 21
-2297.573268491
 31
0.0
  0
LINE
  5
424
330
A
100
AcDbEntity
  8
1
  6
SOLID
 62
     1
100
AcDbLine
 10
-619.6564788909999
 20
-2164.311948299
 30
0.0
 11
-619.6564788909999
 21
-2149.681948185
 31
0.0
  0
LINE
  5
425
330
A
100
AcDbEntity
  8
1
  6
SOLID
 62
     1
100
AcDbLine
 10
-620.0564788969999
 20
-2164.311948299
 30
0.0
 11
-619.6564788909999
 21
-2164.311948299
 31
0.0
  0
LINE
  5
426
330
A
100
AcDbEntity
  8
1
  6
SOLID
 62
     7
100
AcDbLine
 10
222.481325941
 20
-1645.997048126
 30
0.0
 11
222.481325941
 21
-1644.497048126
 31
0.0
  0
LINE
  5
427
330
A
100
AcDbEntity
  8
1
  6
SOLID
 62
     7
100
AcDbLine
 10
361.4813259409999
 20
-1564.497048126
 30
0.0
 11
297.481325941
 21
-1564.497048126
 31
0.0
  0
LINE
  5
428
330
A
100
AcDbEntity
  8
1
  6
SOLID
 62
     7
100
AcDbLine
 10
233.481325941
 20
-1564.497048126
 30
0.0
 11
297.481325941
 21
-1564.497048126
 31
0.0
  0
LINE
  5
429
330
A
100
AcDbEntity
  8
1
  6
SOLID
 62
     7
100
AcDbLine
 10
233.481325941
 20
-1644.497048126
 30
0.0
 11
233.481325941
 21
-1564.497048126
 31
0.0
  0
LINE
  5
42A
330
A
100
AcDbEntity
  8
1
  6
SOLID
 62
     7
100
AcDbLine
 10
361.4813259409999
 20
-1644.497048126
 30
0.0
 11
361.4813259409999
 21
-1564.497048126
 31
0.0
  0
LINE
  5
42B
330
A
100
AcDbEntity
  8
1
  6
CENTER
 62
     2
100
AcDbLine
 10
297.481325941
 20
-1645.997048126
 30
0.0
 11
297.481325941
 21
-1564.497048126
 31
0.0
  0
LINE
  5
42C
330
A
100
AcDbEntity
  8
1
  6
SOLID
 62
     7
100
AcDbLine
 10
372.481325941
 20
-1645.997048126
 30
0.0
 11
372.481325941
 21
-1644.497048126
 31
0.0
  0
LINE
  5
42D
330
A
100
AcDbEntity
  8
1
  6
SOLID
 62
     7
100
AcDbLine
 10
361.4813259409999
 20
-1644.497048126
 30
0.0
 11
372.481325941
 21
-1644.497048126
 31
0.0
  0
LINE
  5
42E
330
A
100
AcDbEntity
  8
1
  6
SOLID
 62
     7
100
AcDbLine
 10
224.481325941
 20
-1645.997048126
 30
0.0
 11
224.481325941
 21
-1644.497048126
 31
0.0
  0
LINE
  5
42F
330
A
100
AcDbEntity
  8
1
  6
SOLID
 62
     7
100
AcDbLine
 10
370.481325941
 20
-1645.997048126
 30
0.0
 11
370.481325941
 21
-1644.497048126
 31
0.0
  0
LINE
  5
430
330
A
100
AcDbEntity
  8
41
  6
SOLID
 62
     7
100
AcDbLine
 10
-324.256131012
 20
-2339.997062388
 30
0.0
 11
-513.2561310119999
 21
-2339.997062388
 31
0.0
  0
LINE
  5
431
330
A
100
AcDbEntity
  8
1
  6
SOLID
 62
     7
100
AcDbLine
 10
-313.256131012
 20
-2336.497062388
 30
0.0
 11
-315.256131012
 21
-2338.497062388
 31
0.0
  0
LINE
  5
432
330
A
100
AcDbEntity
  8
41
  6
SOLID
 62
     7
100
AcDbLine
 10
-313.256131012
 20
-2275.997070313
 30
0.0
 11
-313.256131012
 21
-2350.997070313
 31
0.0
  0
LINE
  5
433
330
A
100
AcDbEntity
  8
41
  6
SOLID
 62
     7
100
AcDbLine
 10
-324.256131012
 20
-2338.497062388
 30
0.0
 11
-315.256131012
 21
-2338.497062388
 31
0.0
  0
LINE
  5
434
330
A
100
AcDbEntity
  8
1
  6
SOLID
 62
     7
100
AcDbLine
 10
-324.256131012
 20
-2348.997070313
 30
0.0
 11
-326.256131012
 21
-2350.997070313
 31
0.0
  0
LINE
  5
435
330
A
100
AcDbEntity
  8
41
  6
SOLID
 62
     7
100
AcDbLine
 10
-324.256131012
 20
-2338.497062388
 30
0.0
 11
-324.256131012
 21
-2348.997070313
 31
0.0
  0
LINE
  5
436
330
A
100
AcDbEntity
  8
41
  6
SOLID
 62
     7
100
AcDbLine
 10
-441.7561310119999
 20
-2350.997070313
 30
0.0
 11
-313.256131012
 21
-2350.997070313
 31
0.0
  0
LINE
  5
437
330
A
100
AcDbEntity
  8
41
  6
SOLID
 62
     7
100
AcDbLine
 10
-324.256131012
 20
-2213.497078237
 30
0.0
 11
-315.256131012
 21
-2213.497078237
 31
0.0
  0
LINE
  5
438
330
A
100
AcDbEntity
  8
1
  6
SOLID
 62
     7
100
AcDbLine
 10
-308.256131012
 20
-2330.997052488
 30
0.0
 11
-313.256131012
 21
-2330.997052488
 31
0.0
  0
LINE
  5
439
330
A
100
AcDbEntity
  8
41
  6
SOLID
 62
     7
100
AcDbLine
 10
-509.7561310119999
 20
-2200.997070313
 30
0.0
 11
-511.756131012
 21
-2202.997070313
 31
0.0
  0
LINE
  5
43A
330
A
100
AcDbEntity
  8
41
  6
SOLID
 62
     7
100
AcDbLine
 10
-513.2561310119999
 20
-2275.997070313
 30
0.0
 11
-513.2561310119999
 21
-2211.997078237
 31
0.0
  0
LINE
  5
43B
330
A
100
AcDbEntity
  8
41
  6
SOLID
 62
     7
100
AcDbLine
 10
-511.756131012
 20
-2211.997078237
 30
0.0
 11
-511.756131012
 21
-2202.997070313
 31
0.0
  0
LINE
  5
43C
330
A
100
AcDbEntity
  8
41
  6
SOLID
 62
     7
100
AcDbLine
 10
-324.256131012
 20
-2211.997078237
 30
0.0
 11
-513.2561310119999
 21
-2211.997078237
 31
0.0
  0
LINE
  5
43D
330
A
100
AcDbEntity
  8
41
  6
SOLID
 62
     7
100
AcDbLine
 10
-441.7561310119999
 20
-2200.997070313
 30
0.0
 11
-509.7561310119999
 21
-2200.997070313
 31
0.0
  0
LINE
  5
43E
330
A
100
AcDbEntity
  8
41
  6
SOLID
 62
     7
100
AcDbLine
 10
-441.7561310119999
 20
-2200.997070313
 30
0.0
 11
-313.256131012
 21
-2200.997070313
 31
0.0
  0
LINE
  5
43F
330
A
100
AcDbEntity
  8
41
  6
SOLID
 62
     7
100
AcDbLine
 10
-313.256131012
 20
-2275.997070313
 30
0.0
 11
-313.256131012
 21
-2200.997070313
 31
0.0
  0
LINE
  5
440
330
A
100
AcDbEntity
  8
41
  6
CENTER
 62
     2
100
AcDbLine
 10
-412.577803946
 20
-2205.997070313
 30
0.0
 11
-427.795837698
 21
-2205.997070313
 31
0.0
  0
LINE
  5
441
330
A
100
AcDbEntity
  8
41
  6
CENTER
 62
     2
100
AcDbLine
 10
-421.7561310119999
 20
-2218.658771972
 30
0.0
 11
-421.7561310119999
 21
-2195.572269714
 31
0.0
  0
LINE
  5
442
330
A
100
AcDbEntity
  8
41
  6
CENTER
 62
     2
100
AcDbLine
 10
-413.7050657049999
 20
-2345.997070313
 30
0.0
 11
-428.923099458
 21
-2345.997070313
 31
0.0
  0
LINE
  5
443
330
A
100
AcDbEntity
  8
41
  6
CENTER
 62
     2
100
AcDbLine
 10
-421.7561310119999
 20
-2336.73944127
 30
0.0
 11
-421.7561310119999
 21
-2357.59378382
 31
0.0
  0
LINE
  5
444
330
A
100
AcDbEntity
  8
1
  6
SOLID
 62
     7
100
AcDbLine
 10
-308.256131012
 20
-2306.997052488
 30
0.0
 11
-313.256131012
 21
-2306.997052488
 31
0.0
  0
LINE
  5
4F9
330
A
100
AcDbEntity
  8
1
  6
SOLID
 62
     7
100
AcDbLine
 10
-305.256131012
 20
-2328.997052488
 30
0.0
 11
-308.256131012
 21
-2328.997052488
 31
0.0
  0
LINE
  5
4FA
330
A
100
AcDbEntity
  8
1
  6
SOLID
 62
     7
100
AcDbLine
 10
-305.256131012
 20
-2308.997052488
 30
0.0
 11
-308.256131012
 21
-2308.997052488
 31
0.0
  0
LINE
  5
4FB
330
A
100
AcDbEntity
  8
1
  6
SOLID
 62
     7
100
AcDbLine
 10
-305.256131012
 20
-2306.997052488
 30
0.0
 11
-305.256131012
 21
-2330.997052488
 31
0.0
  0
LINE
  5
4FC
330
A
100
AcDbEntity
  8
1
  6
SOLID
 62
     7
100
AcDbLine
 10
-292.256131012
 20
-2306.997052488
 30
0.0
 11
-292.256131012
 21
-2330.997052488
 31
0.0
  0
LINE
  5
4FD
330
A
100
AcDbEntity
  8
1
  6
SOLID
 62
     7
100
AcDbLine
 10
-292.256131012
 20
-2330.997052488
 30
0.0
 11
-305.256131012
 21
-2330.997052488
 31
0.0
  0
LINE
  5
4FE
330
A
100
AcDbEntity
  8
1
  6
SOLID
 62
     7
100
AcDbLine
 10
-292.256131012
 20
-2306.997052488
 30
0.0
 11
-305.256131012
 21
-2306.997052488
 31
0.0
  0
LINE
  5
4FF
330
A
100
AcDbEntity
  8
1
  6
SOLID
 62
     7
100
AcDbLine
 10
-289.2561310120001
 20
-2329.997052488
 30
0.0
 11
-292.256131012
 21
-2329.997052488
 31
0.0
  0
LINE
  5
500
330
A
100
AcDbEntity
  8
1
  6
SOLID
 62
     7
100
AcDbLine
 10
-289.2561310120001
 20
-2307.997052488
 30
0.0
 11
-292.256131012
 21
-2307.997052488
 31
0.0
  0
LINE
  5
501
330
A
100
AcDbEntity
  8
1
  6
SOLID
 62
     7
100
AcDbLine
 10
-286.256131012
 20
-2310.997052488
 30
0.0
 11
-286.256131012
 21
-2326.997052488
 31
0.0
  0
ARC
  5
502
330
A
100
AcDbEntity
  8
1
  6
SOLID
 62
     7
100
AcDbCircle
 10
-289.2561310120001
 20
-2326.997052488
 30
0.0
 40
3.0
100
AcDbArc
 50
270.0
 51
0.0
  0
ARC
  5
56D
330
A
100
AcDbEntity
  8
1
  6
SOLID
 62
     3
100
AcDbCircle
 10
297.481325941
 20
-1825.996992594
 30
0.0
 40
20.0
100
AcDbArc
 50
42.369942135
 51
165.086280637
  0
LINE
  5
56E
330
A
100
AcDbEntity
  8
1
  6
SOLID
 62
     4
100
AcDbLine
 10
-313.256131012
 20
-2344.63787175
 30
0.0
 11
-291.256087515
 21
-2344.63787175
 31
0.0
  0
LINE
  5
56F
330
A
100
AcDbEntity
  8
1
  6
SOLID
 62
     4
100
AcDbLine
 10
-313.256131012
 20
-2347.356268875
 30
0.0
 11
-291.256087515
 21
-2347.356268875
 31
0.0
  0
LINE
  5
570
330
A
100
AcDbEntity
  8
1
  6
SOLID
 62
     4
100
AcDbLine
 10
-313.256131012
 20
-2333.356268875
 30
0.0
 11
-291.256087515
 21
-2333.356268875
 31
0.0
  0
LINE
  5
571
330
A
100
AcDbEntity
  8
1
  6
SOLID
 62
     3
100
AcDbLine
 10
312.425591769
 20
-1816.360905606
 30
0.0
 11
310.906279383
 21
-1818.350956422
 31
0.0
  0
LINE
  5
572
330
A
100
AcDbEntity
  8
1
  6
SOLID
 62
     3
100
AcDbLine
 10
279.427265781
 20
-1824.14247633
 30
0.0
 11
282.764098222
 21
-1826.295896463
 31
0.0
  0
LINE
  5
573
330
A
100
AcDbEntity
  8
2
  6
SOLID
 62
     7
100
AcDbLine
 10
-308.256131012
 20
-1632.997088137
 30
0.0
 11
-308.256131012
 21
-1608.997088137
 31
0.0
  0
LINE
  5
574
330
A
100
AcDbEntity
  8
1
  6
SOLID
 62
     7
100
AcDbLine
 10
-308.256131012
 20
-1608.997088137
 30
0.0
 11
-313.256131012
 21
-1608.997088137
 31
0.0
  0
ARC
  5
575
330
A
100
AcDbEntity
  8
1
  6
SOLID
 62
     3
100
AcDbCircle
 10
314.8804678859999
 20
-1821.385066793
 30
0.0
 40
5.0
100
AcDbArc
 50
142.639928744
 51
194.845775288
  0
LINE
  5
576
330
A
100
AcDbEntity
  8
1
  6
SOLID
 62
     7
100
AcDbLine
 10
-308.256131012
 20
-1632.997088137
 30
0.0
 11
-313.256131012
 21
-1632.997088137
 31
0.0
  0
LINE
  5
577
330
A
100
AcDbEntity
  8
1
  6
SOLID
 62
     7
100
AcDbLine
 10
-368.580236106
 20
-2378.997070313
 30
0.0
 11
-263.256102773
 21
-2378.997070313
 31
0.0
  0
LINE
  5
578
330
A
100
AcDbEntity
  8
1
  6
SOLID
 62
     7
100
AcDbLine
 10
-493.4560728069999
 20
-2378.997070313
 30
0.0
 11
-441.2561325169999
 21
-2378.997070313
 31
0.0
  0
LINE
  5
579
330
A
100
AcDbEntity
  8
1
  6
SOLID
 62
     7
100
AcDbLine
 10
-441.2561325169999
 20
-2378.997070313
 30
0.0
 11
-441.2561325169999
 21
-2350.997070313
 31
0.0
  0
LINE
  5
57A
330
A
100
AcDbEntity
  8
1
  6
SOLID
 62
     7
100
AcDbLine
 10
-441.2561325169999
 20
-2412.997070313
 30
0.0
 11
-441.2561325169999
 21
-2392.997070313
 31
0.0
  0
LINE
  5
57B
330
A
100
AcDbEntity
  8
1
  6
SOLID
 62
     7
100
AcDbLine
 10
-305.256131012
 20
-1610.997088137
 30
0.0
 11
-308.256131012
 21
-1610.997088137
 31
0.0
  0
LINE
  5
57C
330
A
100
AcDbEntity
  8
1
  6
SOLID
 62
     4
100
AcDbLine
 10
-368.580236106
 20
-2412.997070313
 30
0.0
 11
-291.256087515
 21
-2412.997070313
 31
0.0
  0
LINE
  5
57D
330
A
100
AcDbEntity
  8
1
  6
SOLID
 62
     4
100
AcDbLine
 10
-368.580236106
 20
-2408.367191261
 30
0.0
 11
-291.256087515
 21
-2408.367191261
 31
0.0
  0
LINE
  5
57E
330
A
100
AcDbEntity
  8
1
  6
SOLID
 62
     7
100
AcDbLine
 10
-291.256087515
 20
-2282.997052488
 30
0.0
 11
-291.256087515
 21
-2276.997052488
 31
0.0
  0
LINE
  5
57F
330
A
100
AcDbEntity
  8
1
  6
SOLID
 62
     7
100
AcDbLine
 10
-291.256087515
 20
-2412.997070313
 30
0.0
 11
-291.256087515
 21
-2392.997070313
 31
0.0
  0
ARC
  5
5CA
330
A
100
AcDbEntity
  8
1
  6
SOLID
 62
     7
100
AcDbCircle
 10
-289.2561310120001
 20
-2310.997052488
 30
0.0
 40
3.0
100
AcDbArc
 50
0.0
 51
90.0
  0
LINE
  5
5CB
330
A
100
AcDbEntity
  8
1
  6
CENTER
 62
     2
100
AcDbLine
 10
-284.03555382
 20
-2318.997052488
 30
0.0
 11
-292.256131012
 21
-2318.997052488
 31
0.0
  0
LINE
  5
5CC
330
A
100
AcDbEntity
  8
1
  6
SOLID
 62
     7
100
AcDbLine
 10
-292.256131012
 20
-2318.997052488
 30
0.0
 11
-305.256131012
 21
-2318.997052488
 31
0.0
  0
LINE
  5
5CD
330
A
100
AcDbEntity
  8
1
  6
CENTER
 62
     2
100
AcDbLine
 10
-305.256131012
 20
-2318.997052488
 30
0.0
 11
-308.256131012
 21
-2318.997052488
 31
0.0
  0
LINE
  5
5CE
330
A
100
AcDbEntity
  8
1
  6
SOLID
 62
     7
100
AcDbLine
 10
-308.256131012
 20
-2318.997052488
 30
0.0
 11
-313.256131012
 21
-2318.997052488
 31
0.0
  0
LINE
  5
5CF
330
A
100
AcDbEntity
  8
2
  6
SOLID
 62
     7
100
AcDbLine
 10
-308.256131012
 20
-2253.997052488
 30
0.0
 11
-308.256131012
 21
-2277.997052488
 31
0.0
  0
LINE
  5
5D0
330
A
100
AcDbEntity
  8
1
  6
SOLID
 62
     7
100
AcDbLine
 10
-308.256131012
 20
-2277.997052488
 30
0.0
 11
-313.256131012
 21
-2277.997052488
 31
0.0
  0
LINE
  5
5D1
330
A
100
AcDbEntity
  8
1
  6
SOLID
 62
     7
100
AcDbLine
 10
-308.256131012
 20
-2253.997052488
 30
0.0
 11
-313.256131012
 21
-2253.997052488
 31
0.0
  0
LINE
  5
5D2
330
A
100
AcDbEntity
  8
1
  6
SOLID
 62
     7
100
AcDbLine
 10
-305.256131012
 20
-2275.997052488
 30
0.0
 11
-308.256131012
 21
-2275.997052488
 31
0.0
  0
LINE
  5
5D3
330
A
100
AcDbEntity
  8
1
  6
SOLID
 62
     7
100
AcDbLine
 10
-305.256131012
 20
-2255.997052488
 30
0.0
 11
-308.256131012
 21
-2255.997052488
 31
0.0
  0
LINE
  5
5D4
330
A
100
AcDbEntity
  8
1
  6
SOLID
 62
     7
100
AcDbLine
 10
-305.256131012
 20
-2253.997052488
 30
0.0
 11
-305.256131012
 21
-2277.997052488
 31
0.0
  0
LINE
  5
5D5
330
A
100
AcDbEntity
  8
1
  6
SOLID
 62
     7
100
AcDbLine
 10
-292.256131012
 20
-2253.997052488
 30
0.0
 11
-292.256131012
 21
-2277.997052488
 31
0.0
  0
LINE
  5
5D6
330
A
100
AcDbEntity
  8
1
  6
SOLID
 62
     7
100
AcDbLine
 10
-292.256131012
 20
-2277.997052488
 30
0.0
 11
-305.256131012
 21
-2277.997052488
 31
0.0
  0
LINE
  5
5D7
330
A
100
AcDbEntity
  8
1
  6
SOLID
 62
     7
100
AcDbLine
 10
-292.256131012
 20
-2253.997052488
 30
0.0
 11
-305.256131012
 21
-2253.997052488
 31
0.0
  0
LINE
  5
5D8
330
A
100
AcDbEntity
  8
1
  6
SOLID
 62
     7
100
AcDbLine
 10
-289.2561310120001
 20
-2276.997052488
 30
0.0
 11
-292.256131012
 21
-2276.997052488
 31
0.0
  0
LINE
  5
5D9
330
A
100
AcDbEntity
  8
1
  6
SOLID
 62
     7
100
AcDbLine
 10
-289.2561310120001
 20
-2254.997052488
 30
0.0
 11
-292.256131012
 21
-2254.997052488
 31
0.0
  0
LINE
  5
5DA
330
A
100
AcDbEntity
  8
1
  6
SOLID
 62
     7
100
AcDbLine
 10
-286.256131012
 20
-2257.997052488
 30
0.0
 11
-286.256131012
 21
-2273.997052488
 31
0.0
  0
ARC
  5
5DB
330
A
100
AcDbEntity
  8
1
  6
SOLID
 62
     7
100
AcDbCircle
 10
-289.2561310120001
 20
-2273.997052488
 30
0.0
 40
3.0
100
AcDbArc
 50
270.0
 51
0.0
  0
ARC
  5
5DC
330
A
100
AcDbEntity
  8
1
  6
SOLID
 62
     7
100
AcDbCircle
 10
-289.2561310120001
 20
-2257.997052488
 30
0.0
 40
3.0
100
AcDbArc
 50
0.0
 51
90.0
  0
LINE
  5
5DD
330
A
100
AcDbEntity
  8
1
  6
CENTER
 62
     2
100
AcDbLine
 10
-284.03555382
 20
-2265.997052488
 30
0.0
 11
-292.256131012
 21
-2265.997052488
 31
0.0
  0
LINE
  5
5DE
330
A
100
AcDbEntity
  8
1
  6
SOLID
 62
     7
100
AcDbLine
 10
-292.256131012
 20
-2265.997052488
 30
0.0
 11
-305.256131012
 21
-2265.997052488
 31
0.0
  0
LINE
  5
5DF
330
A
100
AcDbEntity
  8
1
  6
CENTER
 62
     2
100
AcDbLine
 10
-305.256131012
 20
-2265.997052488
 30
0.0
 11
-308.256131012
 21
-2265.997052488
 31
0.0
  0
LINE
  5
5E0
330
A
100
AcDbEntity
  8
1
  6
SOLID
 62
     7
100
AcDbLine
 10
-308.256131012
 20
-2265.997052488
 30
0.0
 11
-313.256131012
 21
-2265.997052488
 31
0.0
  0
LINE
  5
5E1
330
A
100
AcDbEntity
  8
2
  6
SOLID
 62
     7
100
AcDbLine
 10
-308.256131012
 20
-2281.997052488
 30
0.0
 11
-308.256131012
 21
-2305.997052488
 31
0.0
  0
LINE
  5
5E2
330
A
100
AcDbEntity
  8
1
  6
SOLID
 62
     7
100
AcDbLine
 10
-308.256131012
 20
-2305.997052488
 30
0.0
 11
-313.256131012
 21
-2305.997052488
 31
0.0
  0
LINE
  5
5E3
330
A
100
AcDbEntity
  8
1
  6
SOLID
 62
     7
100
AcDbLine
 10
-308.256131012
 20
-2281.997052488
 30
0.0
 11
-313.256131012
 21
-2281.997052488
 31
0.0
  0
LINE
  5
5E4
330
A
100
AcDbEntity
  8
1
  6
SOLID
 62
     7
100
AcDbLine
 10
-305.256131012
 20
-2303.997052488
 30
0.0
 11
-308.256131012
 21
-2303.997052488
 31
0.0
  0
LINE
  5
5E5
330
A
100
AcDbEntity
  8
1
  6
SOLID
 62
     7
100
AcDbLine
 10
-305.256131012
 20
-2283.997052488
 30
0.0
 11
-308.256131012
 21
-2283.997052488
 31
0.0
  0
LINE
  5
5E6
330
A
100
AcDbEntity
  8
1
  6
SOLID
 62
     7
100
AcDbLine
 10
-305.256131012
 20
-2281.997052488
 30
0.0
 11
-305.256131012
 21
-2305.997052488
 31
0.0
  0
LINE
  5
5E7
330
A
100
AcDbEntity
  8
1
  6
SOLID
 62
     7
100
AcDbLine
 10
-292.256131012
 20
-2281.997052488
 30
0.0
 11
-292.256131012
 21
-2305.997052488
 31
0.0
  0
LINE
  5
5E8
330
A
100
AcDbEntity
  8
1
  6
SOLID
 62
     7
100
AcDbLine
 10
-292.256131012
 20
-2305.997052488
 30
0.0
 11
-305.256131012
 21
-2305.997052488
 31
0.0
  0
LINE
  5
5E9
330
A
100
AcDbEntity
  8
1
  6
SOLID
 62
     7
100
AcDbLine
 10
-292.256131012
 20
-2281.997052488
 30
0.0
 11
-305.256131012
 21
-2281.997052488
 31
0.0
  0
LINE
  5
5EA
330
A
100
AcDbEntity
  8
1
  6
SOLID
 62
     7
100
AcDbLine
 10
-289.2561310120001
 20
-2304.997052488
 30
0.0
 11
-292.256131012
 21
-2304.997052488
 31
0.0
  0
LINE
  5
5EB
330
A
100
AcDbEntity
  8
1
  6
SOLID
 62
     7
100
AcDbLine
 10
-289.2561310120001
 20
-2282.997052488
 30
0.0
 11
-292.256131012
 21
-2282.997052488
 31
0.0
  0
LINE
  5
5EC
330
A
100
AcDbEntity
  8
1
  6
SOLID
 62
     7
100
AcDbLine
 10
-286.256131012
 20
-2285.997052488
 30
0.0
 11
-286.256131012
 21
-2301.997052488
 31
0.0
  0
ARC
  5
5ED
330
A
100
AcDbEntity
  8
1
  6
SOLID
 62
     7
100
AcDbCircle
 10
-289.2561310120001
 20
-2301.997052488
 30
0.0
 40
3.0
100
AcDbArc
 50
270.0
 51
0.0
  0
ARC
  5
5EE
330
A
100
AcDbEntity
  8
1
  6
SOLID
 62
     7
100
AcDbCircle
 10
-289.2561310120001
 20
-2285.997052488
 30
0.0
 40
3.0
100
AcDbArc
 50
0.0
 51
90.0
  0
LINE
  5
5EF
330
A
100
AcDbEntity
  8
1
  6
CENTER
 62
     7
100
AcDbLine
 10
-284.03555382
 20
-2293.997052488
 30
0.0
 11
-292.256131012
 21
-2293.997052488
 31
0.0
  0
LINE
  5
5F0
330
A
100
AcDbEntity
  8
1
  6
SOLID
 62
     7
100
AcDbLine
 10
-292.256131012
 20
-2293.997052488
 30
0.0
 11
-305.256131012
 21
-2293.997052488
 31
0.0
  0
LINE
  5
5F1
330
A
100
AcDbEntity
  8
1
  6
CENTER
 62
     7
100
AcDbLine
 10
-305.256131012
 20
-2293.997052488
 30
0.0
 11
-308.256131012
 21
-2293.997052488
 31
0.0
  0
LINE
  5
5F2
330
A
100
AcDbEntity
  8
1
  6
SOLID
 62
     7
100
AcDbLine
 10
-308.256131012
 20
-2293.997052488
 30
0.0
 11
-313.256131012
 21
-2293.997052488
 31
0.0
  0
LINE
  5
5F3
330
A
100
AcDbEntity
  8
1
  6
SOLID
 62
     7
100
AcDbLine
 10
-307.256131012
 20
-2222.997052488
 30
0.0
 11
-307.256131012
 21
-2255.997052488
 31
0.0
  0
LINE
  5
5F4
330
A
100
AcDbEntity
  8
1
  6
SOLID
 62
     7
100
AcDbLine
 10
-307.256131012
 20
-2222.997052488
 30
0.0
 11
-313.256131012
 21
-2222.997052488
 31
0.0
  0
LINE
  5
5F5
330
A
100
AcDbEntity
  8
1
  6
SOLID
 62
     7
100
AcDbLine
 10
-304.256131012
 20
-2222.997052488
 30
0.0
 11
-304.256131012
 21
-2253.997052488
 31
0.0
  0
LINE
  5
5F6
330
A
100
AcDbEntity
  8
1
  6
SOLID
 62
     7
100
AcDbLine
 10
-289.2561310120001
 20
-2222.997052488
 30
0.0
 11
-304.256131012
 21
-2222.997052488
 31
0.0
  0
LINE
  5
5F7
330
A
100
AcDbEntity
  8
1
  6
SOLID
 62
     7
100
AcDbLine
 10
-289.2561310120001
 20
-2222.997052488
 30
0.0
 11
-289.2561310120001
 21
-2254.997052488
 31
0.0
  0
LINE
  5
5F8
330
A
100
AcDbEntity
  8
1
  6
SOLID
 62
     7
100
AcDbLine
 10
-283.256131012
 20
-2227.497052488
 30
0.0
 11
-283.256131012
 21
-2254.497052488
 31
0.0
  0
LINE
  5
5F9
330
A
100
AcDbEntity
  8
1
  6
SOLID
 62
     7
100
AcDbLine
 10
-286.256131012
 20
-2257.497052488
 30
0.0
 11
-286.298091121
 21
-2257.497052488
 31
0.0
  0
LINE
  5
5FA
330
A
100
AcDbEntity
  8
1
  6
SOLID
 62
     7
100
AcDbLine
 10
-286.256131012
 20
-2224.497052488
 30
0.0
 11
-289.2561310120001
 21
-2224.497052488
 31
0.0
  0
ARC
  5
5FB
330
A
100
AcDbEntity
  8
1
  6
SOLID
 62
     7
100
AcDbCircle
 10
-286.256131012
 20
-2227.497052488
 30
0.0
 40
3.0
100
AcDbArc
 50
0.0
 51
90.0
  0
ARC
  5
5FC
330
A
100
AcDbEntity
  8
1
  6
SOLID
 62
     7
100
AcDbCircle
 10
-286.256131012
 20
-2254.497052488
 30
0.0
 40
3.0
100
AcDbArc
 50
269.197644851
 51
0.0
  0
LINE
  5
5FD
330
A
100
AcDbEntity
  8
1
  6
SOLID
 62
     7
100
AcDbLine
 10
-304.256131012
 20
-2224.497052488
 30
0.0
 11
-307.256131012
 21
-2224.497052488
 31
0.0
  0
LINE
  5
5FE
330
A
100
AcDbEntity
  8
1
  6
CENTER
 62
     2
100
AcDbLine
 10
-271.134478456
 20
-2240.997052488
 30
0.0
 11
-289.2561310120001
 21
-2240.997052488
 31
0.0
  0
LINE
  5
5FF
330
A
100
AcDbEntity
  8
1
  6
SOLID
 62
     7
100
AcDbLine
 10
-289.2561310120001
 20
-2240.997052488
 30
0.0
 11
-304.256131012
 21
-2240.997052488
 31
0.0
  0
LINE
  5
600
330
A
100
AcDbEntity
  8
1
  6
SOLID
 62
     7
100
AcDbLine
 10
-307.256131012
 20
-2240.997052488
 30
0.0
 11
-313.256131012
 21
-2240.997052488
 31
0.0
  0
LINE
  5
601
330
A
100
AcDbEntity
  8
2
  6
SOLID
 62
     7
100
AcDbLine
 10
-445.2562553699999
 20
-2412.997070312
 30
0.0
 11
-503.377905626
 21
-2414.519039288
 31
0.0
  0
LINE
  5
602
330
A
100
AcDbEntity
  8
2
  6
SOLID
 62
     7
100
AcDbLine
 10
-523.2562553699999
 20
-2299.656602622
 30
0.0
 11
-523.2562553699999
 21
-2415.997070313
 31
0.0
  0
LINE
  5
603
330
A
100
AcDbEntity
  8
2
  6
SOLID
 62
     7
100
AcDbLine
 10
-506.25625537
 20
-2350.997070313
 30
0.0
 11
-506.25625537
 21
-2415.997070313
 31
0.0
  0
LINE
  5
604
330
A
100
AcDbEntity
  8
2
  6
SOLID
 62
     7
100
AcDbLine
 10
-506.25625537
 20
-2415.997070313
 30
0.0
 11
-523.2562553699999
 21
-2415.997070313
 31
0.0
  0
LINE
  5
605
330
A
100
AcDbEntity
  8
2
  6
SOLID
 62
     7
100
AcDbLine
 10
-506.25625537
 20
-2135.997070313
 30
0.0
 11
-523.2562553699999
 21
-2135.997070313
 31
0.0
  0
LINE
  5
606
330
A
100
AcDbEntity
  8
2
  6
SOLID
 62
     7
100
AcDbLine
 10
-506.25625537
 20
-2135.997070313
 30
0.0
 11
-506.25625537
 21
-2200.997070313
 31
0.0
  0
LINE
  5
607
330
A
100
AcDbEntity
  8
2
  6
SOLID
 62
     7
100
AcDbLine
 10
-445.2562553699999
 20
-2392.997070313
 30
0.0
 11
-445.2562553699999
 21
-2412.997070313
 31
0.0
  0
LINE
  5
608
330
A
100
AcDbEntity
  8
2
  6
SOLID
 62
     7
100
AcDbLine
 10
-490.25625537
 20
-2362.997070313
 30
0.0
 11
-504.25625537
 21
-2362.997070313
 31
0.0
  0
LINE
  5
609
330
A
100
AcDbEntity
  8
2
  6
SOLID
 62
     7
100
AcDbLine
 10
-488.25625537
 20
-2350.997070313
 30
0.0
 11
-488.25625537
 21
-2360.997070313
 31
0.0
  0
ARC
  5
60A
330
A
100
AcDbEntity
  8
2
  6
SOLID
 62
     7
100
AcDbCircle
 10
-490.25625537
 20
-2360.997070313
 30
0.0
 40
2.0
100
AcDbArc
 50
270.0
 51
0.0
  0
ARC
  5
60B
330
A
100
AcDbEntity
  8
2
  6
SOLID
 62
     7
100
AcDbCircle
 10
-504.25625537
 20
-2364.997070313
 30
0.0
 40
2.0
100
AcDbArc
 50
90.0
 51
180.0
  0
ARC
  5
60C
330
A
100
AcDbEntity
  8
2
  6
SOLID
 62
     7
100
AcDbCircle
 10
-490.25625537
 20
-2190.997070313
 30
0.0
 40
2.0
100
AcDbArc
 50
0.0
 51
90.0
  0
LINE
  5
60D
330
A
100
AcDbEntity
  8
2
  6
SOLID
 62
     7
100
AcDbLine
 10
-488.25625537
 20
-2200.997070313
 30
0.0
 11
-488.25625537
 21
-2190.997070313
 31
0.0
  0
ARC
  5
60E
330
A
100
AcDbEntity
  8
2
  6
SOLID
 62
     7
100
AcDbCircle
 10
-504.25625537
 20
-2186.997070313
 30
0.0
 40
2.0
100
AcDbArc
 50
180.0
 51
270.0
  0
LINE
  5
60F
330
A
100
AcDbEntity
  8
2
  6
SOLID
 62
     7
100
AcDbLine
 10
-490.25625537
 20
-2188.997070313
 30
0.0
 11
-504.25625537
 21
-2188.997070313
 31
0.0
  0
LINE
  5
610
330
A
100
AcDbEntity
  8
1
  6
CENTER
 62
     2
100
AcDbLine
 10
-71.48680527100001
 20
-2275.997070313
 30
0.0
 11
-652.656330601
 21
-2275.997070313
 31
0.0
  0
LINE
  5
611
330
A
100
AcDbEntity
  8
1
  6
SOLID
 62
     1
100
AcDbLine
 10
-626.056478986
 20
-2163.925151348
 30
0.0
 11
-626.056478986
 21
-2150.068745136
 31
0.0
  0
ARC
  5
612
330
A
100
AcDbEntity
  8
1
  6
SOLID
 62
     1
100
AcDbCircle
 10
-621.9671638649999
 20
-2163.925151348
 30
0.0
 40
4.089315121
100
AcDbArc
 50
145.615740999
 51
214.384259001
  0
LINE
  5
613
330
A
100
AcDbEntity
  8
1
  6
SOLID
 62
     1
100
AcDbLine
 10
-625.3419475640001
 20
-2161.615750313
 30
0.0
 11
-620.0564788969999
 21
-2161.615750313
 31
0.0
  0
ARC
  5
614
330
A
100
AcDbEntity
  8
1
  6
SOLID
 62
     1
100
AcDbCircle
 10
-610.771015634
 20
-2156.996948242
 30
0.0
 40
15.285463353
100
AcDbArc
 50
162.412040055
 51
197.587959945
  0
LINE
  5
615
330
A
100
AcDbEntity
  8
1
  6
SOLID
 62
     1
100
AcDbLine
 10
-625.3419475640001
 20
-2152.378146172
 30
0.0
 11
-620.0564788969999
 21
-2152.378146172
 31
0.0
  0
ARC
  5
616
330
A
100
AcDbEntity
  8
1
  6
SOLID
 62
     1
100
AcDbCircle
 10
-621.9671638649999
 20
-2150.068745136
 30
0.0
 40
4.089315121
100
AcDbArc
 50
145.615740999
 51
214.384259001
  0
LINE
  5
617
330
A
100
AcDbEntity
  8
1
  6
SOLID
 62
     1
100
AcDbLine
 10
-620.0564788969999
 20
-2147.759344101
 30
0.0
 11
-625.3419475640001
 21
-2147.759344101
 31
0.0
  0
LINE
  5
618
330
A
100
AcDbEntity
  8
1
  6
SOLID
 62
     1
100
AcDbLine
 10
-620.0564788969999
 20
-2166.234552383
 30
0.0
 11
-620.0564788969999
 21
-2147.759344101
 31
0.0
  0
LINE
  5
619
330
A
100
AcDbEntity
  8
1
  6
SOLID
 62
     1
100
AcDbLine
 10
-625.3419475640001
 20
-2166.234552383
 30
0.0
 11
-620.0564788969999
 21
-2166.234552383
 31
0.0
  0
LINE
  5
61A
330
A
100
AcDbEntity
  8
1
  6
SOLID
 62
     7
100
AcDbLine
 10
-523.256423226
 20
-2150.997070313
 30
0.0
 11
-541.256423226
 21
-2150.997070313
 31
0.0
  0
LINE
  5
61B
330
A
100
AcDbEntity
  8
1
  6
CENTER
 62
     7
100
AcDbLine
 10
-619.656462207
 20
-2156.996941346
 30
0.0
 11
-619.656462207
 21
-2208.746941346
 31
0.0
  0
ARC
  5
61C
330
A
100
AcDbEntity
  8
1
  6
SOLID
 62
     3
100
AcDbCircle
 10
280.052908269
 20
-1830.497021198
 30
0.0
 40
5.0
100
AcDbArc
 50
14.47760622299999
 51
57.163881096
  0
LINE
  5
61D
330
A
100
AcDbEntity
  8
1
  6
SOLID
 62
     7
100
AcDbLine
 10
-305.256131012
 20
-1630.997088137
 30
0.0
 11
-308.256131012
 21
-1630.997088137
 31
0.0
  0
DIMENSION
  5
62D
330
A
100
AcDbEntity
  8
1
  6
SOLID
 62
     3
100
AcDbDimension
  2
*D21
 10
-496.256072998
 20
-2062.236572266
 30
0.0
 11
-379.179412842
 21
-2056.736572266
 31
0.0
  1
  264   
 71
     5
 42
0.0
  3
18
100
AcDbAlignedDimension
 13
-236.256103516
 23
-2005.997070313
 33
0.0
 14
-496.256072998
 24
-2005.997070313
 34
0.0
100
AcDbRotatedDimension
  0
LINE
  5
62E
330
A
100
AcDbEntity
  8
1
  6
SOLID
 62
     7
100
AcDbLine
 10
-305.256131012
 20
-1632.997088137
 30
0.0
 11
-305.256131012
 21
-1608.997088137
 31
0.0
  0
ARC
  5
62F
330
A
100
AcDbEntity
  8
1
  6
SOLID
 62
     3
100
AcDbCircle
 10
310.041078668
 20
-1814.540439384
 30
0.0
 40
3.0
100
AcDbArc
 50
322.639928744
 51
42.369942135
  0
LINE
  5
630
330
A
100
AcDbEntity
  8
1
  6
SOLID
 62
     7
100
AcDbLine
 10
-292.256131012
 20
-1632.997088137
 30
0.0
 11
-292.256131012
 21
-1608.997088137
 31
0.0
  0
LINE
  5
631
330
A
100
AcDbEntity
  8
1
  6
SOLID
 62
     4
100
AcDbLine
 10
-441.2561325169999
 20
-1659.649012441
 30
0.0
 11
-368.580236106
 21
-1659.649012441
 31
0.0
  0
LINE
  5
632
330
A
100
AcDbEntity
  8
1
  6
SOLID
 62
     7
100
AcDbLine
 10
-441.2561325169999
 20
-1658.949012431
 30
0.0
 11
-368.580236106
 21
-1658.949012431
 31
0.0
  0
LINE
  5
633
330
A
100
AcDbEntity
  8
1
  6
SOLID
 62
     4
100
AcDbLine
 10
-441.2561325169999
 20
-1664.576237048
 30
0.0
 11
-368.580236106
 21
-1664.576237048
 31
0.0
  0
LINE
  5
634
330
A
100
AcDbEntity
  8
1
  6
SOLID
 62
     4
100
AcDbLine
 10
-441.2561325169999
 20
-1661.649012441
 30
0.0
 11
-368.580236106
 21
-1661.649012441
 31
0.0
  0
LINE
  5
635
330
A
100
AcDbEntity
  8
1
  6
SOLID
 62
     4
100
AcDbLine
 10
-441.2561325169999
 20
-1674.59605607
 30
0.0
 11
-368.580236106
 21
-1674.59605607
 31
0.0
  0
LINE
  5
636
330
A
100
AcDbEntity
  8
1
  6
SOLID
 62
     4
100
AcDbLine
 10
-441.2561325169999
 20
-1668.900378921
 30
0.0
 11
-368.580236106
 21
-1668.900378921
 31
0.0
  0
LINE
  5
637
330
A
100
AcDbEntity
  8
1
  6
SOLID
 62
     4
100
AcDbLine
 10
-441.2561325169999
 20
-1681.877859884
 30
0.0
 11
-368.580236106
 21
-1681.877859884
 31
0.0
  0
LINE
  5
638
330
A
100
AcDbEntity
  8
1
  6
SOLID
 62
     4
100
AcDbLine
 10
-441.2561325169999
 20
-1691.275693822
 30
0.0
 11
-368.580236106
 21
-1691.275693822
 31
0.0
  0
LINE
  5
639
330
A
100
AcDbEntity
  8
1
  6
SOLID
 62
     7
100
AcDbLine
 10
-493.4560728069999
 20
-1708.997070313
 30
0.0
 11
-368.580236106
 21
-1708.997070313
 31
0.0
  0
LINE
  5
63A
330
A
100
AcDbEntity
  8
1
  6
SOLID
 62
     7
100
AcDbLine
 10
-441.2561325169999
 20
-1713.397074422
 30
0.0
 11
-368.580236106
 21
-1713.397074422
 31
0.0
  0
LINE
  5
63B
330
A
100
AcDbEntity
  8
1
  6
SOLID
 62
     4
100
AcDbLine
 10
-441.2561325169999
 20
-1750.997064929
 30
0.0
 11
-368.580236106
 21
-1750.997064929
 31
0.0
  0
LINE
  5
63C
330
A
100
AcDbEntity
  8
1
  6
CENTER
 62
     2
100
AcDbLine
 10
-656.076051074
 20
-1825.997070313
 30
0.0
 11
-368.580236106
 21
-1825.997070313
 31
0.0
  0
LINE
  5
63D
330
A
100
AcDbEntity
  8
1
  6
SOLID
 62
     4
100
AcDbLine
 10
-441.2561325169999
 20
-1900.997075696
 30
0.0
 11
-368.580236106
 21
-1900.997075696
 31
0.0
  0
LINE
  5
63E
330
A
100
AcDbEntity
  8
1
  6
SOLID
 62
     4
100
AcDbLine
 10
-441.2561325169999
 20
-1938.597066203
 30
0.0
 11
-368.580236106
 21
-1938.597066203
 31
0.0
  0
LINE
  5
63F
330
A
100
AcDbEntity
  8
1
  6
SOLID
 62
     7
100
AcDbLine
 10
-441.2561325169999
 20
-1938.597066203
 30
0.0
 11
-368.580236106
 21
-1938.597066203
 31
0.0
  0
LINE
  5
640
330
A
100
AcDbEntity
  8
1
  6
SOLID
 62
     7
100
AcDbLine
 10
-493.4560728069999
 20
-1942.997070313
 30
0.0
 11
-368.580236106
 21
-1942.997070313
 31
0.0
  0
LINE
  5
641
330
A
100
AcDbEntity
  8
1
  6
SOLID
 62
     4
100
AcDbLine
 10
-441.2561325169999
 20
-1960.718446803
 30
0.0
 11
-368.580236106
 21
-1960.718446803
 31
0.0
  0
LINE
  5
642
330
A
100
AcDbEntity
  8
1
  6
SOLID
 62
     4
100
AcDbLine
 10
-441.2561325169999
 20
-1970.116280741
 30
0.0
 11
-368.580236106
 21
-1970.116280741
 31
0.0
  0
LINE
  5
643
330
A
100
AcDbEntity
  8
1
  6
SOLID
 62
     4
100
AcDbLine
 10
-441.2561325169999
 20
-1977.398084555
 30
0.0
 11
-368.580236106
 21
-1977.398084555
 31
0.0
  0
LINE
  5
644
330
A
100
AcDbEntity
  8
1
  6
SOLID
 62
     4
100
AcDbLine
 10
-441.2561325169999
 20
-1983.093761704
 30
0.0
 11
-368.580236106
 21
-1983.093761704
 31
0.0
  0
LINE
  5
645
330
A
100
AcDbEntity
  8
1
  6
SOLID
 62
     4
100
AcDbLine
 10
-441.2561325169999
 20
-1987.417903577
 30
0.0
 11
-368.580236106
 21
-1987.417903577
 31
0.0
  0
LINE
  5
646
330
A
100
AcDbEntity
  8
1
  6
SOLID
 62
     4
100
AcDbLine
 10
-441.2561325169999
 20
-1990.345128184
 30
0.0
 11
-368.580236106
 21
-1990.345128184
 31
0.0
  0
LINE
  5
647
330
A
100
AcDbEntity
  8
1
  6
SOLID
 62
     4
100
AcDbLine
 10
-441.2561325169999
 20
-1992.345128184
 30
0.0
 11
-368.580236106
 21
-1992.345128184
 31
0.0
  0
LINE
  5
648
330
A
100
AcDbEntity
  8
1
  6
SOLID
 62
     7
100
AcDbLine
 10
-441.2561325169999
 20
-1993.045128194
 30
0.0
 11
-368.580236106
 21
-1993.045128194
 31
0.0
  0
LINE
  5
649
330
A
100
AcDbEntity
  8
1
  6
SOLID
 62
     4
100
AcDbLine
 10
-441.2561325169999
 20
-2143.626949364
 30
0.0
 11
-368.580236106
 21
-2143.626949364
 31
0.0
  0
LINE
  5
64A
330
A
100
AcDbEntity
  8
1
  6
SOLID
 62
     4
100
AcDbLine
 10
-441.2561325169999
 20
-2151.909660815
 30
0.0
 11
-368.580236106
 21
-2151.909660815
 31
0.0
  0
LINE
  5
64B
330
A
100
AcDbEntity
  8
1
  6
SOLID
 62
     4
100
AcDbLine
 10
-441.2561325169999
 20
-2154.618382313
 30
0.0
 11
-368.580236106
 21
-2154.618382313
 31
0.0
  0
LINE
  5
64C
330
A
100
AcDbEntity
  8
1
  6
SOLID
 62
     7
100
AcDbLine
 10
-493.4560728069999
 20
-2158.997070313
 30
0.0
 11
-368.580236106
 21
-2158.997070313
 31
0.0
  0
LINE
  5
64D
330
A
100
AcDbEntity
  8
1
  6
SOLID
 62
     7
100
AcDbLine
 10
-441.2561325169999
 20
-2172.997070313
 30
0.0
 11
-368.580236106
 21
-2172.997070313
 31
0.0
  0
LINE
  5
64E
330
A
100
AcDbEntity
  8
1
  6
SOLID
 62
     4
100
AcDbLine
 10
-441.2561325169999
 20
-2176.63787175
 30
0.0
 11
-368.580236106
 21
-2176.63787175
 31
0.0
  0
LINE
  5
64F
330
A
100
AcDbEntity
  8
1
  6
SOLID
 62
     4
100
AcDbLine
 10
-441.2561325169999
 20
-2179.356268875
 30
0.0
 11
-368.580236106
 21
-2179.356268875
 31
0.0
  0
LINE
  5
650
330
A
100
AcDbEntity
  8
1
  6
SOLID
 62
     4
100
AcDbLine
 10
-441.2561325169999
 20
-2190.63787175
 30
0.0
 11
-368.580236106
 21
-2190.63787175
 31
0.0
  0
LINE
  5
651
330
A
100
AcDbEntity
  8
1
  6
SOLID
 62
     4
100
AcDbLine
 10
-441.2561325169999
 20
-2193.356268875
 30
0.0
 11
-368.580236106
 21
-2193.356268875
 31
0.0
  0
LINE
  5
652
330
A
100
AcDbEntity
  8
1
  6
SOLID
 62
     4
100
AcDbLine
 10
-441.2561325169999
 20
-2358.63787175
 30
0.0
 11
-368.580236106
 21
-2358.63787175
 31
0.0
  0
LINE
  5
653
330
A
100
AcDbEntity
  8
1
  6
SOLID
 62
     4
100
AcDbLine
 10
-441.2561325169999
 20
-2361.356268875
 30
0.0
 11
-368.580236106
 21
-2361.356268875
 31
0.0
  0
LINE
  5
654
330
A
100
AcDbEntity
  8
1
  6
SOLID
 62
     4
100
AcDbLine
 10
-441.2561325169999
 20
-2372.63787175
 30
0.0
 11
-368.580236106
 21
-2372.63787175
 31
0.0
  0
LINE
  5
655
330
A
100
AcDbEntity
  8
1
  6
SOLID
 62
     4
100
AcDbLine
 10
-441.2561325169999
 20
-2375.356268875
 30
0.0
 11
-368.580236106
 21
-2375.356268875
 31
0.0
  0
LINE
  5
656
330
A
100
AcDbEntity
  8
1
  6
SOLID
 62
     7
100
AcDbLine
 10
-441.2561325169999
 20
-2378.997070313
 30
0.0
 11
-368.580236106
 21
-2378.997070313
 31
0.0
  0
LINE
  5
657
330
A
100
AcDbEntity
  8
1
  6
SOLID
 62
     7
100
AcDbLine
 10
-493.4560728069999
 20
-2392.997070313
 30
0.0
 11
-368.580236106
 21
-2392.997070313
 31
0.0
  0
LINE
  5
658
330
A
100
AcDbEntity
  8
1
  6
SOLID
 62
     4
100
AcDbLine
 10
-441.2561325169999
 20
-2397.375758312
 30
0.0
 11
-368.580236106
 21
-2397.375758312
 31
0.0
  0
LINE
  5
659
330
A
100
AcDbEntity
  8
1
  6
SOLID
 62
     4
100
AcDbLine
 10
-441.2561325169999
 20
-2400.08447981
 30
0.0
 11
-368.580236106
 21
-2400.08447981
 31
0.0
  0
LINE
  5
65A
330
A
100
AcDbEntity
  8
1
  6
SOLID
 62
     4
100
AcDbLine
 10
-441.2561325169999
 20
-2408.367191261
 30
0.0
 11
-368.580236106
 21
-2408.367191261
 31
0.0
  0
LINE
  5
65B
330
A
100
AcDbEntity
  8
1
  6
SOLID
 62
     4
100
AcDbLine
 10
-441.2561325169999
 20
-2412.997070313
 30
0.0
 11
-368.580236106
 21
-2412.997070313
 31
0.0
  0
LINE
  5
65C
330
A
100
AcDbEntity
  8
1
  6
SOLID
 62
     7
100
AcDbLine
 10
-292.256131012
 20
-1608.997088137
 30
0.0
 11
-305.256131012
 21
-1608.997088137
 31
0.0
  0
ARC
  5
65D
330
A
100
AcDbEntity
  8
1
  6
SOLID
 62
     3
100
AcDbCircle
 10
281.053979753
 20
-1821.621801489
 30
0.0
 40
3.0
100
AcDbArc
 50
165.086280637
 51
237.163881096
  0
LINE
  5
65E
330
A
100
AcDbEntity
  8
1
  6
SOLID
 62
     7
100
AcDbLine
 10
-292.256131012
 20
-1632.997088137
 30
0.0
 11
-305.256131012
 21
-1632.997088137
 31
0.0
  0
LINE
  5
65F
330
A
100
AcDbEntity
  8
1
  6
SOLID
 62
     7
100
AcDbLine
 10
-289.2561310120001
 20
-1609.997088137
 30
0.0
 11
-292.256131012
 21
-1609.997088137
 31
0.0
  0
LINE
  5
660
330
A
100
AcDbEntity
  8
1
  6
SOLID
 62
     7
100
AcDbLine
 10
-289.2561310120001
 20
-1631.997088137
 30
0.0
 11
-292.256131012
 21
-1631.997088137
 31
0.0
  0
LINE
  5
661
330
A
100
AcDbEntity
  8
1
  6
SOLID
 62
     7
100
AcDbLine
 10
-286.256131012
 20
-1628.997088137
 30
0.0
 11
-286.256131012
 21
-1612.997088137
 31
0.0
  0
ARC
  5
662
330
A
100
AcDbEntity
  8
1
  6
SOLID
 62
     7
100
AcDbCircle
 10
-289.2561310120001
 20
-1612.997088137
 30
0.0
 40
3.0
100
AcDbArc
 50
0.0
 51
90.0
  0
ARC
  5
663
330
A
100
AcDbEntity
  8
1
  6
SOLID
 62
     7
100
AcDbCircle
 10
-289.2561310120001
 20
-1628.997088137
 30
0.0
 40
3.0
100
AcDbArc
 50
270.0
 51
0.0
  0
LINE
  5
664
330
A
100
AcDbEntity
  8
1
  6
CENTER
 62
     2
100
AcDbLine
 10
-284.03555382
 20
-1620.997088137
 30
0.0
 11
-292.256131012
 21
-1620.997088137
 31
0.0
  0
LINE
  5
665
330
A
100
AcDbEntity
  8
1
  6
SOLID
 62
     7
100
AcDbLine
 10
-292.256131012
 20
-1620.997088137
 30
0.0
 11
-305.256131012
 21
-1620.997088137
 31
0.0
  0
LINE
  5
666
330
A
100
AcDbEntity
  8
1
  6
CENTER
 62
     2
100
AcDbLine
 10
-305.256131012
 20
-1620.997088137
 30
0.0
 11
-308.256131012
 21
-1620.997088137
 31
0.0
  0
LINE
  5
667
330
A
100
AcDbEntity
  8
1
  6
SOLID
 62
     7
100
AcDbLine
 10
-308.256131012
 20
-1620.997088137
 30
0.0
 11
-313.256131012
 21
-1620.997088137
 31
0.0
  0
LINE
  5
668
330
A
100
AcDbEntity
  8
1
  6
SOLID
 62
     7
100
AcDbLine
 10
-289.2561310120001
 20
-1638.997088137
 30
0.0
 11
-289.2561310120001
 21
-1631.997088137
 31
0.0
  0
LINE
  5
669
330
A
100
AcDbEntity
  8
1
  6
SOLID
 62
     7
100
AcDbLine
 10
-304.256131012
 20
-1638.997088137
 30
0.0
 11
-304.256131012
 21
-1632.997088137
 31
0.0
  0
LINE
  5
66A
330
A
100
AcDbEntity
  8
1
  6
SOLID
 62
     7
100
AcDbLine
 10
-307.256131012
 20
-1638.997088137
 30
0.0
 11
-307.256131012
 21
-1630.997088137
 31
0.0
  0
LINE
  5
66B
330
A
100
AcDbEntity
  8
1
  6
SOLID
 62
     7
100
AcDbLine
 10
-291.256087515
 20
-2172.997070313
 30
0.0
 11
-291.256087515
 21
-2222.997052488
 31
0.0
  0
LINE
  5
66C
330
A
100
AcDbEntity
  8
1
  6
SOLID
 62
     7
100
AcDbLine
 10
-287.256087515
 20
-2172.997070313
 30
0.0
 11
-287.256087515
 21
-2224.497052488
 31
0.0
  0
LINE
  5
66D
330
A
100
AcDbEntity
  8
1
  6
SOLID
 62
     7
100
AcDbLine
 10
-287.256087515
 20
-2378.997070313
 30
0.0
 11
-287.256087515
 21
-2329.23308156
 31
0.0
  0
LINE
  5
66E
330
A
100
AcDbEntity
  8
1
  6
SOLID
 62
     7
100
AcDbLine
 10
-291.256087515
 20
-2378.997070313
 30
0.0
 11
-291.256087515
 21
-2329.997052488
 31
0.0
  0
LINE
  5
66F
330
A
100
AcDbEntity
  8
1
  6
CENTER
 62
     7
100
AcDbLine
 10
-318.256131012
 20
-2275.997070313
 30
0.0
 11
-318.256131012
 21
-2281.747070313
 31
0.0
  0
LINE
  5
670
330
A
100
AcDbEntity
  8
1
  6
CENTER
 62
     7
100
AcDbLine
 10
-318.256131012
 20
-2275.997070313
 30
0.0
 11
-318.256131012
 21
-2270.247070313
 31
0.0
  0
LINE
  5
671
330
A
100
AcDbEntity
  8
1
  6
CENTER
 62
     7
100
AcDbLine
 10
-318.256131012
 20
-2275.997070313
 30
0.0
 11
-324.006131012
 21
-2275.997070313
 31
0.0
  0
LINE
  5
672
330
A
100
AcDbEntity
  8
1
  6
CENTER
 62
     7
100
AcDbLine
 10
-318.256131012
 20
-2275.997070313
 30
0.0
 11
-312.506131012
 21
-2275.997070313
 31
0.0
  0
CIRCLE
  5
673
330
A
100
AcDbEntity
  8
1
  6
SOLID
 62
     1
100
AcDbCircle
 10
-318.256134033
 20
-2275.997070313
 30
0.0
 40
5.0
  0
LINE
  5
674
330
A
100
AcDbEntity
  8
1
  6
SOLID
 62
     1
100
AcDbLine
 10
-315.756134033
 20
-2277.440446019
 30
0.0
 11
-315.756134033
 21
-2274.553694606
 31
0.0
  0
LINE
  5
675
330
A
100
AcDbEntity
  8
1
  6
SOLID
 62
     1
100
AcDbLine
 10
-318.256134033
 20
-2278.883821726
 30
0.0
 11
-315.756133986
 21
-2277.440446
 31
0.0
  0
LINE
  5
676
330
A
100
AcDbEntity
  8
1
  6
SOLID
 62
     1
100
AcDbLine
 10
-320.756134033
 20
-2277.440446019
 30
0.0
 11
-318.256133986
 21
-2278.883821745
 31
0.0
  0
LINE
  5
677
330
A
100
AcDbEntity
  8
1
  6
SOLID
 62
     1
100
AcDbLine
 10
-320.756134033
 20
-2274.553694606
 30
0.0
 11
-320.756134033
 21
-2277.440446019
 31
0.0
  0
LINE
  5
678
330
A
100
AcDbEntity
  8
1
  6
SOLID
 62
     1
100
AcDbLine
 10
-318.256134033
 20
-2273.110318899
 30
0.0
 11
-320.75613408
 21
-2274.553694625
 31
0.0
  0
LINE
  5
679
330
A
100
AcDbEntity
  8
1
  6
SOLID
 62
     1
100
AcDbLine
 10
-315.756134033
 20
-2274.553694606
 30
0.0
 11
-318.25613408
 21
-2273.11031888
 31
0.0
  0
LINE
  5
67A
330
A
100
AcDbEntity
  8
1
  6
CENTER
 62
     7
100
AcDbLine
 10
-421.7561310119999
 20
-2345.997070313
 30
0.0
 11
-421.7561310119999
 21
-2351.747070313
 31
0.0
  0
LINE
  5
67B
330
A
100
AcDbEntity
  8
1
  6
CENTER
 62
     7
100
AcDbLine
 10
-421.7561310119999
 20
-2345.997070313
 30
0.0
 11
-421.7561310119999
 21
-2340.247070313
 31
0.0
  0
LINE
  5
67C
330
A
100
AcDbEntity
  8
1
  6
CENTER
 62
     7
100
AcDbLine
 10
-421.7561310119999
 20
-2345.997070313
 30
0.0
 11
-427.5061310119999
 21
-2345.997070313
 31
0.0
  0
LINE
  5
67D
330
A
100
AcDbEntity
  8
1
  6
CENTER
 62
     7
100
AcDbLine
 10
-421.7561310119999
 20
-2345.997070313
 30
0.0
 11
-416.0061310119999
 21
-2345.997070313
 31
0.0
  0
CIRCLE
  5
67E
330
A
100
AcDbEntity
  8
1
  6
SOLID
 62
     1
100
AcDbCircle
 10
-421.756134033
 20
-2345.997070313
 30
0.0
 40
5.0
  0
LINE
  5
67F
330
A
100
AcDbEntity
  8
1
  6
SOLID
 62
     1
100
AcDbLine
 10
-419.256134033
 20
-2347.440446019
 30
0.0
 11
-419.256134033
 21
-2344.553694606
 31
0.0
  0
LINE
  5
680
330
A
100
AcDbEntity
  8
1
  6
SOLID
 62
     1
100
AcDbLine
 10
-421.756134033
 20
-2348.883821726
 30
0.0
 11
-419.256133986
 21
-2347.440446
 31
0.0
  0
LINE
  5
681
330
A
100
AcDbEntity
  8
1
  6
SOLID
 62
     1
100
AcDbLine
 10
-424.2561340329999
 20
-2347.440446019
 30
0.0
 11
-421.756133986
 21
-2348.883821745
 31
0.0
  0
LINE
  5
682
330
A
100
AcDbEntity
  8
1
  6
SOLID
 62
     1
100
AcDbLine
 10
-424.2561340329999
 20
-2344.553694606
 30
0.0
 11
-424.2561340329999
 21
-2347.440446019
 31
0.0
  0
LINE
  5
683
330
A
100
AcDbEntity
  8
1
  6
SOLID
 62
     1
100
AcDbLine
 10
-421.756134033
 20
-2343.110318899
 30
0.0
 11
-424.25613408
 21
-2344.553694625
 31
0.0
  0
LINE
  5
684
330
A
100
AcDbEntity
  8
1
  6
SOLID
 62
     1
100
AcDbLine
 10
-419.256134033
 20
-2344.553694606
 30
0.0
 11
-421.7561340799999
 21
-2343.11031888
 31
0.0
  0
LINE
  5
685
330
A
100
AcDbEntity
  8
1
  6
CENTER
 62
     7
100
AcDbLine
 10
-421.7561310119999
 20
-2205.997070313
 30
0.0
 11
-421.7561310119999
 21
-2211.747070313
 31
0.0
  0
LINE
  5
686
330
A
100
AcDbEntity
  8
1
  6
CENTER
 62
     7
100
AcDbLine
 10
-421.7561310119999
 20
-2205.997070313
 30
0.0
 11
-421.7561310119999
 21
-2200.247070313
 31
0.0
  0
LINE
  5
687
330
A
100
AcDbEntity
  8
1
  6
CENTER
 62
     7
100
AcDbLine
 10
-421.7561310119999
 20
-2205.997070313
 30
0.0
 11
-427.5061310119999
 21
-2205.997070313
 31
0.0
  0
LINE
  5
688
330
A
100
AcDbEntity
  8
1
  6
CENTER
 62
     7
100
AcDbLine
 10
-421.7561310119999
 20
-2205.997070313
 30
0.0
 11
-416.0061310119999
 21
-2205.997070313
 31
0.0
  0
CIRCLE
  5
689
330
A
100
AcDbEntity
  8
1
  6
SOLID
 62
     1
100
AcDbCircle
 10
-421.756134033
 20
-2205.997070313
 30
0.0
 40
5.0
  0
LINE
  5
68A
330
A
100
AcDbEntity
  8
1
  6
SOLID
 62
     1
100
AcDbLine
 10
-419.256134033
 20
-2207.440446019
 30
0.0
 11
-419.256134033
 21
-2204.553694606
 31
0.0
  0
LINE
  5
68B
330
A
100
AcDbEntity
  8
1
  6
SOLID
 62
     1
100
AcDbLine
 10
-421.756134033
 20
-2208.883821726
 30
0.0
 11
-419.256133986
 21
-2207.440446
 31
0.0
  0
LINE
  5
68C
330
A
100
AcDbEntity
  8
1
  6
SOLID
 62
     1
100
AcDbLine
 10
-424.2561340329999
 20
-2207.440446019
 30
0.0
 11
-421.756133986
 21
-2208.883821745001
 31
0.0
  0
LINE
  5
68D
330
A
100
AcDbEntity
  8
1
  6
SOLID
 62
     1
100
AcDbLine
 10
-424.2561340329999
 20
-2204.553694606
 30
0.0
 11
-424.2561340329999
 21
-2207.440446019
 31
0.0
  0
LINE
  5
68E
330
A
100
AcDbEntity
  8
1
  6
SOLID
 62
     1
100
AcDbLine
 10
-421.756134033
 20
-2203.110318899
 30
0.0
 11
-424.25613408
 21
-2204.553694625
 31
0.0
  0
LINE
  5
68F
330
A
100
AcDbEntity
  8
1
  6
SOLID
 62
     1
100
AcDbLine
 10
-419.256134033
 20
-2204.553694606
 30
0.0
 11
-421.7561340799999
 21
-2203.11031888
 31
0.0
  0
LINE
  5
690
330
A
100
AcDbEntity
  8
1
  6
CENTER
 62
     7
100
AcDbLine
 10
345.981325941
 20
-1825.996992594
 30
0.0
 11
345.981325941
 21
-1831.746992594
 31
0.0
  0
LINE
  5
691
330
A
100
AcDbEntity
  8
1
  6
CENTER
 62
     7
100
AcDbLine
 10
345.981325941
 20
-1825.996992594
 30
0.0
 11
345.981325941
 21
-1820.246992594
 31
0.0
  0
LINE
  5
692
330
A
100
AcDbEntity
  8
1
  6
CENTER
 62
     7
100
AcDbLine
 10
345.981325941
 20
-1825.996992594
 30
0.0
 11
340.231325941
 21
-1825.996992594
 31
0.0
  0
LINE
  5
693
330
A
100
AcDbEntity
  8
1
  6
CENTER
 62
     7
100
AcDbLine
 10
345.981325941
 20
-1825.996992594
 30
0.0
 11
351.731325941
 21
-1825.996992594
 31
0.0
  0
CIRCLE
  5
694
330
A
100
AcDbEntity
  8
1
  6
SOLID
 62
     1
100
AcDbCircle
 10
345.981323242
 20
-1825.996948242
 30
0.0
 40
5.0
  0
LINE
  5
695
330
A
100
AcDbEntity
  8
1
  6
SOLID
 62
     1
100
AcDbLine
 10
348.481323242
 20
-1827.440323949
 30
0.0
 11
348.481323242
 21
-1824.553572536
 31
0.0
  0
LINE
  5
696
330
A
100
AcDbEntity
  8
1
  6
SOLID
 62
     1
100
AcDbLine
 10
345.981323242
 20
-1828.883699656
 30
0.0
 11
348.481323289
 21
-1827.440323929
 31
0.0
  0
LINE
  5
697
330
A
100
AcDbEntity
  8
1
  6
SOLID
 62
     1
100
AcDbLine
 10
343.481323242
 20
-1827.440323949
 30
0.0
 11
345.981323289
 21
-1828.883699675
 31
0.0
  0
LINE
  5
698
330
A
100
AcDbEntity
  8
1
  6
SOLID
 62
     1
100
AcDbLine
 10
343.481323242
 20
-1824.553572536
 30
0.0
 11
343.481323242
 21
-1827.440323949
 31
0.0
  0
LINE
  5
699
330
A
100
AcDbEntity
  8
1
  6
SOLID
 62
     1
100
AcDbLine
 10
345.981323242
 20
-1823.110196829
 30
0.0
 11
343.481323195
 21
-1824.553572555
 31
0.0
  0
LINE
  5
69A
330
A
100
AcDbEntity
  8
1
  6
SOLID
 62
     1
100
AcDbLine
 10
348.481323242
 20
-1824.553572536
 30
0.0
 11
345.981323195
 21
-1823.110196809
 31
0.0
  0
LINE
  5
69B
330
A
100
AcDbEntity
  8
1
  6
SOLID
 62
     4
100
AcDbLine
 10
-235.456103325
 20
-2156.903803825
 30
0.0
 11
-235.456103325
 21
-2175.0903368
 31
0.0
  0
LINE
  5
69C
330
A
100
AcDbEntity
  8
1
  6
SOLID
 62
     4
100
AcDbLine
 10
-247.318281174
 20
-2159.934892654
 30
0.0
 11
-236.393925667
 21
-2159.934892654
 31
0.0
  0
LINE
  5
69D
330
A
100
AcDbEntity
  8
1
  6
SOLID
 62
     4
100
AcDbLine
 10
-248.256103516
 20
-2175.0903368
 30
0.0
 11
-248.256103516
 21
-2156.903803825
 31
0.0
  0
LINE
  5
69E
330
A
100
AcDbEntity
  8
1
  6
SOLID
 62
     4
100
AcDbLine
 10
-247.318281174
 20
-2172.059247971
 30
0.0
 11
-236.393925667
 21
-2172.059247971
 31
0.0
  0
ARC
  5
69F
330
A
100
AcDbEntity
  8
1
  6
SOLID
 62
     4
100
AcDbCircle
 10
-240.82333003
 20
-2175.0903368
 30
0.0
 40
5.367226705
100
AcDbArc
 50
325.615745828
 51
34.384254172
  0
ARC
  5
6A0
330
A
100
AcDbEntity
  8
1
  6
SOLID
 62
     4
100
AcDbCircle
 10
-255.518276632
 20
-2165.997070313
 30
0.0
 40
20.062173307
100
AcDbArc
 50
342.412042639
 51
17.58795736099999
  0
ARC
  5
6A1
330
A
100
AcDbEntity
  8
1
  6
SOLID
 62
     4
100
AcDbCircle
 10
-240.82333003
 20
-2156.903803825
 30
0.0
 40
5.367226705
100
AcDbArc
 50
325.615745828
 51
34.384254172
  0
LINE
  5
6A2
330
A
100
AcDbEntity
  8
1
  6
SOLID
 62
     4
100
AcDbLine
 10
-247.318281174
 20
-2153.872714996
 30
0.0
 11
-236.393925667
 21
-2153.872714996
 31
0.0
  0
ARC
  5
6A3
330
A
100
AcDbEntity
  8
1
  6
SOLID
 62
     4
100
AcDbCircle
 10
-242.888876811
 20
-2156.903803825
 30
0.0
 40
5.367226705
100
AcDbArc
 50
145.615745828
 51
214.384254172
  0
ARC
  5
6A4
330
A
100
AcDbEntity
  8
1
  6
SOLID
 62
     4
100
AcDbCircle
 10
-228.193930209
 20
-2165.997070313
 30
0.0
 40
20.062173307
100
AcDbArc
 50
162.412042639
 51
197.587957361
  0
ARC
  5
6A5
330
A
100
AcDbEntity
  8
1
  6
SOLID
 62
     4
100
AcDbCircle
 10
-242.888876811
 20
-2175.0903368
 30
0.0
 40
5.367226705
100
AcDbArc
 50
145.615745828
 51
214.384254172
  0
LINE
  5
6A6
330
A
100
AcDbEntity
  8
1
  6
SOLID
 62
     4
100
AcDbLine
 10
-236.393925667
 20
-2178.121425629
 30
0.0
 11
-247.318281174
 21
-2178.121425629
 31
0.0
  0
LINE
  5
6A7
330
A
100
AcDbEntity
  8
1
  6
CENTER
 62
     7
100
AcDbLine
 10
-499.8560874189999
 20
-2165.997070313
 30
0.0
 11
-508.1760875909999
 21
-2165.997070313
 31
0.0
  0
LINE
  5
6A8
330
A
100
AcDbEntity
  8
1
  6
CENTER
 62
     7
100
AcDbLine
 10
-499.8560874189999
 20
-2165.997070313
 30
0.0
 11
-491.536087248
 21
-2165.997070313
 31
0.0
  0
LINE
  5
6A9
330
A
100
AcDbEntity
  8
1
  6
SOLID
 62
     4
100
AcDbLine
 10
-493.4560728069999
 20
-2156.903803825
 30
0.0
 11
-493.4560728069999
 21
-2175.0903368
 31
0.0
  0
LINE
  5
6AA
330
A
100
AcDbEntity
  8
1
  6
SOLID
 62
     4
100
AcDbLine
 10
-505.3182506559999
 20
-2159.934892654
 30
0.0
 11
-494.3938951489999
 21
-2159.934892654
 31
0.0
  0
LINE
  5
6AB
330
A
100
AcDbEntity
  8
1
  6
SOLID
 62
     4
100
AcDbLine
 10
-506.256072998
 20
-2175.0903368
 30
0.0
 11
-506.256072998
 21
-2156.903803825
 31
0.0
  0
LINE
  5
6AC
330
A
100
AcDbEntity
  8
1
  6
SOLID
 62
     4
100
AcDbLine
 10
-505.3182506559999
 20
-2172.059247971
 30
0.0
 11
-494.3938951489999
 21
-2172.059247971
 31
0.0
  0
ARC
  5
6AD
330
A
100
AcDbEntity
  8
1
  6
SOLID
 62
     4
100
AcDbCircle
 10
-498.8232995119999
 20
-2175.0903368
 30
0.0
 40
5.367226705
100
AcDbArc
 50
325.615745828
 51
34.384254172
  0
ARC
  5
6AE
330
A
100
AcDbEntity
  8
1
  6
SOLID
 62
     4
100
AcDbCircle
 10
-513.518246114
 20
-2165.997070313
 30
0.0
 40
20.062173307
100
AcDbArc
 50
342.412042639
 51
17.58795736099999
  0
ARC
  5
6AF
330
A
100
AcDbEntity
  8
1
  6
SOLID
 62
     4
100
AcDbCircle
 10
-498.8232995119999
 20
-2156.903803825
 30
0.0
 40
5.367226705
100
AcDbArc
 50
325.615745828
 51
34.384254172
  0
LINE
  5
6B0
330
A
100
AcDbEntity
  8
1
  6
SOLID
 62
     4
100
AcDbLine
 10
-505.3182506559999
 20
-2153.872714996
 30
0.0
 11
-494.3938951489999
 21
-2153.872714996
 31
0.0
  0
ARC
  5
6B1
330
A
100
AcDbEntity
  8
1
  6
SOLID
 62
     4
100
AcDbCircle
 10
-500.888846293
 20
-2156.903803825
 30
0.0
 40
5.367226705
100
AcDbArc
 50
145.615745828
 51
214.384254172
  0
ARC
  5
6B2
330
A
100
AcDbEntity
  8
1
  6
SOLID
 62
     4
100
AcDbCircle
 10
-486.193899691
 20
-2165.997070313
 30
0.0
 40
20.062173307
100
AcDbArc
 50
162.412042639
 51
197.587957361
  0
ARC
  5
6B3
330
A
100
AcDbEntity
  8
1
  6
SOLID
 62
     4
100
AcDbCircle
 10
-500.888846293
 20
-2175.0903368
 30
0.0
 40
5.367226705
100
AcDbArc
 50
145.615745828
 51
214.384254172
  0
LINE
  5
6B4
330
A
100
AcDbEntity
  8
1
  6
SOLID
 62
     4
100
AcDbLine
 10
-494.3938951489999
 20
-2178.121425629
 30
0.0
 11
-505.3182506559999
 21
-2178.121425629
 31
0.0
  0
LINE
  5
6B5
330
A
100
AcDbEntity
  8
1
  6
SOLID
 62
     4
100
AcDbLine
 10
-235.456103325
 20
-2395.0903368
 30
0.0
 11
-235.456103325
 21
-2376.903803825
 31
0.0
  0
LINE
  5
6B6
330
A
100
AcDbEntity
  8
1
  6
SOLID
 62
     4
100
AcDbLine
 10
-247.318281174
 20
-2392.059247971
 30
0.0
 11
-236.393925667
 21
-2392.059247971
 31
0.0
  0
LINE
  5
6B7
330
A
100
AcDbEntity
  8
1
  6
SOLID
 62
     4
100
AcDbLine
 10
-248.256103516
 20
-2376.903803825
 30
0.0
 11
-248.256103516
 21
-2395.0903368
 31
0.0
  0
LINE
  5
6B8
330
A
100
AcDbEntity
  8
1
  6
SOLID
 62
     4
100
AcDbLine
 10
-247.318281174
 20
-2379.934892654
 30
0.0
 11
-236.393925667
 21
-2379.934892654
 31
0.0
  0
ARC
  5
6B9
330
A
100
AcDbEntity
  8
1
  6
SOLID
 62
     4
100
AcDbCircle
 10
-240.82333003
 20
-2376.903803825
 30
0.0
 40
5.367226705
100
AcDbArc
 50
325.615745828
 51
34.384254172
  0
ARC
  5
6BA
330
A
100
AcDbEntity
  8
1
  6
SOLID
 62
     4
100
AcDbCircle
 10
-255.518276632
 20
-2385.997070313
 30
0.0
 40
20.062173307
100
AcDbArc
 50
342.412042639
 51
17.58795736099999
  0
ARC
  5
6BB
330
A
100
AcDbEntity
  8
1
  6
SOLID
 62
     4
100
AcDbCircle
 10
-240.82333003
 20
-2395.0903368
 30
0.0
 40
5.367226705
100
AcDbArc
 50
325.615745828
 51
34.384254172
  0
LINE
  5
6BC
330
A
100
AcDbEntity
  8
1
  6
SOLID
 62
     4
100
AcDbLine
 10
-247.318281174
 20
-2398.121425629
 30
0.0
 11
-236.393925667
 21
-2398.121425629
 31
0.0
  0
ARC
  5
6BD
330
A
100
AcDbEntity
  8
1
  6
SOLID
 62
     4
100
AcDbCircle
 10
-242.888876811
 20
-2395.0903368
 30
0.0
 40
5.367226705
100
AcDbArc
 50
145.615745828
 51
214.384254172
  0
ARC
  5
6BE
330
A
100
AcDbEntity
  8
1
  6
SOLID
 62
     4
100
AcDbCircle
 10
-228.193930209
 20
-2385.997070313
 30
0.0
 40
20.062173307
100
AcDbArc
 50
162.412042639
 51
197.587957361
  0
ARC
  5
6BF
330
A
100
AcDbEntity
  8
1
  6
SOLID
 62
     4
100
AcDbCircle
 10
-242.888876811
 20
-2376.903803825
 30
0.0
 40
5.367226705
100
AcDbArc
 50
145.615745828
 51
214.384254172
  0
LINE
  5
6C0
330
A
100
AcDbEntity
  8
1
  6
SOLID
 62
     4
100
AcDbLine
 10
-236.393925667
 20
-2373.872714996
 30
0.0
 11
-247.318281174
 21
-2373.872714996
 31
0.0
  0
LINE
  5
6C1
330
A
100
AcDbEntity
  8
1
  6
CENTER
 62
     7
100
AcDbLine
 10
248.981325941
 20
-1825.996992594
 30
0.0
 11
248.981325941
 21
-1831.746992594
 31
0.0
  0
LINE
  5
6C2
330
A
100
AcDbEntity
  8
1
  6
CENTER
 62
     7
100
AcDbLine
 10
248.981325941
 20
-1825.996992594
 30
0.0
 11
248.981325941
 21
-1820.246992594
 31
0.0
  0
LINE
  5
6C3
330
A
100
AcDbEntity
  8
1
  6
CENTER
 62
     7
100
AcDbLine
 10
248.981325941
 20
-1825.996992594
 30
0.0
 11
243.231325941
 21
-1825.996992594
 31
0.0
  0
LINE
  5
6C4
330
A
100
AcDbEntity
  8
1
  6
CENTER
 62
     7
100
AcDbLine
 10
248.981325941
 20
-1825.996992594
 30
0.0
 11
254.731325941
 21
-1825.996992594
 31
0.0
  0
CIRCLE
  5
6C5
330
A
100
AcDbEntity
  8
1
  6
SOLID
 62
     1
100
AcDbCircle
 10
248.981323242
 20
-1825.996948242
 30
0.0
 40
5.0
  0
LINE
  5
6C6
330
A
100
AcDbEntity
  8
1
  6
SOLID
 62
     1
100
AcDbLine
 10
251.481323242
 20
-1827.440323949
 30
0.0
 11
251.481323242
 21
-1824.553572536
 31
0.0
  0
LINE
  5
6C7
330
A
100
AcDbEntity
  8
1
  6
SOLID
 62
     1
100
AcDbLine
 10
248.981323242
 20
-1828.883699656
 30
0.0
 11
251.481323289
 21
-1827.440323929
 31
0.0
  0
LINE
  5
6C8
330
A
100
AcDbEntity
  8
1
  6
SOLID
 62
     1
100
AcDbLine
 10
246.481323242
 20
-1827.440323949
 30
0.0
 11
248.981323289
 21
-1828.883699675
 31
0.0
  0
LINE
  5
6C9
330
A
100
AcDbEntity
  8
1
  6
SOLID
 62
     1
100
AcDbLine
 10
246.481323242
 20
-1824.553572536
 30
0.0
 11
246.481323242
 21
-1827.440323949
 31
0.0
  0
LINE
  5
6CA
330
A
100
AcDbEntity
  8
1
  6
SOLID
 62
     1
100
AcDbLine
 10
248.981323242
 20
-1823.110196829
 30
0.0
 11
246.481323195
 21
-1824.553572555
 31
0.0
  0
LINE
  5
6CB
330
A
100
AcDbEntity
  8
1
  6
SOLID
 62
     1
100
AcDbLine
 10
251.481323242
 20
-1824.553572536
 30
0.0
 11
248.981323195
 21
-1823.110196809
 31
0.0
  0
LINE
  5
6CC
330
A
100
AcDbEntity
  8
1
  6
CENTER
 62
     7
100
AcDbLine
 10
-499.8560874189999
 20
-2385.997070313
 30
0.0
 11
-508.1760875909999
 21
-2385.997070313
 31
0.0
  0
LINE
  5
6CD
330
A
100
AcDbEntity
  8
1
  6
CENTER
 62
     7
100
AcDbLine
 10
-499.8560874189999
 20
-2385.997070313
 30
0.0
 11
-491.536087248
 21
-2385.997070313
 31
0.0
  0
LINE
  5
6CE
330
A
100
AcDbEntity
  8
1
  6
SOLID
 62
     4
100
AcDbLine
 10
-493.4560728069999
 20
-2395.0903368
 30
0.0
 11
-493.4560728069999
 21
-2376.903803825
 31
0.0
  0
LINE
  5
6CF
330
A
100
AcDbEntity
  8
1
  6
SOLID
 62
     4
100
AcDbLine
 10
-505.3182506559999
 20
-2392.059247971
 30
0.0
 11
-494.3938951489999
 21
-2392.059247971
 31
0.0
  0
LINE
  5
6D0
330
A
100
AcDbEntity
  8
1
  6
SOLID
 62
     4
100
AcDbLine
 10
-506.256072998
 20
-2376.903803825
 30
0.0
 11
-506.256072998
 21
-2395.0903368
 31
0.0
  0
LINE
  5
6D1
330
A
100
AcDbEntity
  8
1
  6
SOLID
 62
     4
100
AcDbLine
 10
-505.3182506559999
 20
-2379.934892654
 30
0.0
 11
-494.3938951489999
 21
-2379.934892654
 31
0.0
  0
ARC
  5
6D2
330
A
100
AcDbEntity
  8
1
  6
SOLID
 62
     4
100
AcDbCircle
 10
-498.8232995119999
 20
-2376.903803825
 30
0.0
 40
5.367226705
100
AcDbArc
 50
325.615745828
 51
34.384254172
  0
ARC
  5
6D3
330
A
100
AcDbEntity
  8
1
  6
SOLID
 62
     4
100
AcDbCircle
 10
-513.518246114
 20
-2385.997070313
 30
0.0
 40
20.062173307
100
AcDbArc
 50
342.412042639
 51
17.58795736099999
  0
ARC
  5
6D4
330
A
100
AcDbEntity
  8
1
  6
SOLID
 62
     4
100
AcDbCircle
 10
-498.8232995119999
 20
-2395.0903368
 30
0.0
 40
5.367226705
100
AcDbArc
 50
325.615745828
 51
34.384254172
  0
LINE
  5
6D5
330
A
100
AcDbEntity
  8
1
  6
SOLID
 62
     4
100
AcDbLine
 10
-505.3182506559999
 20
-2398.121425629
 30
0.0
 11
-494.3938951489999
 21
-2398.121425629
 31
0.0
  0
ARC
  5
6D6
330
A
100
AcDbEntity
  8
1
  6
SOLID
 62
     4
100
AcDbCircle
 10
-500.888846293
 20
-2395.0903368
 30
0.0
 40
5.367226705
100
AcDbArc
 50
145.615745828
 51
214.384254172
  0
ARC
  5
6D7
330
A
100
AcDbEntity
  8
1
  6
SOLID
 62
     4
100
AcDbCircle
 10
-486.193899691
 20
-2385.997070313
 30
0.0
 40
20.062173307
100
AcDbArc
 50
162.412042639
 51
197.587957361
  0
ARC
  5
6D8
330
A
100
AcDbEntity
  8
1
  6
SOLID
 62
     4
100
AcDbCircle
 10
-500.888846293
 20
-2376.903803825
 30
0.0
 40
5.367226705
100
AcDbArc
 50
145.615745828
 51
214.384254172
  0
LINE
  5
6D9
330
A
100
AcDbEntity
  8
1
  6
SOLID
 62
     4
100
AcDbLine
 10
-494.3938951489999
 20
-2373.872714996
 30
0.0
 11
-505.3182506559999
 21
-2373.872714996
 31
0.0
  0
LINE
  5
6DA
330
A
100
AcDbEntity
  8
1
  6
SOLID
 62
     4
100
AcDbLine
 10
-235.456103325
 20
-1706.903803825
 30
0.0
 11
-235.456103325
 21
-1725.0903368
 31
0.0
  0
LINE
  5
6DB
330
A
100
AcDbEntity
  8
1
  6
SOLID
 62
     4
100
AcDbLine
 10
-247.318281174
 20
-1709.934892654
 30
0.0
 11
-236.393925667
 21
-1709.934892654
 31
0.0
  0
LINE
  5
6DC
330
A
100
AcDbEntity
  8
1
  6
SOLID
 62
     4
100
AcDbLine
 10
-248.256103516
 20
-1725.0903368
 30
0.0
 11
-248.256103516
 21
-1706.903803825
 31
0.0
  0
LINE
  5
6DD
330
A
100
AcDbEntity
  8
1
  6
SOLID
 62
     4
100
AcDbLine
 10
-247.318281174
 20
-1722.059247971
 30
0.0
 11
-236.393925667
 21
-1722.059247971
 31
0.0
  0
ARC
  5
6DE
330
A
100
AcDbEntity
  8
1
  6
SOLID
 62
     4
100
AcDbCircle
 10
-240.82333003
 20
-1725.0903368
 30
0.0
 40
5.367226705
100
AcDbArc
 50
325.615745828
 51
34.384254172
  0
ARC
  5
6DF
330
A
100
AcDbEntity
  8
1
  6
SOLID
 62
     4
100
AcDbCircle
 10
-255.518276632
 20
-1715.997070312999
 30
0.0
 40
20.062173307
100
AcDbArc
 50
342.412042639
 51
17.58795736099999
  0
ARC
  5
6E0
330
A
100
AcDbEntity
  8
1
  6
SOLID
 62
     4
100
AcDbCircle
 10
-240.82333003
 20
-1706.903803825
 30
0.0
 40
5.367226705
100
AcDbArc
 50
325.615745828
 51
34.384254172
  0
LINE
  5
6E1
330
A
100
AcDbEntity
  8
1
  6
SOLID
 62
     4
100
AcDbLine
 10
-247.318281174
 20
-1703.872714996
 30
0.0
 11
-236.393925667
 21
-1703.872714996
 31
0.0
  0
ARC
  5
6E2
330
A
100
AcDbEntity
  8
1
  6
SOLID
 62
     4
100
AcDbCircle
 10
-242.888876811
 20
-1706.903803825
 30
0.0
 40
5.367226705
100
AcDbArc
 50
145.615745828
 51
214.384254172
  0
ARC
  5
6E3
330
A
100
AcDbEntity
  8
1
  6
SOLID
 62
     4
100
AcDbCircle
 10
-228.193930209
 20
-1715.997070312999
 30
0.0
 40
20.062173307
100
AcDbArc
 50
162.412042639
 51
197.587957361
  0
ARC
  5
6E4
330
A
100
AcDbEntity
  8
1
  6
SOLID
 62
     4
100
AcDbCircle
 10
-242.888876811
 20
-1725.0903368
 30
0.0
 40
5.367226705
100
AcDbArc
 50
145.615745828
 51
214.384254172
  0
LINE
  5
6E5
330
A
100
AcDbEntity
  8
1
  6
SOLID
 62
     4
100
AcDbLine
 10
-236.393925667
 20
-1728.121425629
 30
0.0
 11
-247.318281174
 21
-1728.121425629
 31
0.0
  0
LINE
  5
6E6
330
A
100
AcDbEntity
  8
1
  6
CENTER
 62
     7
100
AcDbLine
 10
-499.8560874189999
 20
-1715.997070312999
 30
0.0
 11
-508.1760875909999
 21
-1715.997070312999
 31
0.0
  0
LINE
  5
6E7
330
A
100
AcDbEntity
  8
1
  6
CENTER
 62
     7
100
AcDbLine
 10
-499.8560874189999
 20
-1715.997070312999
 30
0.0
 11
-491.536087248
 21
-1715.997070312999
 31
0.0
  0
LINE
  5
6E8
330
A
100
AcDbEntity
  8
1
  6
SOLID
 62
     4
100
AcDbLine
 10
-493.4560728069999
 20
-1706.903803825
 30
0.0
 11
-493.4560728069999
 21
-1725.0903368
 31
0.0
  0
LINE
  5
6E9
330
A
100
AcDbEntity
  8
1
  6
SOLID
 62
     4
100
AcDbLine
 10
-505.3182506559999
 20
-1709.934892654
 30
0.0
 11
-494.3938951489999
 21
-1709.934892654
 31
0.0
  0
LINE
  5
6EA
330
A
100
AcDbEntity
  8
1
  6
SOLID
 62
     4
100
AcDbLine
 10
-506.256072998
 20
-1725.0903368
 30
0.0
 11
-506.256072998
 21
-1706.903803825
 31
0.0
  0
LINE
  5
6EB
330
A
100
AcDbEntity
  8
1
  6
SOLID
 62
     4
100
AcDbLine
 10
-505.3182506559999
 20
-1722.059247971
 30
0.0
 11
-494.3938951489999
 21
-1722.059247971
 31
0.0
  0
ARC
  5
6EC
330
A
100
AcDbEntity
  8
1
  6
SOLID
 62
     4
100
AcDbCircle
 10
-498.8232995119999
 20
-1725.0903368
 30
0.0
 40
5.367226705
100
AcDbArc
 50
325.615745828
 51
34.384254172
  0
ARC
  5
6ED
330
A
100
AcDbEntity
  8
1
  6
SOLID
 62
     4
100
AcDbCircle
 10
-513.518246114
 20
-1715.997070312999
 30
0.0
 40
20.062173307
100
AcDbArc
 50
342.412042639
 51
17.58795736099999
  0
ARC
  5
6EE
330
A
100
AcDbEntity
  8
1
  6
SOLID
 62
     4
100
AcDbCircle
 10
-498.8232995119999
 20
-1706.903803825
 30
0.0
 40
5.367226705
100
AcDbArc
 50
325.615745828
 51
34.384254172
  0
LINE
  5
6EF
330
A
100
AcDbEntity
  8
1
  6
SOLID
 62
     4
100
AcDbLine
 10
-505.3182506559999
 20
-1703.872714996
 30
0.0
 11
-494.3938951489999
 21
-1703.872714996
 31
0.0
  0
ARC
  5
6F0
330
A
100
AcDbEntity
  8
1
  6
SOLID
 62
     4
100
AcDbCircle
 10
-500.888846293
 20
-1706.903803825
 30
0.0
 40
5.367226705
100
AcDbArc
 50
145.615745828
 51
214.384254172
  0
ARC
  5
6F1
330
A
100
AcDbEntity
  8
1
  6
SOLID
 62
     4
100
AcDbCircle
 10
-486.193899691
 20
-1715.997070312999
 30
0.0
 40
20.062173307
100
AcDbArc
 50
162.412042639
 51
197.587957361
  0
ARC
  5
6F2
330
A
100
AcDbEntity
  8
1
  6
SOLID
 62
     4
100
AcDbCircle
 10
-500.888846293
 20
-1725.0903368
 30
0.0
 40
5.367226705
100
AcDbArc
 50
145.615745828
 51
214.384254172
  0
LINE
  5
6F3
330
A
100
AcDbEntity
  8
1
  6
SOLID
 62
     4
100
AcDbLine
 10
-494.3938951489999
 20
-1728.121425629
 30
0.0
 11
-505.3182506559999
 21
-1728.121425629
 31
0.0
  0
LINE
  5
6F4
330
A
100
AcDbEntity
  8
1
  6
SOLID
 62
     4
100
AcDbLine
 10
-235.456103325
 20
-1945.0903368
 30
0.0
 11
-235.456103325
 21
-1926.903803825
 31
0.0
  0
LINE
  5
6F5
330
A
100
AcDbEntity
  8
1
  6
SOLID
 62
     4
100
AcDbLine
 10
-247.318281174
 20
-1942.059247971
 30
0.0
 11
-236.393925667
 21
-1942.059247971
 31
0.0
  0
LINE
  5
6F6
330
A
100
AcDbEntity
  8
1
  6
SOLID
 62
     4
100
AcDbLine
 10
-248.256103516
 20
-1926.903803825
 30
0.0
 11
-248.256103516
 21
-1945.0903368
 31
0.0
  0
LINE
  5
6F7
330
A
100
AcDbEntity
  8
1
  6
SOLID
 62
     4
100
AcDbLine
 10
-247.318281174
 20
-1929.934892654
 30
0.0
 11
-236.393925667
 21
-1929.934892654
 31
0.0
  0
ARC
  5
6F8
330
A
100
AcDbEntity
  8
1
  6
SOLID
 62
     4
100
AcDbCircle
 10
-240.82333003
 20
-1926.903803825
 30
0.0
 40
5.367226705
100
AcDbArc
 50
325.615745828
 51
34.384254172
  0
ARC
  5
6F9
330
A
100
AcDbEntity
  8
1
  6
SOLID
 62
     4
100
AcDbCircle
 10
-255.518276632
 20
-1935.997070313
 30
0.0
 40
20.062173307
100
AcDbArc
 50
342.412042639
 51
17.58795736099999
  0
ARC
  5
6FA
330
A
100
AcDbEntity
  8
1
  6
SOLID
 62
     4
100
AcDbCircle
 10
-240.82333003
 20
-1945.0903368
 30
0.0
 40
5.367226705
100
AcDbArc
 50
325.615745828
 51
34.384254172
  0
LINE
  5
6FB
330
A
100
AcDbEntity
  8
1
  6
SOLID
 62
     4
100
AcDbLine
 10
-247.318281174
 20
-1948.121425629
 30
0.0
 11
-236.393925667
 21
-1948.121425629
 31
0.0
  0
ARC
  5
6FC
330
A
100
AcDbEntity
  8
1
  6
SOLID
 62
     4
100
AcDbCircle
 10
-242.888876811
 20
-1945.0903368
 30
0.0
 40
5.367226705
100
AcDbArc
 50
145.615745828
 51
214.384254172
  0
ARC
  5
6FD
330
A
100
AcDbEntity
  8
1
  6
SOLID
 62
     4
100
AcDbCircle
 10
-228.193930209
 20
-1935.997070313
 30
0.0
 40
20.062173307
100
AcDbArc
 50
162.412042639
 51
197.587957361
  0
ARC
  5
6FE
330
A
100
AcDbEntity
  8
1
  6
SOLID
 62
     4
100
AcDbCircle
 10
-242.888876811
 20
-1926.903803825
 30
0.0
 40
5.367226705
100
AcDbArc
 50
145.615745828
 51
214.384254172
  0
LINE
  5
6FF
330
A
100
AcDbEntity
  8
1
  6
SOLID
 62
     4
100
AcDbLine
 10
-236.393925667
 20
-1923.872714996
 30
0.0
 11
-247.318281174
 21
-1923.872714996
 31
0.0
  0
LINE
  5
700
330
A
100
AcDbEntity
  8
1
  6
SOLID
 62
     1
100
AcDbLine
 10
-650.783150076
 20
-1831.0777527
 30
0.0
 11
-647.8761422459999
 21
-1831.0777527
 31
0.0
  0
ARC
  5
701
330
A
100
AcDbEntity
  8
1
  6
SOLID
 62
     1
100
AcDbCircle
 10
-648.927019001
 20
-1829.807582103
 30
0.0
 40
2.249123364999999
100
AcDbArc
 50
145.615740999
 51
214.384259001
  0
LINE
  5
702
330
A
100
AcDbEntity
  8
1
  6
CENTER
 62
     7
100
AcDbLine
 10
-499.8560874189999
 20
-1935.997070313
 30
0.0
 11
-508.1760875909999
 21
-1935.997070313
 31
0.0
  0
LINE
  5
703
330
A
100
AcDbEntity
  8
1
  6
CENTER
 62
     7
100
AcDbLine
 10
-499.8560874189999
 20
-1935.997070313
 30
0.0
 11
-491.536087248
 21
-1935.997070313
 31
0.0
  0
LINE
  5
704
330
A
100
AcDbEntity
  8
1
  6
SOLID
 62
     4
100
AcDbLine
 10
-493.4560728069999
 20
-1945.0903368
 30
0.0
 11
-493.4560728069999
 21
-1926.903803825
 31
0.0
  0
LINE
  5
705
330
A
100
AcDbEntity
  8
1
  6
SOLID
 62
     4
100
AcDbLine
 10
-505.3182506559999
 20
-1942.059247971
 30
0.0
 11
-494.3938951489999
 21
-1942.059247971
 31
0.0
  0
LINE
  5
706
330
A
100
AcDbEntity
  8
1
  6
SOLID
 62
     4
100
AcDbLine
 10
-506.256072998
 20
-1926.903803825
 30
0.0
 11
-506.256072998
 21
-1945.0903368
 31
0.0
  0
LINE
  5
707
330
A
100
AcDbEntity
  8
1
  6
SOLID
 62
     4
100
AcDbLine
 10
-505.3182506559999
 20
-1929.934892654
 30
0.0
 11
-494.3938951489999
 21
-1929.934892654
 31
0.0
  0
ARC
  5
708
330
A
100
AcDbEntity
  8
1
  6
SOLID
 62
     4
100
AcDbCircle
 10
-498.8232995119999
 20
-1926.903803825
 30
0.0
 40
5.367226705
100
AcDbArc
 50
325.615745828
 51
34.384254172
  0
ARC
  5
709
330
A
100
AcDbEntity
  8
1
  6
SOLID
 62
     4
100
AcDbCircle
 10
-513.518246114
 20
-1935.997070313
 30
0.0
 40
20.062173307
100
AcDbArc
 50
342.412042639
 51
17.58795736099999
  0
ARC
  5
70A
330
A
100
AcDbEntity
  8
1
  6
SOLID
 62
     4
100
AcDbCircle
 10
-498.8232995119999
 20
-1945.0903368
 30
0.0
 40
5.367226705
100
AcDbArc
 50
325.615745828
 51
34.384254172
  0
LINE
  5
70B
330
A
100
AcDbEntity
  8
1
  6
SOLID
 62
     4
100
AcDbLine
 10
-505.3182506559999
 20
-1948.121425629
 30
0.0
 11
-494.3938951489999
 21
-1948.121425629
 31
0.0
  0
ARC
  5
70C
330
A
100
AcDbEntity
  8
1
  6
SOLID
 62
     4
100
AcDbCircle
 10
-500.888846293
 20
-1945.0903368
 30
0.0
 40
5.367226705
100
AcDbArc
 50
145.615745828
 51
214.384254172
  0
ARC
  5
70D
330
A
100
AcDbEntity
  8
1
  6
SOLID
 62
     4
100
AcDbCircle
 10
-486.193899691
 20
-1935.997070313
 30
0.0
 40
20.062173307
100
AcDbArc
 50
162.412042639
 51
197.587957361
  0
ARC
  5
70E
330
A
100
AcDbEntity
  8
1
  6
SOLID
 62
     4
100
AcDbCircle
 10
-500.888846293
 20
-1926.903803825
 30
0.0
 40
5.367226705
100
AcDbArc
 50
145.615745828
 51
214.384254172
  0
LINE
  5
70F
330
A
100
AcDbEntity
  8
1
  6
SOLID
 62
     4
100
AcDbLine
 10
-494.3938951489999
 20
-1923.872714996
 30
0.0
 11
-505.3182506559999
 21
-1923.872714996
 31
0.0
  0
LINE
  5
710
330
A
100
AcDbEntity
  8
1
  6
CENTER
 62
     7
100
AcDbLine
 10
-619.656462207
 20
-2156.996941346
 30
0.0
 11
-619.656462207
 21
-2143.846941251
 31
0.0
  0
ARC
  5
711
330
A
100
AcDbEntity
  8
1
  6
SOLID
 62
     7
100
AcDbCircle
 10
-646.156512114
 20
-2223.997070313
 30
0.0
 40
3.0
100
AcDbArc
 50
90.0
 51
119.995997163
  0
LINE
  5
712
330
A
100
AcDbEntity
  8
1
  6
SOLID
 62
     1
100
AcDbLine
 10
-647.656520772
 20
-2225.473762948
 30
0.0
 11
-647.8765207799999
 21
-2225.473762948
 31
0.0
  0
LINE
  5
713
330
A
100
AcDbEntity
  8
1
  6
SOLID
 62
     1
100
AcDbLine
 10
-647.8765207799999
 20
-2224.416330679
 30
0.0
 11
-650.7835286099999
 21
-2224.416330679
 31
0.0
  0
LINE
  5
714
330
A
100
AcDbEntity
  8
1
  6
SOLID
 62
     1
100
AcDbLine
 10
-626.056424847
 20
-2358.925151348
 30
0.0
 11
-626.056424847
 21
-2345.068745136
 31
0.0
  0
ARC
  5
715
330
A
100
AcDbEntity
  8
1
  6
SOLID
 62
     1
100
AcDbCircle
 10
-610.770961495
 20
-2351.996948242
 30
0.0
 40
15.285463353
100
AcDbArc
 50
162.412040055
 51
197.587959945
  0
LINE
  5
716
330
A
100
AcDbEntity
  8
1
  6
SOLID
 62
     1
100
AcDbLine
 10
-625.3418934249999
 20
-2347.378146172
 30
0.0
 11
-620.056424758
 21
-2347.378146172
 31
0.0
  0
ARC
  5
717
330
A
100
AcDbEntity
  8
1
  6
SOLID
 62
     1
100
AcDbCircle
 10
-621.967109726
 20
-2345.068745136
 30
0.0
 40
4.089315121
100
AcDbArc
 50
145.615740999
 51
214.384259001
  0
LINE
  5
718
330
A
100
AcDbEntity
  8
1
  6
SOLID
 62
     1
100
AcDbLine
 10
-620.056424758
 20
-2342.759344101
 30
0.0
 11
-625.3418934249999
 21
-2342.759344101
 31
0.0
  0
LINE
  5
719
330
A
100
AcDbEntity
  8
1
  6
SOLID
 62
     1
100
AcDbLine
 10
-619.656424752
 20
-2344.681948185
 30
0.0
 11
-620.056424758
 21
-2344.681948185
 31
0.0
  0
LINE
  5
71A
330
A
100
AcDbEntity
  8
1
  6
SOLID
 62
     1
100
AcDbLine
 10
-620.056424758
 20
-2361.234552383
 30
0.0
 11
-620.056424758
 21
-2342.759344101
 31
0.0
  0
LINE
  5
71B
330
A
100
AcDbEntity
  8
1
  6
SOLID
 62
     1
100
AcDbLine
 10
-625.3418934249999
 20
-2356.615750313
 30
0.0
 11
-620.056424758
 21
-2356.615750313
 31
0.0
  0
LINE
  5
71C
330
A
100
AcDbEntity
  8
1
  6
SOLID
 62
     1
100
AcDbLine
 10
-625.3418934249999
 20
-2361.234552383
 30
0.0
 11
-620.056424758
 21
-2361.234552383
 31
0.0
  0
LINE
  5
71D
330
A
100
AcDbEntity
  8
1
  6
SOLID
 62
     1
100
AcDbLine
 10
-620.056424758
 20
-2359.311948299
 30
0.0
 11
-619.656424752
 21
-2359.311948299
 31
0.0
  0
ARC
  5
71E
330
A
100
AcDbEntity
  8
1
  6
SOLID
 62
     1
100
AcDbCircle
 10
-621.967109726
 20
-2358.925151348
 30
0.0
 40
4.089315121
100
AcDbArc
 50
145.615740999
 51
214.384259001
  0
LINE
  5
71F
330
A
100
AcDbEntity
  8
1
  6
SOLID
 62
     7
100
AcDbLine
 10
-589.2562553699999
 20
-2298.497070313
 30
0.0
 11
-571.099265845
 21
-2298.497070313
 31
0.0
  0
LINE
  5
720
330
A
100
AcDbEntity
  8
1
  6
SOLID
 62
     7
100
AcDbLine
 10
-541.256423226
 20
-2433.496992594
 30
0.0
 11
-619.656424752
 21
-2433.496992594
 31
0.0
  0
LINE
  5
721
330
A
100
AcDbEntity
  8
1
  6
SOLID
 62
     1
100
AcDbLine
 10
-626.056478986
 20
-2388.068989277
 30
0.0
 11
-626.056478986
 21
-2401.925395489
 31
0.0
  0
ARC
  5
722
330
A
100
AcDbEntity
  8
1
  6
SOLID
 62
     1
100
AcDbCircle
 10
-610.771015634
 20
-2394.997192383
 30
0.0
 40
15.285463353
100
AcDbArc
 50
162.412040055
 51
197.587959945
  0
LINE
  5
723
330
A
100
AcDbEntity
  8
1
  6
SOLID
 62
     1
100
AcDbLine
 10
-625.3419475640001
 20
-2399.615994453
 30
0.0
 11
-620.0564788969999
 21
-2399.615994453
 31
0.0
  0
ARC
  5
724
330
A
100
AcDbEntity
  8
1
  6
SOLID
 62
     1
100
AcDbCircle
 10
-621.9671638649999
 20
-2401.925395489
 30
0.0
 40
4.089315121
100
AcDbArc
 50
145.615740999
 51
214.384259001
  0
LINE
  5
725
330
A
100
AcDbEntity
  8
1
  6
SOLID
 62
     1
100
AcDbLine
 10
-620.0564788969999
 20
-2404.234796524
 30
0.0
 11
-625.3419475640001
 21
-2404.234796524
 31
0.0
  0
ARC
  5
726
330
A
100
AcDbEntity
  8
1
  6
SOLID
 62
     1
100
AcDbCircle
 10
-621.9671638649999
 20
-2388.068989277
 30
0.0
 40
4.089315121
100
AcDbArc
 50
145.615740999
 51
214.384259001
  0
LINE
  5
727
330
A
100
AcDbEntity
  8
1
  6
SOLID
 62
     1
100
AcDbLine
 10
-625.3419475640001
 20
-2390.378390312
 30
0.0
 11
-620.0564788969999
 21
-2390.378390312
 31
0.0
  0
LINE
  5
728
330
A
100
AcDbEntity
  8
1
  6
SOLID
 62
     1
100
AcDbLine
 10
-625.3419475640001
 20
-2385.759588242
 30
0.0
 11
-620.0564788969999
 21
-2385.759588242
 31
0.0
  0
LINE
  5
729
330
A
100
AcDbEntity
  8
1
  6
SOLID
 62
     7
100
AcDbLine
 10
-523.256423226
 20
-2400.997070313
 30
0.0
 11
-541.256423226
 21
-2400.997070313
 31
0.0
  0
LINE
  5
72A
330
A
100
AcDbEntity
  8
1
  6
SOLID
 62
     7
100
AcDbLine
 10
-541.256423226
 20
-2433.496992594
 30
0.0
 11
-541.256423226
 21
-2275.997070313
 31
0.0
  0
LINE
  5
72B
330
A
100
AcDbEntity
  8
1
  6
SOLID
 62
     7
100
AcDbLine
 10
-619.656424752
 20
-2433.496992594
 30
0.0
 11
-619.656424752
 21
-2275.997070313
 31
0.0
  0
LINE
  5
72C
330
A
100
AcDbEntity
  8
1
  6
SOLID
 62
     1
100
AcDbLine
 10
-647.8765207799999
 20
-2327.577809946
 30
0.0
 11
-647.8765207799999
 21
-2317.416445171
 31
0.0
  0
LINE
  5
72D
330
A
100
AcDbEntity
  8
1
  6
SOLID
 62
     1
100
AcDbLine
 10
-651.1765209009999
 20
-2326.307639349
 30
0.0
 11
-651.1765209009999
 21
-2318.686615768
 31
0.0
  0
ARC
  5
72E
330
A
100
AcDbEntity
  8
1
  6
SOLID
 62
     1
100
AcDbCircle
 10
-642.769515874
 20
-2322.497127559
 30
0.0
 40
8.407005026
100
AcDbArc
 50
162.412040055
 51
197.587959945
  0
LINE
  5
72F
330
A
100
AcDbEntity
  8
1
  6
SOLID
 62
     1
100
AcDbLine
 10
-647.656520772
 20
-2318.47387744
 30
0.0
 11
-647.8765207799999
 21
-2318.47387744
 31
0.0
  0
LINE
  5
730
330
A
100
AcDbEntity
  8
1
  6
SOLID
 62
     1
100
AcDbLine
 10
-650.7835286099999
 20
-2319.956786365
 30
0.0
 11
-647.8765207799999
 21
-2319.956786365
 31
0.0
  0
LINE
  5
731
330
A
100
AcDbEntity
  8
1
  6
SOLID
 62
     1
100
AcDbLine
 10
-647.8765207799999
 20
-2317.416445171
 30
0.0
 11
-650.7835286099999
 21
-2317.416445171
 31
0.0
  0
ARC
  5
732
330
A
100
AcDbEntity
  8
1
  6
SOLID
 62
     1
100
AcDbCircle
 10
-648.9273975349999
 20
-2318.686615768
 30
0.0
 40
2.249123364999999
100
AcDbArc
 50
145.615740999
 51
214.384259001
  0
LINE
  5
733
330
A
100
AcDbEntity
  8
1
  6
SOLID
 62
     1
100
AcDbLine
 10
-647.8765207799999
 20
-2326.520377677
 30
0.0
 11
-647.656520772
 21
-2326.520377677
 31
0.0
  0
LINE
  5
734
330
A
100
AcDbEntity
  8
1
  6
SOLID
 62
     1
100
AcDbLine
 10
-650.7835286099999
 20
-2325.037468752
 30
0.0
 11
-647.8765207799999
 21
-2325.037468752
 31
0.0
  0
LINE
  5
735
330
A
100
AcDbEntity
  8
1
  6
SOLID
 62
     1
100
AcDbLine
 10
-650.7835286099999
 20
-2327.577809946
 30
0.0
 11
-647.8765207799999
 21
-2327.577809946
 31
0.0
  0
ARC
  5
736
330
A
100
AcDbEntity
  8
1
  6
SOLID
 62
     1
100
AcDbCircle
 10
-648.9273975349999
 20
-2326.307639349
 30
0.0
 40
2.249123364999999
100
AcDbArc
 50
145.615740999
 51
214.384259001
  0
LINE
  5
737
330
A
100
AcDbEntity
  8
1
  6
SOLID
 62
     7
100
AcDbLine
 10
-619.656424752
 20
-2313.497070313
 30
0.0
 11
-541.256423226
 21
-2313.497070313
 31
0.0
  0
LINE
  5
738
330
A
100
AcDbEntity
  8
1
  6
SOLID
 62
     7
100
AcDbLine
 10
-619.656424752
 20
-2433.496992594
 30
0.0
 11
-619.656424752
 21
-2275.997070313
 31
0.0
  0
ARC
  5
739
330
A
100
AcDbEntity
  8
1
  6
SOLID
 62
     7
100
AcDbCircle
 10
-621.156424752
 20
-2327.997127559
 30
0.0
 40
3.0
100
AcDbArc
 50
270.0
 51
300.0
  0
ARC
  5
73A
330
A
100
AcDbEntity
  8
1
  6
SOLID
 62
     7
100
AcDbCircle
 10
-646.156512114
 20
-2327.997070313
 30
0.0
 40
3.0
100
AcDbArc
 50
240.004002837
 51
270.0
  0
LINE
  5
73B
330
A
100
AcDbEntity
  8
1
  6
SOLID
 62
     7
100
AcDbLine
 10
-590.6563766859999
 20
-2312.497127559
 30
0.0
 11
-589.6563766859999
 21
-2311.497127559
 31
0.0
  0
LINE
  5
73C
330
A
100
AcDbEntity
  8
1
  6
SOLID
 62
     7
100
AcDbLine
 10
-621.156424752
 20
-2330.997127559
 30
0.0
 11
-646.156512114
 21
-2330.997127559
 31
0.0
  0
LINE
  5
73D
330
A
100
AcDbEntity
  8
1
  6
CENTER
 62
     2
100
AcDbLine
 10
-613.13746758
 20
-2322.497127559
 30
0.0
 11
-656.1765209009999
 21
-2322.497127559
 31
0.0
  0
LINE
  5
73E
330
A
100
AcDbEntity
  8
1
  6
SOLID
 62
     7
100
AcDbLine
 10
-590.6563766859999
 20
-2312.497127559
 30
0.0
 11
-619.656424752
 21
-2312.497127559
 31
0.0
  0
LINE
  5
73F
330
A
100
AcDbEntity
  8
1
  6
SOLID
 62
     7
100
AcDbLine
 10
-619.656424752
 20
-2330.59520377
 30
0.0
 11
-619.656424752
 21
-2312.497127559
 31
0.0
  0
LINE
  5
740
330
A
100
AcDbEntity
  8
1
  6
SOLID
 62
     7
100
AcDbLine
 10
-589.6563766859999
 20
-2275.997070313
 30
0.0
 11
-589.6563766859999
 21
-2311.497127559
 31
0.0
  0
LINE
  5
741
330
A
100
AcDbEntity
  8
1
  6
SOLID
 62
     7
100
AcDbLine
 10
-647.656521182
 20
-2330.595141288
 30
0.0
 11
-647.656330601
 21
-2275.997070313
 31
0.0
  0
LINE
  5
742
330
A
100
AcDbEntity
  8
1
  6
SOLID
 62
     7
100
AcDbLine
 10
-589.2562553699999
 20
-2285.997025336
 30
0.0
 11
-589.6563766859999
 21
-2285.997025336
 31
0.0
  0
LINE
  5
743
330
A
100
AcDbEntity
  8
1
  6
SOLID
 62
     7
100
AcDbLine
 10
-558.256423226
 20
-2289.263415285
 30
0.0
 11
-558.256423226
 21
-2262.73072534
 31
0.0
  0
ARC
  5
744
330
A
100
AcDbEntity
  8
1
  6
SOLID
 62
     7
100
AcDbCircle
 10
-646.156103909
 20
-1861.497070313
 30
0.0
 40
3.0
100
AcDbArc
 50
239.999769057
 51
270.0
  0
LINE
  5
745
330
A
100
AcDbEntity
  8
1
  6
SOLID
 62
     7
100
AcDbLine
 10
-523.2560875149999
 20
-1950.997070313
 30
0.0
 11
-541.2560875149999
 21
-1950.997070313
 31
0.0
  0
LINE
  5
746
330
A
100
AcDbEntity
  8
1
  6
SOLID
 62
     7
100
AcDbLine
 10
-541.2560875149999
 20
-1959.997025336
 30
0.0
 11
-541.2560875149999
 21
-1825.997070313
 31
0.0
  0
LINE
  5
747
330
A
100
AcDbEntity
  8
1
  6
SOLID
 62
     7
100
AcDbLine
 10
-560.656087133
 20
-1959.997070313
 30
0.0
 11
-560.656087133
 21
-1825.997070313
 31
0.0
  0
LINE
  5
748
330
A
100
AcDbEntity
  8
1
  6
SOLID
 62
     1
100
AcDbLine
 10
-626.0561432749999
 20
-1938.068989277
 30
0.0
 11
-626.0561432749999
 21
-1951.925395489
 31
0.0
  0
ARC
  5
749
330
A
100
AcDbEntity
  8
1
  6
SOLID
 62
     1
100
AcDbCircle
 10
-610.7706799219999
 20
-1944.997192383
 30
0.0
 40
15.285463353
100
AcDbArc
 50
162.412040055
 51
197.587959945
  0
LINE
  5
74A
330
A
100
AcDbEntity
  8
1
  6
SOLID
 62
     1
100
AcDbLine
 10
-625.341611853
 20
-1949.615994453
 30
0.0
 11
-620.0561431849999
 21
-1949.615994453
 31
0.0
  0
ARC
  5
74B
330
A
100
AcDbEntity
  8
1
  6
SOLID
 62
     1
100
AcDbCircle
 10
-621.966828154
 20
-1951.925395489
 30
0.0
 40
4.089315121
100
AcDbArc
 50
145.615740999
 51
214.384259001
  0
LINE
  5
74C
330
A
100
AcDbEntity
  8
1
  6
SOLID
 62
     1
100
AcDbLine
 10
-620.0561431849999
 20
-1954.234796524
 30
0.0
 11
-625.341611853
 21
-1954.234796524
 31
0.0
  0
ARC
  5
74D
330
A
100
AcDbEntity
  8
1
  6
SOLID
 62
     1
100
AcDbCircle
 10
-621.966828154
 20
-1938.068989277
 30
0.0
 40
4.089315121
100
AcDbArc
 50
145.615740999
 51
214.384259001
  0
LINE
  5
74E
330
A
100
AcDbEntity
  8
1
  6
SOLID
 62
     1
100
AcDbLine
 10
-625.341611853
 20
-1940.378390312
 30
0.0
 11
-620.0561431849999
 21
-1940.378390312
 31
0.0
  0
LINE
  5
74F
330
A
100
AcDbEntity
  8
1
  6
SOLID
 62
     1
100
AcDbLine
 10
-625.341611853
 20
-1935.759588242
 30
0.0
 11
-620.0561431849999
 21
-1935.759588242
 31
0.0
  0
LINE
  5
750
330
A
100
AcDbEntity
  8
1
  6
SOLID
 62
     7
100
AcDbLine
 10
-563.256224072
 20
-1959.997025336
 30
0.0
 11
-541.2560875149999
 21
-1959.997025336
 31
0.0
  0
LINE
  5
751
330
A
100
AcDbEntity
  8
1
  6
SOLID
 62
     7
100
AcDbLine
 10
-619.6560890409999
 20
-1959.997070313
 30
0.0
 11
-619.6560890409999
 21
-1825.997070313
 31
0.0
  0
LINE
  5
752
330
A
100
AcDbEntity
  8
1
  6
SOLID
 62
     7
100
AcDbLine
 10
-541.2560875149999
 20
-1959.997070313
 30
0.0
 11
-619.6560890409999
 21
-1959.997070313
 31
0.0
  0
ARC
  5
753
330
A
100
AcDbEntity
  8
1
  6
SOLID
 62
     7
100
AcDbCircle
 10
-621.1560995130001
 20
-1861.497070313
 30
0.0
 40
3.0
100
AcDbArc
 50
270.0
 51
300.000230943
  0
LINE
  5
754
330
A
100
AcDbEntity
  8
1
  6
SOLID
 62
     7
100
AcDbLine
 10
-560.656087133
 20
-2304.486381026
 30
0.0
 11
-560.656087133
 21
-2433.496992594
 31
0.0
  0
DIMENSION
  5
764
330
A
100
AcDbEntity
  8
1
  6
SOLID
 62
     3
100
AcDbDimension
  2
*D22
 10
-677.345092773
 20
-2005.997070313
 30
0.0
 11
-682.845092773
 21
-1928.920410156
 31
0.0
 71
     5
 42
0.0
  3
19
100
AcDbAlignedDimension
 13
-656.076049805
 23
-1825.997070313
 33
0.0
 14
-518.25604248
 24
-2005.997070313
 34
0.0
 50
90.0
100
AcDbRotatedDimension
  0
ENDSEC
  0
SECTION
  2
OBJECTS
  0
DICTIONARY
  5
19
330
0
100
AcDbDictionary
281
     1
  3
ACAD_COLOR
350
77D
  3
ACAD_GROUP
350
1A
  3
ACAD_LAYOUT
350
1E
  3
ACAD_MATERIAL
350
768
  3
ACAD_MLINESTYLE
350
1B
  3
ACAD_PLOTSETTINGS
350
22
  3
ACAD_PLOTSTYLENAME
350
1F
  3
ACAD_TABLESTYLE
350
77E
  3
ACAD_VISUALSTYLE
350
76C
  3
AcDbVariableDictionary
350
781
  0
DICTIONARY
  5
77D
102
{ACAD_REACTORS
330
19
102
}
330
19
100
AcDbDictionary
281
     1
  0
DICTIONARY
  5
1A
102
{ACAD_REACTORS
330
19
102
}
330
19
100
AcDbDictionary
281
     1
  0
DICTIONARY
  5
1E
102
{ACAD_REACTORS
330
19
102
}
330
19
100
AcDbDictionary
281
     1
  3
Layout1
350
21
  3
Model
350
20
  0
DICTIONARY
  5
768
102
{ACAD_REACTORS
330
19
102
}
330
19
100
AcDbDictionary
281
     1
  3
ByBlock
350
76A
  3
ByLayer
350
769
  3
Global
350
76B
  0
DICTIONARY
  5
1B
102
{ACAD_REACTORS
330
19
102
}
330
19
100
AcDbDictionary
281
     1
  3
Standard
350
1C
  0
DICTIONARY
  5
22
102
{ACAD_REACTORS
330
19
102
}
330
19
100
AcDbDictionary
281
     1
  0
ACDBDICTIONARYWDFLT
  5
1F
102
{ACAD_REACTORS
330
19
102
}
330
19
100
AcDbDictionary
281
     1
  3
Normal
350
1D
100
AcDbDictionaryWithDefault
340
1D
  0
DICTIONARY
  5
77E
102
{ACAD_REACTORS
330
19
102
}
330
19
100
AcDbDictionary
281
     1
  3
Standard
350
77F
  0
DICTIONARY
  5
76C
102
{ACAD_REACTORS
330
19
102
}
330
19
100
AcDbDictionary
281
     1
  3
2dWireframe
350
772
  3
3D Hidden
350
774
  3
3dWireframe
350
773
  3
Basic
350
771
  3
Brighten
350
778
  3
ColorChange
350
77C
  3
Conceptual
350
775
  3
Dim
350
777
  3
Facepattern
350
77B
  3
Flat
350
76D
  3
FlatWithEdges
350
76E
  3
Gouraud
350
76F
  3
GouraudWithEdges
350
770
  3
Linepattern
350
77A
  3
Realistic
350
776
  3
Thicken
350
779
  0
DICTIONARY
  5
781
102
{ACAD_REACTORS
330
19
102
}
330
19
100
AcDbDictionary
281
     1
  3
CTABLESTYLE
350
782
  0
LAYOUT
  5
21
102
{ACAD_REACTORS
330
1E
102
}
330
1E
100
AcDbPlotSettings
  1

  2

  4

  6

 40
0.0
 41
0.0
 42
0.0
 43
0.0
 44
0.0
 45
0.0
 46
0.0
 47
0.0
 48
0.0
 49
0.0
140
0.0
141
0.0
142
1.0
143
1.0
 70
     0
 72
     0
 73
     0
 74
     0
  7

 75
     0
147
1.0
 76
     0
 77
     2
 78
   300
148
0.0
149
0.0
100
AcDbLayout
  1
Layout1
 70
     0
 71
     1
 10
0.0
 20
0.0
 11
12.0
 21
9.0
 12
0.0
 22
0.0
 32
0.0
 14
1.000000000000000E+20
 24
1.000000000000000E+20
 34
1.000000000000000E+20
 15
-1.000000000000000E+20
 25
-1.000000000000000E+20
 35
-1.000000000000000E+20
146
0.0
 13
0.0
 23
0.0
 33
0.0
 16
1.0
 26
0.0
 36
0.0
 17
0.0
 27
1.0
 37
0.0
 76
     0
330
B
  0
LAYOUT
  5
20
102
{ACAD_REACTORS
330
1E
102
}
330
1E
100
AcDbPlotSettings
  1

  2

  4

  6

 40
0.0
 41
0.0
 42
0.0
 43
0.0
 44
0.0
 45
0.0
 46
0.0
 47
0.0
 48
0.0
 49
0.0
140
0.0
141
0.0
142
1.0
143
1.0
 70
  1024
 72
     0
 73
     0
 74
     0
  7

 75
     0
147
1.0
 76
     0
 77
     2
 78
   300
148
0.0
149
0.0
100
AcDbLayout
  1
Model
 70
     0
 71
     0
 10
0.0
 20
0.0
 11
0.0
 21
0.0
 12
0.0
 22
0.0
 32
0.0
 14
0.0
 24
0.0
 34
0.0
 15
0.0
 25
0.0
 35
0.0
146
0.0
 13
0.0
 23
0.0
 33
0.0
 16
0.0
 26
0.0
 36
0.0
 17
0.0
 27
0.0
 37
0.0
 76
     0
330
A
331
15
  0
MATERIAL
  5
76A
102
{ACAD_XDICTIONARY
360
785
102
}
102
{ACAD_REACTORS
330
768
102
}
330
768
100
AcDbMaterial
  1
ByBlock
  0
MATERIAL
  5
769
102
{ACAD_XDICTIONARY
360
783
102
}
102
{ACAD_REACTORS
330
768
102
}
330
768
100
AcDbMaterial
  1
ByLayer
  0
MATERIAL
  5
76B
102
{ACAD_XDICTIONARY
360
787
102
}
102
{ACAD_REACTORS
330
768
102
}
330
768
100
AcDbMaterial
  1
Global
  0
MLINESTYLE
  5
1C
102
{ACAD_REACTORS
330
1B
102
}
330
1B
100
AcDbMlineStyle
  2
STANDARD
 70
     0
  3

 62
     0
 51
90.0
 52
90.0
 71
     2
 49
0.5
 62
   256
  6
BYLAYER
 49
-0.5
 62
   256
  6
BYLAYER
  0
ACDBPLACEHOLDER
  5
1D
102
{ACAD_REACTORS
330
1F
102
}
330
1F
  0
TABLESTYLE
  5
77F
102
{ACAD_XDICTIONARY
360
789
102
}
102
{ACAD_REACTORS
330
77E
102
}
330
77E
100
AcDbTableStyle
  3
Standard
 70
     0
 71
     0
 40
1.5
 41
1.5
280
     0
281
     0
  7
Standard
140
4.5
170
     2
 62
     0
 63
     7
283
     0
274
    -2
284
     1
 64
     0
275
    -2
285
     1
 65
     0
276
    -2
286
     1
 66
     0
277
    -2
287
     1
 67
     0
278
    -2
288
     1
 68
     0
279
    -2
289
     1
 69
     0
  7
Standard
140
6.0
170
     5
 62
     0
 63
     7
283
     0
274
    -2
284
     1
 64
     0
275
    -2
285
     1
 65
     0
276
    -2
286
     1
 66
     0
277
    -2
287
     1
 67
     0
278
    -2
288
     1
 68
     0
279
    -2
289
     1
 69
     0
  7
Standard
140
4.5
170
     5
 62
     0
 63
     7
283
     0
274
    -2
284
     1
 64
     0
275
    -2
285
     1
 65
     0
276
    -2
286
     1
 66
     0
277
    -2
287
     1
 67
     0
278
    -2
288
     1
 68
     0
279
    -2
289
     1
 69
     0
  0
VISUALSTYLE
  5
772
102
{ACAD_REACTORS
330
76C
102
}
330
76C
100
AcDbVisualStyle
  2
2dWireframe
 70
     4
 71
     0
 72
     2
 73
     0
 90
        0
 40
-0.6
 41
-30.0
 62
     5
 63
     7
421
 16777215
 74
     1
 91
        4
 64
     7
 65
   257
 75
     1
175
     1
 42
1.0
 92
        0
 66
   257
 43
1.0
 76
     1
 77
     6
 78
     2
 67
     7
 79
     5
170
     0
171
     0
290
     0
174
     0
 93
        1
 44
0.0
173
     0
291
     0
 45
0.0
1001
ACAD
1000
AcDbSavedByObjectVersion
1070
     0
  0
VISUALSTYLE
  5
774
102
{ACAD_REACTORS
330
76C
102
}
330
76C
100
AcDbVisualStyle
  2
3D Hidden
 70
     6
 71
     1
 72
     2
 73
     2
 90
        0
 40
-0.6
 41
-30.0
 62
     5
 63
     7
421
 16777215
 74
     2
 91
        2
 64
     7
 65
   257
 75
     2
175
     1
 42
40.0
 92
        0
 66
   257
 43
1.0
 76
     1
 77
     6
 78
     2
 67
     7
 79
     3
170
     0
171
     0
290
     0
174
     0
 93
        1
 44
0.0
173
     0
291
     0
 45
0.0
1001
ACAD
1000
AcDbSavedByObjectVersion
1070
     0
  0
VISUALSTYLE
  5
773
102
{ACAD_REACTORS
330
76C
102
}
330
76C
100
AcDbVisualStyle
  2
3dWireframe
 70
     5
 71
     0
 72
     2
 73
     0
 90
        0
 40
-0.6
 41
-30.0
 62
     5
 63
     7
421
 16777215
 74
     1
 91
        4
 64
     7
 65
   257
 75
     1
175
     1
 42
1.0
 92
        0
 66
   257
 43
1.0
 76
     1
 77
     6
 78
     2
 67
     7
 79
     5
170
     0
171
     0
290
     0
174
     0
 93
        1
 44
0.0
173
     0
291
     0
 45
0.0
1001
ACAD
1000
AcDbSavedByObjectVersion
1070
     0
  0
VISUALSTYLE
  5
771
102
{ACAD_REACTORS
330
76C
102
}
330
76C
100
AcDbVisualStyle
  2
Basic
 70
     7
 71
     1
 72
     0
 73
     1
 90
        0
 40
-0.6
 41
-30.0
 62
     5
 63
     7
421
 16777215
 74
     0
 91
        4
 64
     7
 65
   257
 75
     1
175
     1
 42
1.0
 92
        8
 66
     7
 43
1.0
 76
     1
 77
     6
 78
     2
 67
     7
 79
     5
170
     0
171
     0
290
     0
174
     0
 93
        1
 44
0.0
173
     0
291
     1
 45
0.0
1001
ACAD
1000
AcDbSavedByObjectVersion
1070
     0
  0
VISUALSTYLE
  5
778
102
{ACAD_REACTORS
330
76C
102
}
330
76C
100
AcDbVisualStyle
  2
Brighten
 70
    12
 71
     2
 72
     2
 73
     0
 90
        0
 40
-0.6
 41
-30.0
 62
     5
 63
     7
421
 16777215
 74
     1
 91
        4
 64
     7
 65
   257
 75
     1
175
     1
 42
1.0
 92
        8
 66
     7
 43
1.0
 76
     1
 77
     6
 78
     2
 67
     7
 79
     5
170
     0
171
     0
290
     0
174
     0
 93
        1
 44
50.0
173
     0
291
     1
 45
0.0
1001
ACAD
1000
AcDbSavedByObjectVersion
1070
     0
  0
VISUALSTYLE
  5
77C
102
{ACAD_REACTORS
330
76C
102
}
330
76C
100
AcDbVisualStyle
  2
ColorChange
 70
    16
 71
     2
 72
     2
 73
     3
 90
        0
 40
-0.6
 41
-30.0
 62
     5
 63
     8
421
  8421504
 74
     1
 91
        4
 64
     7
 65
   257
 75
     1
175
     1
 42
1.0
 92
        8
 66
     8
424
  8421504
 43
1.0
 76
     1
 77
     6
 78
     2
 67
     7
 79
     5
170
     0
171
     0
290
     0
174
     0
 93
        1
 44
0.0
173
     0
291
     1
 45
0.0
1001
ACAD
1000
AcDbSavedByObjectVersion
1070
     0
  0
VISUALSTYLE
  5
775
102
{ACAD_REACTORS
330
76C
102
}
330
76C
100
AcDbVisualStyle
  2
Conceptual
 70
     9
 71
     3
 72
     2
 73
     0
 90
        0
 40
-0.6
 41
-30.0
 62
     5
 63
     7
421
 16777215
 74
     2
 91
        2
 64
     7
 65
   257
 75
     1
175
     1
 42
40.0
 92
        8
 66
     7
 43
1.0
 76
     1
 77
     6
 78
     2
 67
     7
 79
     3
170
     0
171
     0
290
     0
174
     0
 93
        1
 44
0.0
173
     0
291
     0
 45
0.0
1001
ACAD
1000
AcDbSavedByObjectVersion
1070
     0
  0
VISUALSTYLE
  5
777
102
{ACAD_REACTORS
330
76C
102
}
330
76C
100
AcDbVisualStyle
  2
Dim
 70
    11
 71
     2
 72
     2
 73
     0
 90
        0
 40
-0.6
 41
-30.0
 62
     5
 63
     7
421
 16777215
 74
     1
 91
        4
 64
     7
 65
   257
 75
     1
175
     1
 42
1.0
 92
        8
 66
     7
 43
1.0
 76
     1
 77
     6
 78
     2
 67
     7
 79
     5
170
     0
171
     0
290
     0
174
     0
 93
        1
 44
-50.0
173
     0
291
     1
 45
0.0
1001
ACAD
1000
AcDbSavedByObjectVersion
1070
     0
  0
VISUALSTYLE
  5
77B
102
{ACAD_REACTORS
330
76C
102
}
330
76C
100
AcDbVisualStyle
  2
Facepattern
 70
    15
 71
     2
 72
     2
 73
     0
 90
        0
 40
-0.6
 41
-30.0
 62
     5
 63
     7
421
 16777215
 74
     1
 91
        4
 64
     7
 65
   257
 75
     1
175
     1
 42
1.0
 92
        8
 66
     7
 43
1.0
 76
     1
 77
     6
 78
     2
 67
     7
 79
     5
170
     0
171
     0
290
     0
174
     0
 93
        1
 44
0.0
173
     0
291
     1
 45
0.0
1001
ACAD
1000
AcDbSavedByObjectVersion
1070
     0
  0
VISUALSTYLE
  5
76D
102
{ACAD_REACTORS
330
76C
102
}
330
76C
100
AcDbVisualStyle
  2
Flat
 70
     0
 71
     2
 72
     1
 73
     1
 90
        2
 40
-0.6
 41
30.0
 62
     5
 63
     7
421
 16777215
 74
     0
 91
        4
 64
     7
 65
   257
 75
     1
175
     1
 42
1.0
 92
        8
 66
     7
 43
1.0
 76
     1
 77
     6
 78
     2
 67
     7
 79
     5
170
     0
171
     0
290
     0
174
     0
 93
       13
 44
0.0
173
     0
291
     1
 45
0.0
1001
ACAD
1000
AcDbSavedByObjectVersion
1070
     0
  0
VISUALSTYLE
  5
76E
102
{ACAD_REACTORS
330
76C
102
}
330
76C
100
AcDbVisualStyle
  2
FlatWithEdges
 70
     1
 71
     2
 72
     1
 73
     1
 90
        2
 40
-0.6
 41
30.0
 62
     5
 63
     7
421
 16777215
 74
     1
 91
        4
 64
     7
 65
   257
 75
     1
175
     1
 42
1.0
 92
        0
 66
   257
 43
1.0
 76
     1
 77
     6
 78
     2
 67
     7
 79
     5
170
     0
171
     0
290
     0
174
     0
 93
       13
 44
0.0
173
     0
291
     1
 45
0.0
1001
ACAD
1000
AcDbSavedByObjectVersion
1070
     0
  0
VISUALSTYLE
  5
76F
102
{ACAD_REACTORS
330
76C
102
}
330
76C
100
AcDbVisualStyle
  2
Gouraud
 70
     2
 71
     2
 72
     2
 73
     1
 90
        2
 40
-0.6
 41
30.0
 62
     5
 63
     7
421
 16777215
 74
     0
 91
        4
 64
     7
 65
   257
 75
     1
175
     1
 42
1.0
 92
        0
 66
     7
 43
1.0
 76
     1
 77
     6
 78
     2
 67
     7
 79
     5
170
     0
171
     0
290
     0
174
     0
 93
       13
 44
0.0
173
     0
291
     1
 45
0.0
1001
ACAD
1000
AcDbSavedByObjectVersion
1070
     0
  0
VISUALSTYLE
  5
770
102
{ACAD_REACTORS
330
76C
102
}
330
76C
100
AcDbVisualStyle
  2
GouraudWithEdges
 70
     3
 71
     2
 72
     2
 73
     1
 90
        2
 40
-0.6
 41
30.0
 62
     5
 63
     7
421
 16777215
 74
     1
 91
        4
 64
     7
 65
   257
 75
     1
175
     1
 42
1.0
 92
        0
 66
   257
 43
1.0
 76
     1
 77
     6
 78
     2
 67
     7
 79
     5
170
     0
171
     0
290
     0
174
     0
 93
       13
 44
0.0
173
     0
291
     1
 45
0.0
1001
ACAD
1000
AcDbSavedByObjectVersion
1070
     0
  0
VISUALSTYLE
  5
77A
102
{ACAD_REACTORS
330
76C
102
}
330
76C
100
AcDbVisualStyle
  2
Linepattern
 70
    14
 71
     2
 72
     2
 73
     0
 90
        0
 40
-0.6
 41
-30.0
 62
     5
 63
     7
421
 16777215
 74
     1
 91
        4
 64
     7
 65
   257
 75
     7
175
     7
 42
1.0
 92
        8
 66
     7
 43
1.0
 76
     1
 77
     6
 78
     2
 67
     7
 79
     5
170
     0
171
     0
290
     0
174
     0
 93
        1
 44
0.0
173
     0
291
     1
 45
0.0
1001
ACAD
1000
AcDbSavedByObjectVersion
1070
     0
  0
VISUALSTYLE
  5
776
102
{ACAD_REACTORS
330
76C
102
}
330
76C
100
AcDbVisualStyle
  2
Realistic
 70
     8
 71
     2
 72
     2
 73
     0
 90
        0
 40
-0.6
 41
-30.0
 62
     5
 63
     7
421
 16777215
 74
     1
 91
        0
 64
     7
 65
   257
 75
     1
175
     1
 42
1.0
 92
        8
 66
     8
424
  7895160
 43
1.0
 76
     1
 77
     6
 78
     2
 67
     7
 79
     5
170
     0
171
     0
290
     0
174
     0
 93
       13
 44
0.0
173
     0
291
     0
 45
0.0
1001
ACAD
1000
AcDbSavedByObjectVersion
1070
     0
  0
VISUALSTYLE
  5
779
102
{ACAD_REACTORS
330
76C
102
}
330
76C
100
AcDbVisualStyle
  2
Thicken
 70
    13
 71
     2
 72
     2
 73
     0
 90
        0
 40
-0.6
 41
-30.0
 62
     5
 63
     7
421
 16777215
 74
     1
 91
        4
 64
     7
 65
   257
 75
     1
175
     1
 42
1.0
 92
       12
 66
     7
 43
1.0
 76
     1
 77
     6
 78
     2
 67
     7
 79
     5
170
     0
171
     0
290
     0
174
     0
 93
        1
 44
0.0
173
     0
291
     1
 45
0.0
1001
ACAD
1000
AcDbSavedByObjectVersion
1070
     0
  0
DICTIONARYVAR
  5
782
102
{ACAD_REACTORS
330
781
102
}
330
781
100
DictionaryVariables
280
     0
  1
STANDARD
  0
DICTIONARY
  5
785
330
76A
100
AcDbDictionary
280
     1
281
     1
  3
ACAD_XREC_ROUNDTRIP
360
786
  0
DICTIONARY
  5
783
330
769
100
AcDbDictionary
280
     1
281
     1
  3
ACAD_XREC_ROUNDTRIP
360
784
  0
DICTIONARY
  5
787
330
76B
100
AcDbDictionary
280
     1
281
     1
  3
ACAD_XREC_ROUNDTRIP
360
788
  0
DICTIONARY
  5
789
330
77F
100
AcDbDictionary
280
     1
281
     1
  3
ACAD_XREC_ROUNDTRIP
360
78A
  0
XRECORD
  5
786
102
{ACAD_REACTORS
330
785
102
}
330
785
100
AcDbXrecord
280
     1
102
MATERIAL
148
0.0
149
0.0
149
0.0
 93
        0
 94
       63
282
     0
 72
     1
 77
     1
171
     1
175
     1
179
     1
273
     0
  0
XRECORD
  5
784
102
{ACAD_REACTORS
330
783
102
}
330
783
100
AcDbXrecord
280
     1
102
MATERIAL
148
0.0
149
0.0
149
0.0
 93
        0
 94
       63
282
     0
 72
     1
 77
     1
171
     1
175
     1
179
     1
273
     0
  0
XRECORD
  5
788
102
{ACAD_REACTORS
330
787
102
}
330
787
100
AcDbXrecord
280
     1
102
MATERIAL
148
0.0
149
0.0
149
0.0
 93
        0
 94
       63
282
     0
 72
     1
 77
     1
171
     1
175
     1
179
     1
273
     0
  0
XRECORD
  5
78A
102
{ACAD_REACTORS
330
789
102
}
330
789
100
AcDbXrecord
280
     1
102
ACAD_ROUNDTRIP_PRE2007_TABLESTYLE
 90
      512
 91
        0
  1

 92
      512
 93
        0
  2

 94
      512
 95
        0
  3

  0
ENDSEC
  0
EOF
