  0
SECTION
  2
HEADER
  9
$ACADVER
  1
AC1015
  9
$ACADMAINTVER
 70
        6
  9
$DWGCODEPAGE
  3
ANSI_1252
  9
$INSBASE
 10
0.0
 20
0.0
 30
0.0
  9
$EXTMIN
 10
1.000000000E+20
 20
1.000000000E+20
 30
1.000000000E+20
  9
$EXTMAX
 10
-1.000000000E+20
 20
-1.000000000E+20
 30
-1.000000000E+20
  9
$LIMMIN
 10
0.0
 20
0.0
  9
$LIMMAX
 10
0.0
 20
0.0
  9
$ORTHOMODE
 70
        0
  9
$REGENMODE
 70
        1
  9
$FILLMODE
 70
        1
  9
$QTEXTMODE
 70
        0
  9
$MIRRTEXT
 70
        1
  9
$LTSCALE
 40
1.0
  9
$ATTMODE
 70
        1
  9
$TEXTSIZE
 40
0.2
  9
$TRACEWID
 40
0.05
  9
$TEXTSTYLE
  7
Standard
  9
$CLAYER
  8
AUGSL1
  9
$CELTYPE
  6
Continuous
  9
$CECOLOR
 62
      256
  9
$CELTSCALE
 40
1.0
  9
$DISPSILH
 70
        0
  9
$DIMSCALE
 40
1.0
  9
$DIMASZ
 40
11.0
  9
$DIMEXO
 40
4.0
  9
$DIMDLI
 40
0.38
  9
$DIMRND
 40
0.0
  9
$DIMDLE
 40
0.0
  9
$DIMEXE
 40
4.0
  9
$DIMTP
 40
0.0
  9
$DIMTM
 40
0.0
  9
$DIMTXT
 40
11.0
  9
$DIMCEN
 40
0.09
  9
$DIMTSZ
 40
0.0
  9
$DIMTOL
 70
        0
  9
$DIMLIM
 70
        0
  9
$DIMTIH
 70
        0
  9
$DIMTOH
 70
        0
  9
$DIMSE1
 70
        0
  9
$DIMSE2
 70
        0
  9
$DIMTAD
 70
        1
  9
$DIMZIN
 70
        0
  9
$DIMBLK
  1

  9
$DIMASO
 70
        1
  9
$DIMSHO
 70
        1
  9
$DIMPOST
  1

  9
$DIMAPOST
  1

  9
$DIMALT
 70
        0
  9
$DIMALTD
 70
        2
  9
$DIMALTF
 40
25.4
  9
$DIMLFAC
 40
1.0
  9
$DIMTOFL
 70
        1
  9
$DIMTVP
 40
0.0
  9
$DIMTIX
 70
        0
  9
$DIMSOXD
 70
        0
  9
$DIMSAH
 70
        0
  9
$DIMBLK1
  1

  9
$DIMBLK2
  1

  9
$DIMSTYLE
  2
Standard
  9
$DIMCLRD
 70
        7
  9
$DIMCLRE
 70
        7
  9
$DIMCLRT
 70
       50
  9
$DIMTFAC
 40
1.0
  9
$DIMGAP
 40
0.09
  9
$DIMJUST
 70
        0
  9
$DIMSD1
 70
        0
  9
$DIMSD2
 70
        0
  9
$DIMTOLJ
 70
        1
  9
$DIMTZIN
 70
        0
  9
$DIMALTZ
 70
        0
  9
$DIMALTTZ
 70
        0
  9
$DIMUPT
 70
        0
  9
$DIMDEC
 70
        0
  9
$DIMTDEC
 70
        4
  9
$DIMALTU
 70
        2
  9
$DIMALTTD
 70
        2
  9
$DIMTXSTY
  7
Standard
  9
$DIMAUNIT
 70
        0
  9
$DIMADEC
 70
        0
  9
$DIMALTRND
 40
0.0
  9
$DIMAZIN
 70
        0
  9
$DIMDSEP
 70
        0
  9
$DIMATFIT
 70
        1
  9
$DIMFRAC
 70
        0
  9
$DIMLDRBLK
  1

  9
$DIMLUNIT
 70
        2
  9
$DIMLWD
 70
        0
  9
$DIMLWE
 70
        0
  9
$DIMTMOVE
 70
        0
  9
$LUNITS
 70
        2
  9
$LUPREC
 70
        0
  9
$SKETCHINC
 40
0.1
  9
$FILLETRAD
 40
0.0
  9
$AUNITS
 70
        0
  9
$AUPREC
 70
        2
  9
$MENU
  1
acad
  9
$ELEVATION
 40
0.0
  9
$PELEVATION
 40
0.0
  9
$THICKNESS
 40
0.0
  9
$LIMCHECK
 70
        0
  9
$CHAMFERA
 40
0.0
  9
$CHAMFERB
 40
0.0
  9
$CHAMFERC
 40
0.0
  9
$CHAMFERD
 40
0.0
  9
$SKPOLY
 70
        0
  9
$TDCREATE
 40
0.000000000
  9
$TDUCREATE
 40
0.000000000
  9
$TDUPDATE
 40
0.000000000
  9
$TDUUPDATE
 40
0.000000000
  9
$TDINDWG
 40
0.0000000000
  9
$TDUSRTIMER
 40
0.0000000000
  9
$USRTIMER
 70
        1
  9
$ANGBASE
 50
0.0
  9
$ANGDIR
 70
        0
  9
$PDMODE
 70
        2
  9
$PDSIZE
 40
-1.0
  9
$PLINEWID
 40
0.0
  9
$SPLFRAME
 70
        0
  9
$SPLINETYPE
 70
        6
  9
$SPLINESEGS
 70
        8
  9
$HANDSEED
  5
57D
  9
$SURFTAB1
 70
        6
  9
$SURFTAB2
 70
        6
  9
$SURFTYPE
 70
        6
  9
$SURFU
 70
        6
  9
$SURFV
 70
        6
  9
$UCSBASE
  2

  9
$UCSNAME
  2

  9
$UCSORG
 10
0.0
 20
0.0
 30
0.0
  9
$UCSXDIR
 10
1.0
 20
0.0
 30
0.0
  9
$UCSYDIR
 10
0.0
 20
1.0
 30
0.0
  9
$UCSORTHOREF
  2

  9
$UCSORTHOVIEW
 70
        0
  9
$UCSORGTOP
 10
0.0
 20
0.0
 30
0.0
  9
$UCSORGBOTTOM
 10
0.0
 20
0.0
 30
0.0
  9
$UCSORGLEFT
 10
0.0
 20
0.0
 30
0.0
  9
$UCSORGRIGHT
 10
0.0
 20
0.0
 30
0.0
  9
$UCSORGFRONT
 10
0.0
 20
0.0
 30
0.0
  9
$UCSORGBACK
 10
0.0
 20
0.0
 30
0.0
  9
$PUCSBASE
  2

  9
$PUCSNAME
  2

  9
$PUCSORG
 10
0.0
 20
0.0
 30
0.0
  9
$PUCSXDIR
 10
1.0
 20
0.0
 30
0.0
  9
$PUCSYDIR
 10
0.0
 20
1.0
 30
0.0
  9
$PUCSORTHOREF
  2

  9
$PUCSORTHOVIEW
 70
        0
  9
$PUCSORGTOP
 10
0.0
 20
0.0
 30
0.0
  9
$PUCSORGBOTTOM
 10
0.0
 20
0.0
 30
0.0
  9
$PUCSORGLEFT
 10
0.0
 20
0.0
 30
0.0
  9
$PUCSORGRIGHT
 10
0.0
 20
0.0
 30
0.0
  9
$PUCSORGFRONT
 10
0.0
 20
0.0
 30
0.0
  9
$PUCSORGBACK
 10
0.0
 20
0.0
 30
0.0
  9
$USERI1
 70
        0
  9
$USERI2
 70
        0
  9
$USERI3
 70
        0
  9
$USERI4
 70
        0
  9
$USERI5
 70
        0
  9
$USERR1
 40
0.0
  9
$USERR2
 40
0.0
  9
$USERR3
 40
0.0
  9
$USERR4
 40
0.0
  9
$USERR5
 40
0.0
  9
$WORLDVIEW
 70
        1
  9
$SHADEDGE
 70
        3
  9
$SHADEDIF
 70
       70
  9
$TILEMODE
 70
        1
  9
$MAXACTVP
 70
       16
  9
$PINSBASE
 10
0.0
 20
0.0
 30
0.0
  9
$PLIMCHECK
 70
        0
  9
$PEXTMIN
 10
1.000000000E+20
 20
1.000000000E+20
 30
1.000000000E+20
  9
$PEXTMAX
 10
-1.000000000E+20
 20
-1.000000000E+20
 30
-1.000000000E+20
  9
$PLIMMIN
 10
0.0
 20
0.0
  9
$PLIMMAX
 10
12.0
 20
9.0
  9
$UNITMODE
 70
        0
  9
$VISRETAIN
 70
        0
  9
$PLINEGEN
 70
        1
  9
$PSLTSCALE
 70
        0
  9
$TREEDEPTH
 70
     3020
  9
$CMLSTYLE
  2
Standard
  9
$CMLJUST
 70
        0
  9
$CMLSCALE
 40
1.0
  9
$PROXYGRAPHICS
 70
        0
  9
$MEASUREMENT
 70
        1
  9
$CELWEIGHT
370
        0
  9
$ENDCAPS
280
        0
  9
$JOINSTYLE
280
        0
  9
$LWDISPLAY
290
        0
  9
$INSUNITS
 70
        0
  9
$HYPERLINKBASE
  1

  9
$XEDIT
290
        1
  9
$CEPSNTYPE
380
        0
  9
$PSTYLEMODE
290
        1
  9
$FINGERPRINTGUID
  2

  9
$VERSIONGUID
  2

  9
$EXTNAMES
290
        1
  9
$PSVPSCALE
 40
0.0
  0
ENDSEC
  0
SECTION
  2
CLASSES
  0
CLASS
  1
LWPOLYLINE
  2
AcDbPolyline
  3
AutoCAD 2000
 90
    32768
280
        0
281
        1
  0
CLASS
  1
IMAGE
  2
AcDbRasterImage
  3
ISM
 90
    32895
280
        0
281
        1
  0
CLASS
  1
OLE2FRAME
  2
AcDbOle2Frame
  3
AutoCAD 2000
 90
    32768
280
        0
281
        1
  0
CLASS
  1
HATCH
  2
AcDbHatch
  3
AutoCAD 2000
 90
    32768
280
        0
281
        1
  0
CLASS
  1
DICTIONARYVAR
  2
AcDbDictionaryVar
  3
AutoCAD 2000
 90
    32768
280
        0
281
        0
  0
CLASS
  1
RASTERVARIABLES
  2
AcDbRasterVariables
  3
ISM
 90
    32768
280
        0
281
        0
  0
CLASS
  1
IMAGEDEF
  2
AcDbRasterImageDef
  3
ISM
 90
    32768
280
        0
281
        0
  0
CLASS
  1
IMAGEDEF_REACTOR
  2
AcDbRasterImageDefReactor
  3
ISM
 90
    32769
280
        0
281
        0
  0
CLASS
  1
IDBUFFER
  2
AcDbIdBuffer
  3
AutoCAD 2000
 90
    32768
280
        0
281
        0
  0
CLASS
  1
SPATIAL_FILTER
  2
AcDbSpatialFilter
  3
AutoCAD 2000
 90
    32768
280
        0
281
        0
  0
CLASS
  1
XRECORD
  2
AcDbXrecord
  3
AutoCAD 2000
 90
    32768
280
        0
281
        0
  0
CLASS
  1
SORTENTSTABLE
  2
AcDbSortentsTable
  3
AutoCAD 2000
 90
    32768
280
        0
281
        0
  0
CLASS
  1
LAYER_INDEX
  2
AcDbLayerIndex
  3
AutoCAD 2000
 90
    32768
280
        0
281
        0
  0
CLASS
  1
SPATIAL_INDEX
  2
AcDbSpatialIndex
  3
AutoCAD 2000
 90
    32768
280
        0
281
        0
  0
CLASS
  1
OBJECT_PTR
  2
CAseDLPNTableRecord
  3
"ASE-LPNTableRecord"
 90
    32769
280
        0
281
        0
  0
CLASS
  1
LAYOUT
  2
AcDbLayout
  3
AutoCAD 2000
 90
        0
280
        0
281
        0
  0
CLASS
  1
PLOTSETTINGS
  2
AcDbPlotSettings
  3
AutoCAD 2000
 90
    32768
280
        0
281
        0
  0
CLASS
  1
ACDBDICTIONARYWDFLT
  2
AcDbDictionaryWithDefault
  3
AutoCAD 2000
 90
        0
280
        0
281
        0
  0
CLASS
  1
ACDBPLACEHOLDER
  2
AcDbPlaceHolder
  3
AutoCAD 2000
 90
        0
280
        0
281
        0
  0
ENDSEC
  0
SECTION
  2
TABLES
  0
TABLE
  2
VPORT
  5
7
100
AcDbSymbolTable
 70
        1
  0
VPORT
  5
15
100
AcDbSymbolTableRecord
100
AcDbViewportTableRecord
  2
*ACTIVE
 70
        0
 10
0.0
 20
0.0
 11
1.0
 21
1.0
 12
6.591288
 22
4.579184
 13
0.0
 23
0.0
 14
1.0
 24
1.0
 15
0.0
 25
0.0
 16
0.0
 26
0.0
 36
1.0
 17
0.0
 27
0.0
 37
0.0
 40
9.158369
 41
0.688564
 42
50.0
 43
0.0
 44
0.0
 50
0.0
 51
0.0
 71
        0
 72
      100
 73
        1
 74
        1
 75
        0
 76
        0
 77
        0
 78
        0
281
        0
 65
        0
110
0.0
120
0.0
130
0.0
111
1.0
121
0.0
131
0.0
112
0.0
122
1.0
132
0.0
345
0
346
0
 79
        0
146
0.0
  0
ENDTAB
  0
TABLE
  2
LTYPE
  5
4
100
AcDbSymbolTable
 70
        6
  0
LTYPE
  5
11
100
AcDbSymbolTableRecord
100
AcDbLinetypeTableRecord
  2
ByBlock
 70
       64
  3

 72
       65
 73
        0
 40
0.0
  0
LTYPE
  5
12
100
AcDbSymbolTableRecord
100
AcDbLinetypeTableRecord
  2
ByLayer
 70
       64
  3

 72
       65
 73
        0
 40
0.0
  0
LTYPE
  5
13
100
AcDbSymbolTableRecord
100
AcDbLinetypeTableRecord
  2
Continuous
 70
       64
  3
Solid line
 72
       65
 73
        0
 40
0.0
  0
LTYPE
  5
55
100
AcDbSymbolTableRecord
100
AcDbLinetypeTableRecord
  2
SOLID
 70
       64
  3
Solid line
 72
       65
 73
        0
 40
0.0
  0
LTYPE
  5
64
100
AcDbSymbolTableRecord
100
AcDbLinetypeTableRecord
  2
CENTER
 70
       64
  3
Center ____ _ ____ _ ____ _ ____ _ ____ _ ____
 72
       65
 73
        4
 40
8.0
 49
4.5
 74
        0
 49
-1.5
 74
        0
 49
0.5
 74
        0
 49
-1.5
 74
        0
  0
LTYPE
  5
2F5
100
AcDbSymbolTableRecord
100
AcDbLinetypeTableRecord
  2
L_DASH
 70
       64
  3
L_dash ____  ____  ____  ____  ____  ____
 72
       65
 73
        2
 40
8.0
 49
6.0
 74
        0
 49
-2.0
 74
        0
  0
ENDTAB
  0
TABLE
  2
LAYER
  5
2
100
AcDbSymbolTable
 70
       51
  0
LAYER
  5
14
100
AcDbSymbolTableRecord
100
AcDbLayerTableRecord
  2
0
 70
        0
 62
        7
  6
Continuous
290
        1
370
       -3
390
1D
  0
LAYER
  5
23
100
AcDbSymbolTableRecord
100
AcDbLayerTableRecord
  2
1
 70
        0
 62
       -1
  6
Continuous
290
        1
370
       -3
390
1F
  0
LAYER
  5
24
100
AcDbSymbolTableRecord
100
AcDbLayerTableRecord
  2
2
 70
        0
 62
       -1
  6
Continuous
290
        1
370
       -3
390
1F
  0
LAYER
  5
25
100
AcDbSymbolTableRecord
100
AcDbLayerTableRecord
  2
3
 70
        0
 62
       -1
  6
Continuous
290
        1
370
       -3
390
1F
  0
LAYER
  5
26
100
AcDbSymbolTableRecord
100
AcDbLayerTableRecord
  2
4
 70
        0
 62
       -1
  6
Continuous
290
        1
370
       -3
390
1F
  0
LAYER
  5
27
100
AcDbSymbolTableRecord
100
AcDbLayerTableRecord
  2
5
 70
        0
 62
       -1
  6
Continuous
290
        1
370
       -3
390
1F
  0
LAYER
  5
28
100
AcDbSymbolTableRecord
100
AcDbLayerTableRecord
  2
6
 70
        0
 62
       -1
  6
Continuous
290
        1
370
       -3
390
1F
  0
LAYER
  5
29
100
AcDbSymbolTableRecord
100
AcDbLayerTableRecord
  2
7
 70
        0
 62
       -1
  6
Continuous
290
        1
370
       -3
390
1F
  0
LAYER
  5
2A
100
AcDbSymbolTableRecord
100
AcDbLayerTableRecord
  2
8
 70
        0
 62
       -1
  6
Continuous
290
        1
370
       -3
390
1F
  0
LAYER
  5
2B
100
AcDbSymbolTableRecord
100
AcDbLayerTableRecord
  2
9
 70
        0
 62
       -1
  6
Continuous
290
        1
370
       -3
390
1F
  0
LAYER
  5
2C
100
AcDbSymbolTableRecord
100
AcDbLayerTableRecord
  2
NASC
 70
        0
 62
       -1
  6
Continuous
290
        1
370
       -3
390
1F
  0
LAYER
  5
2D
100
AcDbSymbolTableRecord
100
AcDbLayerTableRecord
  2
11
 70
        0
 62
       -1
  6
Continuous
290
        1
370
       -3
390
1F
  0
LAYER
  5
2E
100
AcDbSymbolTableRecord
100
AcDbLayerTableRecord
  2
12
 70
        0
 62
       -1
  6
Continuous
290
        1
370
       -3
390
1F
  0
LAYER
  5
2F
100
AcDbSymbolTableRecord
100
AcDbLayerTableRecord
  2
13
 70
        0
 62
       -1
  6
Continuous
290
        1
370
       -3
390
1F
  0
LAYER
  5
30
100
AcDbSymbolTableRecord
100
AcDbLayerTableRecord
  2
14
 70
        0
 62
       -1
  6
Continuous
290
        1
370
       -3
390
1F
  0
LAYER
  5
31
100
AcDbSymbolTableRecord
100
AcDbLayerTableRecord
  2
15
 70
        0
 62
       -1
  6
Continuous
290
        1
370
       -3
390
1F
  0
LAYER
  5
32
100
AcDbSymbolTableRecord
100
AcDbLayerTableRecord
  2
16
 70
        0
 62
       -1
  6
Continuous
290
        1
370
       -3
390
1F
  0
LAYER
  5
33
100
AcDbSymbolTableRecord
100
AcDbLayerTableRecord
  2
17
 70
        0
 62
       -1
  6
Continuous
290
        1
370
       -3
390
1F
  0
LAYER
  5
34
100
AcDbSymbolTableRecord
100
AcDbLayerTableRecord
  2
18
 70
        0
 62
       -1
  6
Continuous
290
        1
370
       -3
390
1F
  0
LAYER
  5
35
100
AcDbSymbolTableRecord
100
AcDbLayerTableRecord
  2
19
 70
        0
 62
       -1
  6
Continuous
290
        1
370
       -3
390
1F
  0
LAYER
  5
36
100
AcDbSymbolTableRecord
100
AcDbLayerTableRecord
  2
20
 70
        0
 62
       -1
  6
Continuous
290
        1
370
       -3
390
1F
  0
LAYER
  5
37
100
AcDbSymbolTableRecord
100
AcDbLayerTableRecord
  2
21
 70
        0
 62
       -1
  6
Continuous
290
        1
370
       -3
390
1F
  0
LAYER
  5
38
100
AcDbSymbolTableRecord
100
AcDbLayerTableRecord
  2
22
 70
        0
 62
       -1
  6
Continuous
290
        1
370
       -3
390
1F
  0
LAYER
  5
39
100
AcDbSymbolTableRecord
100
AcDbLayerTableRecord
  2
23
 70
        0
 62
       -1
  6
Continuous
290
        1
370
       -3
390
1F
  0
LAYER
  5
3A
100
AcDbSymbolTableRecord
100
AcDbLayerTableRecord
  2
24
 70
        0
 62
       -1
  6
Continuous
290
        1
370
       -3
390
1F
  0
LAYER
  5
3B
100
AcDbSymbolTableRecord
100
AcDbLayerTableRecord
  2
25
 70
        0
 62
       -1
  6
Continuous
290
        1
370
       -3
390
1F
  0
LAYER
  5
3C
100
AcDbSymbolTableRecord
100
AcDbLayerTableRecord
  2
26
 70
        0
 62
       -1
  6
Continuous
290
        1
370
       -3
390
1F
  0
LAYER
  5
3D
100
AcDbSymbolTableRecord
100
AcDbLayerTableRecord
  2
27
 70
        0
 62
       -1
  6
Continuous
290
        1
370
       -3
390
1F
  0
LAYER
  5
3E
100
AcDbSymbolTableRecord
100
AcDbLayerTableRecord
  2
28
 70
        0
 62
       -1
  6
Continuous
290
        1
370
       -3
390
1F
  0
LAYER
  5
3F
100
AcDbSymbolTableRecord
100
AcDbLayerTableRecord
  2
29
 70
        0
 62
       -1
  6
Continuous
290
        1
370
       -3
390
1F
  0
LAYER
  5
40
100
AcDbSymbolTableRecord
100
AcDbLayerTableRecord
  2
30
 70
        0
 62
       -1
  6
Continuous
290
        1
370
       -3
390
1F
  0
LAYER
  5
41
100
AcDbSymbolTableRecord
100
AcDbLayerTableRecord
  2
31
 70
        0
 62
       -1
  6
Continuous
290
        1
370
       -3
390
1F
  0
LAYER
  5
42
100
AcDbSymbolTableRecord
100
AcDbLayerTableRecord
  2
32
 70
        0
 62
       -1
  6
Continuous
290
        1
370
       -3
390
1F
  0
LAYER
  5
43
100
AcDbSymbolTableRecord
100
AcDbLayerTableRecord
  2
33
 70
        0
 62
       -1
  6
Continuous
290
        1
370
       -3
390
1F
  0
LAYER
  5
44
100
AcDbSymbolTableRecord
100
AcDbLayerTableRecord
  2
34
 70
        0
 62
       -1
  6
Continuous
290
        1
370
       -3
390
1F
  0
LAYER
  5
45
100
AcDbSymbolTableRecord
100
AcDbLayerTableRecord
  2
35
 70
        0
 62
       -1
  6
Continuous
290
        1
370
       -3
390
1F
  0
LAYER
  5
46
100
AcDbSymbolTableRecord
100
AcDbLayerTableRecord
  2
36
 70
        0
 62
       -1
  6
Continuous
290
        1
370
       -3
390
1F
  0
LAYER
  5
47
100
AcDbSymbolTableRecord
100
AcDbLayerTableRecord
  2
37
 70
        0
 62
       -1
  6
Continuous
290
        1
370
       -3
390
1F
  0
LAYER
  5
48
100
AcDbSymbolTableRecord
100
AcDbLayerTableRecord
  2
38
 70
        0
 62
       -1
  6
Continuous
290
        1
370
       -3
390
1F
  0
LAYER
  5
49
100
AcDbSymbolTableRecord
100
AcDbLayerTableRecord
  2
39
 70
        0
 62
       -1
  6
Continuous
290
        1
370
       -3
390
1F
  0
LAYER
  5
4A
100
AcDbSymbolTableRecord
100
AcDbLayerTableRecord
  2
40
 70
        0
 62
       -1
  6
Continuous
290
        1
370
       -3
390
1F
  0
LAYER
  5
4B
100
AcDbSymbolTableRecord
100
AcDbLayerTableRecord
  2
41
 70
        0
 62
       -1
  6
Continuous
290
        1
370
       -3
390
1F
  0
LAYER
  5
4C
100
AcDbSymbolTableRecord
100
AcDbLayerTableRecord
  2
42
 70
        0
 62
       -1
  6
Continuous
290
        1
370
       -3
390
1F
  0
LAYER
  5
4D
100
AcDbSymbolTableRecord
100
AcDbLayerTableRecord
  2
43
 70
        0
 62
       -1
  6
Continuous
290
        1
370
       -3
390
1F
  0
LAYER
  5
4E
100
AcDbSymbolTableRecord
100
AcDbLayerTableRecord
  2
44
 70
        0
 62
       -1
  6
Continuous
290
        1
370
       -3
390
1F
  0
LAYER
  5
4F
100
AcDbSymbolTableRecord
100
AcDbLayerTableRecord
  2
AUGSL1
 70
        0
 62
        7
  6
Continuous
290
        1
370
       -3
390
1F
  0
LAYER
  5
50
100
AcDbSymbolTableRecord
100
AcDbLayerTableRecord
  2
AUGSL0
 70
        0
 62
       -1
  6
Continuous
290
        1
370
       -3
390
1F
  0
LAYER
  5
51
100
AcDbSymbolTableRecord
100
AcDbLayerTableRecord
  2
47
 70
        0
 62
       -1
  6
Continuous
290
        1
370
       -3
390
1F
  0
LAYER
  5
52
100
AcDbSymbolTableRecord
100
AcDbLayerTableRecord
  2
48
 70
        0
 62
       -1
  6
Continuous
290
        1
370
       -3
390
1F
  0
LAYER
  5
53
100
AcDbSymbolTableRecord
100
AcDbLayerTableRecord
  2
49
 70
        0
 62
       -1
  6
Continuous
290
        1
370
       -3
390
1F
  0
LAYER
  5
54
100
AcDbSymbolTableRecord
100
AcDbLayerTableRecord
  2
50
 70
        0
 62
       -1
  6
Continuous
290
        1
370
       -3
390
1F
  0
ENDTAB
  0
TABLE
  2
STYLE
  5
3
100
AcDbSymbolTable
 70
        1
  0
STYLE
  5
17
100
AcDbSymbolTableRecord
100
AcDbTextStyleTableRecord
  2
Standard
 70
        0
 40
0.0
 41
1.0
 50
0.0
 71
        0
 42
0.0
  3
txt
  4

  0
ENDTAB
  0
TABLE
  2
VIEW
  5
5
100
AcDbSymbolTable
 70
        0
  0
ENDTAB
  0
TABLE
  2
UCS
  5
6
100
AcDbSymbolTable
 70
        0
  0
ENDTAB
  0
TABLE
  2
APPID
  5
8
100
AcDbSymbolTable
 70
        1
  0
APPID
  5
16
100
AcDbSymbolTableRecord
100
AcDbRegAppTableRecord
  2
ACAD
 70
        0
  0
ENDTAB
  0
TABLE
  2
DIMSTYLE
  5
9
100
AcDbSymbolTable
 70
       19
100
AcDbDimStyleTable
 71
        0
  0
DIMSTYLE
105
18
100
AcDbSymbolTableRecord
100
AcDbDimStyleTableRecord
  2
Standard
 70
        0
  3

  4

 40
1.0
 41
11.0
 42
4.0
 43
0.38
 44
4.0
 45
0.0
 46
0.0
 47
0.0
 48
0.0
 71
        0
 72
        0
 73
        0
 74
        0
 75
        0
 76
        0
 77
        1
 78
        0
 79
        0
140
11.0
141
0.09
142
0.0
143
25.4
144
1.0
145
0.0
146
1.0
147
0.09
148
0.0
170
        0
171
        2
172
        1
173
        0
174
        0
175
        0
176
        7
177
        7
178
       50
179
        0
271
        4
272
        4
273
        2
274
        2
275
        0
276
        0
277
        2
278
       46
279
        0
280
        0
281
        0
282
        0
283
        1
284
        0
285
        0
286
        0
288
        0
340
17
341
0
342
0
343
0
344
0
371
       -2
372
       -2
  0
DIMSTYLE
105
2DB
100
AcDbSymbolTableRecord
100
AcDbDimStyleTableRecord
  2
2
 70
        0
  3

  4

 40
1.0
 41
11.0
 42
4.0
 43
0.38
 44
4.0
 45
0.0
 46
0.0
 47
0.0
 48
0.0
 71
        0
 72
        0
 73
        0
 74
        0
 75
        0
 76
        0
 77
        1
 78
        0
 79
        0
140
11.0
141
0.09
142
0.0
143
25.4
144
1.0
145
0.0
146
1.0
147
0.09
148
0.0
170
        0
171
        2
172
        1
173
        0
174
        0
175
        0
176
        3
177
        3
178
        3
179
        0
271
        0
272
        4
273
        2
274
        2
275
        0
276
        0
277
        2
278
       46
279
        0
280
        0
281
        0
282
        0
283
        1
284
        0
285
        0
286
        0
288
        0
340
17
341
0
342
0
343
0
344
0
371
       -2
372
       -2
  0
DIMSTYLE
105
312
100
AcDbSymbolTableRecord
100
AcDbDimStyleTableRecord
  2
3
 70
        0
  3

  4

 40
1.0
 41
11.0
 42
4.0
 43
0.38
 44
4.0
 45
0.0
 46
0.0
 47
0.0
 48
0.0
 71
        0
 72
        0
 73
        0
 74
        0
 75
        0
 76
        0
 77
        1
 78
        0
 79
        0
140
11.0
141
0.09
142
0.0
143
25.4
144
1.0
145
0.0
146
1.0
147
0.09
148
0.0
170
        0
171
        2
172
        1
173
        0
174
        0
175
        0
176
        3
177
        3
178
        3
179
        0
271
        0
272
        4
273
        2
274
        2
275
        0
276
        0
277
        2
278
       46
279
        0
280
        0
281
        0
282
        0
283
        1
284
        0
285
        0
286
        0
288
        0
340
17
341
0
342
0
343
0
344
0
371
       -2
372
       -2
  0
DIMSTYLE
105
37A
100
AcDbSymbolTableRecord
100
AcDbDimStyleTableRecord
  2
4
 70
        0
  3

  4

 40
1.0
 41
11.0
 42
4.0
 43
0.38
 44
4.0
 45
0.0
 46
0.0
 47
0.0
 48
0.0
 71
        0
 72
        0
 73
        0
 74
        0
 75
        0
 76
        0
 77
        1
 78
        0
 79
        0
140
11.0
141
0.09
142
0.0
143
25.4
144
1.0
145
0.0
146
1.0
147
0.09
148
0.0
170
        0
171
        2
172
        1
173
        0
174
        0
175
        0
176
        3
177
        3
178
        3
179
        0
271
        0
272
        4
273
        2
274
        2
275
        0
276
        0
277
        2
278
       46
279
        0
280
        0
281
        0
282
        0
283
        1
284
        0
285
        0
286
        0
288
        0
340
17
341
0
342
0
343
0
344
0
371
       -2
372
       -2
  0
DIMSTYLE
105
38C
100
AcDbSymbolTableRecord
100
AcDbDimStyleTableRecord
  2
5
 70
        0
  3

  4

 40
1.0
 41
11.0
 42
4.0
 43
0.38
 44
4.0
 45
0.0
 46
0.0
 47
0.0
 48
0.0
 71
        0
 72
        0
 73
        0
 74
        0
 75
        0
 76
        0
 77
        1
 78
        0
 79
        0
140
11.0
141
0.09
142
0.0
143
25.4
144
1.0
145
0.0
146
1.0
147
0.09
148
0.0
170
        0
171
        2
172
        1
173
        0
174
        0
175
        0
176
        3
177
        3
178
        3
179
        0
271
        0
272
        4
273
        2
274
        2
275
        0
276
        0
277
        2
278
       46
279
        0
280
        0
281
        0
282
        0
283
        1
284
        0
285
        0
286
        0
288
        0
340
17
341
0
342
0
343
0
344
0
371
       -2
372
       -2
  0
DIMSTYLE
105
39E
100
AcDbSymbolTableRecord
100
AcDbDimStyleTableRecord
  2
6
 70
        0
  3

  4

 40
1.0
 41
11.0
 42
4.0
 43
0.38
 44
4.0
 45
0.0
 46
0.0
 47
0.0
 48
0.0
 71
        0
 72
        0
 73
        0
 74
        0
 75
        0
 76
        0
 77
        1
 78
        0
 79
        0
140
11.0
141
0.09
142
0.0
143
25.4
144
1.0
145
0.0
146
1.0
147
0.09
148
0.0
170
        0
171
        2
172
        1
173
        0
174
        0
175
        0
176
        3
177
        3
178
        3
179
        0
271
        0
272
        4
273
        2
274
        2
275
        0
276
        0
277
        2
278
       46
279
        0
280
        0
281
        0
282
        0
283
        1
284
        0
285
        0
286
        0
288
        0
340
17
341
0
342
0
343
0
344
0
371
       -2
372
       -2
  0
DIMSTYLE
105
3B0
100
AcDbSymbolTableRecord
100
AcDbDimStyleTableRecord
  2
7
 70
        0
  3

  4

 40
1.0
 41
11.0
 42
4.0
 43
0.38
 44
4.0
 45
0.0
 46
0.0
 47
0.0
 48
0.0
 71
        0
 72
        0
 73
        0
 74
        0
 75
        0
 76
        0
 77
        1
 78
        0
 79
        0
140
11.0
141
0.09
142
0.0
143
25.4
144
1.0
145
0.0
146
1.0
147
0.09
148
0.0
170
        0
171
        2
172
        1
173
        0
174
        0
175
        0
176
        3
177
        3
178
        3
179
        0
271
        0
272
        4
273
        2
274
        2
275
        0
276
        0
277
        2
278
       46
279
        0
280
        0
281
        0
282
        0
283
        1
284
        0
285
        0
286
        0
288
        0
340
17
341
0
342
0
343
0
344
0
371
       -2
372
       -2
  0
DIMSTYLE
105
3C3
100
AcDbSymbolTableRecord
100
AcDbDimStyleTableRecord
  2
8
 70
        0
  3

  4

 40
1.0
 41
11.0
 42
4.0
 43
0.38
 44
4.0
 45
0.0
 46
0.0
 47
0.0
 48
0.0
 71
        0
 72
        0
 73
        0
 74
        0
 75
        0
 76
        0
 77
        1
 78
        0
 79
        0
140
11.0
141
0.09
142
0.0
143
25.4
144
1.0
145
0.0
146
1.0
147
0.09
148
0.0
170
        0
171
        2
172
        1
173
        0
174
        0
175
        0
176
        3
177
        3
178
        3
179
        0
271
        0
272
        4
273
        2
274
        2
275
        0
276
        0
277
        2
278
       46
279
        0
280
        0
281
        0
282
        0
283
        1
284
        0
285
        0
286
        0
288
        0
340
17
341
0
342
0
343
0
344
0
371
       -2
372
       -2
  0
DIMSTYLE
105
415
100
AcDbSymbolTableRecord
100
AcDbDimStyleTableRecord
  2
9
 70
        0
  3

  4

 40
1.0
 41
11.0
 42
4.0
 43
0.38
 44
4.0
 45
0.0
 46
0.0
 47
0.0
 48
0.0
 71
        0
 72
        0
 73
        0
 74
        0
 75
        0
 76
        0
 77
        1
 78
        0
 79
        0
140
11.0
141
0.09
142
0.0
143
25.4
144
1.0
145
0.0
146
1.0
147
0.09
148
0.0
170
        0
171
        2
172
        1
173
        0
174
        0
175
        0
176
        3
177
        3
178
        3
179
        0
271
        0
272
        4
273
        2
274
        2
275
        0
276
        0
277
        2
278
       46
279
        0
280
        0
281
        0
282
        0
283
        1
284
        0
285
        0
286
        0
288
        0
340
17
341
0
342
0
343
0
344
0
371
       -2
372
       -2
  0
DIMSTYLE
105
431
100
AcDbSymbolTableRecord
100
AcDbDimStyleTableRecord
  2
10
 70
        0
  3

  4

 40
1.0
 41
11.0
 42
4.0
 43
0.38
 44
4.0
 45
0.0
 46
0.0
 47
0.0
 48
0.0
 71
        0
 72
        0
 73
        0
 74
        0
 75
        0
 76
        0
 77
        1
 78
        0
 79
        0
140
11.0
141
0.09
142
0.0
143
25.4
144
1.0
145
0.0
146
1.0
147
0.09
148
0.0
170
        0
171
        2
172
        1
173
        0
174
        0
175
        0
176
        3
177
        3
178
        3
179
        0
271
        0
272
        4
273
        2
274
        2
275
        0
276
        0
277
        2
278
       46
279
        0
280
        0
281
        0
282
        0
283
        1
284
        0
285
        0
286
        0
288
        0
340
17
341
0
342
0
343
0
344
0
371
       -2
372
       -2
  0
DIMSTYLE
105
448
100
AcDbSymbolTableRecord
100
AcDbDimStyleTableRecord
  2
11
 70
        0
  3

  4

 40
1.0
 41
11.0
 42
4.0
 43
0.38
 44
4.0
 45
0.0
 46
0.0
 47
0.0
 48
0.0
 71
        0
 72
        0
 73
        0
 74
        0
 75
        0
 76
        0
 77
        1
 78
        0
 79
        0
140
11.0
141
0.09
142
0.0
143
25.4
144
1.0
145
0.0
146
1.0
147
0.09
148
0.0
170
        0
171
        2
172
        1
173
        0
174
        0
175
        0
176
        3
177
        3
178
        3
179
        0
271
        0
272
        4
273
        2
274
        2
275
        0
276
        0
277
        2
278
       46
279
        0
280
        0
281
        0
282
        0
283
        1
284
        0
285
        0
286
        0
288
        0
340
17
341
0
342
0
343
0
344
0
371
       -2
372
       -2
  0
DIMSTYLE
105
45C
100
AcDbSymbolTableRecord
100
AcDbDimStyleTableRecord
  2
12
 70
        0
  3

  4

 40
1.0
 41
11.0
 42
4.0
 43
0.38
 44
4.0
 45
0.0
 46
0.0
 47
0.0
 48
0.0
 71
        0
 72
        0
 73
        0
 74
        0
 75
        0
 76
        0
 77
        1
 78
        0
 79
        0
140
11.0
141
0.09
142
0.0
143
25.4
144
1.0
145
0.0
146
1.0
147
0.09
148
0.0
170
        0
171
        2
172
        1
173
        0
174
        0
175
        0
176
        3
177
        3
178
        3
179
        0
271
        0
272
        4
273
        2
274
        2
275
        0
276
        0
277
        2
278
       46
279
        0
280
        0
281
        0
282
        0
283
        1
284
        0
285
        0
286
        0
288
        0
340
17
341
0
342
0
343
0
344
0
371
       -2
372
       -2
  0
DIMSTYLE
105
488
100
AcDbSymbolTableRecord
100
AcDbDimStyleTableRecord
  2
13
 70
        0
  3

  4

 40
1.0
 41
11.0
 42
4.0
 43
0.38
 44
4.0
 45
0.0
 46
0.0
 47
0.0
 48
0.0
 71
        0
 72
        0
 73
        0
 74
        0
 75
        0
 76
        0
 77
        1
 78
        0
 79
        0
140
11.0
141
0.09
142
0.0
143
25.4
144
1.0
145
0.0
146
1.0
147
0.09
148
0.0
170
        0
171
        2
172
        1
173
        0
174
        0
175
        0
176
        3
177
        3
178
        3
179
        0
271
        0
272
        4
273
        2
274
        2
275
        0
276
        0
277
        2
278
       46
279
        0
280
        0
281
        0
282
        0
283
        1
284
        0
285
        0
286
        0
288
        0
340
17
341
0
342
0
343
0
344
0
371
       -2
372
       -2
  0
DIMSTYLE
105
4A8
100
AcDbSymbolTableRecord
100
AcDbDimStyleTableRecord
  2
14
 70
        0
  3

  4

 40
1.0
 41
11.0
 42
4.0
 43
0.38
 44
4.0
 45
0.0
 46
0.0
 47
0.0
 48
0.0
 71
        0
 72
        0
 73
        0
 74
        0
 75
        0
 76
        0
 77
        1
 78
        0
 79
        0
140
11.0
141
0.09
142
0.0
143
25.4
144
1.0
145
0.0
146
1.0
147
0.09
148
0.0
170
        0
171
        2
172
        1
173
        0
174
        0
175
        0
176
        3
177
        3
178
        3
179
        0
271
        0
272
        4
273
        2
274
        2
275
        0
276
        0
277
        2
278
       46
279
        0
280
        0
281
        0
282
        0
283
        1
284
        0
285
        0
286
        0
288
        0
340
17
341
0
342
0
343
0
344
0
371
       -2
372
       -2
  0
DIMSTYLE
105
4BD
100
AcDbSymbolTableRecord
100
AcDbDimStyleTableRecord
  2
15
 70
        0
  3

  4

 40
1.0
 41
11.0
 42
4.0
 43
0.38
 44
4.0
 45
0.0
 46
0.0
 47
0.0
 48
0.0
 71
        0
 72
        0
 73
        0
 74
        0
 75
        0
 76
        0
 77
        1
 78
        0
 79
        0
140
11.0
141
0.09
142
0.0
143
25.4
144
1.0
145
0.0
146
1.0
147
0.09
148
0.0
170
        0
171
        2
172
        1
173
        0
174
        0
175
        0
176
        3
177
        3
178
        3
179
        0
271
        0
272
        4
273
        2
274
        2
275
        0
276
        0
277
        2
278
       46
279
        0
280
        0
281
        0
282
        0
283
        1
284
        0
285
        0
286
        0
288
        0
340
17
341
0
342
0
343
0
344
0
371
       -2
372
       -2
  0
DIMSTYLE
105
4CD
100
AcDbSymbolTableRecord
100
AcDbDimStyleTableRecord
  2
16
 70
        0
  3

  4

 40
1.0
 41
11.0
 42
4.0
 43
0.38
 44
4.0
 45
0.0
 46
0.0
 47
0.0
 48
0.0
 71
        0
 72
        0
 73
        0
 74
        0
 75
        0
 76
        0
 77
        1
 78
        0
 79
        0
140
11.0
141
0.09
142
0.0
143
25.4
144
1.0
145
0.0
146
1.0
147
0.09
148
0.0
170
        0
171
        2
172
        1
173
        0
174
        0
175
        0
176
        3
177
        3
178
        3
179
        0
271
        0
272
        4
273
        2
274
        2
275
        0
276
        0
277
        2
278
       46
279
        0
280
        0
281
        0
282
        0
283
        1
284
        0
285
        0
286
        0
288
        0
340
17
341
0
342
0
343
0
344
0
371
       -2
372
       -2
  0
DIMSTYLE
105
4DD
100
AcDbSymbolTableRecord
100
AcDbDimStyleTableRecord
  2
17
 70
        0
  3

  4

 40
1.0
 41
11.0
 42
4.0
 43
0.38
 44
4.0
 45
0.0
 46
0.0
 47
0.0
 48
0.0
 71
        0
 72
        0
 73
        0
 74
        0
 75
        0
 76
        0
 77
        1
 78
        0
 79
        0
140
11.0
141
0.09
142
0.0
143
25.4
144
1.0
145
0.0
146
1.0
147
0.09
148
0.0
170
        0
171
        2
172
        1
173
        0
174
        0
175
        0
176
        3
177
        3
178
        3
179
        0
271
        0
272
        4
273
        2
274
        2
275
        0
276
        0
277
        2
278
       46
279
        0
280
        0
281
        0
282
        0
283
        1
284
        0
285
        0
286
        0
288
        0
340
17
341
0
342
0
343
0
344
0
371
       -2
372
       -2
  0
DIMSTYLE
105
4ED
100
AcDbSymbolTableRecord
100
AcDbDimStyleTableRecord
  2
18
 70
        0
  3

  4

 40
1.0
 41
11.0
 42
4.0
 43
0.38
 44
4.0
 45
0.0
 46
0.0
 47
0.0
 48
0.0
 71
        0
 72
        0
 73
        0
 74
        0
 75
        0
 76
        0
 77
        1
 78
        0
 79
        0
140
11.0
141
0.09
142
0.0
143
25.4
144
1.0
145
0.0
146
1.0
147
0.09
148
0.0
170
        0
171
        2
172
        1
173
        0
174
        0
175
        0
176
        3
177
        3
178
        3
179
        0
271
        0
272
        4
273
        2
274
        2
275
        0
276
        0
277
        2
278
       46
279
        0
280
        0
281
        0
282
        0
283
        1
284
        0
285
        0
286
        0
288
        0
340
17
341
0
342
0
343
0
344
0
371
       -2
372
       -2
  0
DIMSTYLE
105
579
100
AcDbSymbolTableRecord
100
AcDbDimStyleTableRecord
  2
19
 70
        0
  3

  4

 40
1.0
 41
11.0
 42
4.0
 43
0.38
 44
4.0
 45
0.0
 46
0.0
 47
0.0
 48
0.0
 71
        0
 72
        0
 73
        0
 74
        0
 75
        0
 76
        0
 77
        1
 78
        0
 79
        0
140
11.0
141
0.09
142
0.0
143
25.4
144
1.0
145
0.0
146
1.0
147
0.09
148
0.0
170
        0
171
        2
172
        1
173
        0
174
        0
175
        0
176
        3
177
        3
178
        3
179
        0
271
        0
272
        4
273
        2
274
        2
275
        0
276
        0
277
        2
278
       46
279
        0
280
        0
281
        0
282
        0
283
        1
284
        0
285
        0
286
        0
288
        0
340
17
341
0
342
0
343
0
344
0
371
       -2
372
       -2
  0
ENDTAB
  0
TABLE
  2
BLOCK_RECORD
  5
1
100
AcDbSymbolTable
 70
       19
  0
BLOCK_RECORD
  5
A
100
AcDbSymbolTableRecord
100
AcDbBlockTableRecord
  2
*MODEL_SPACE
340
20
  0
BLOCK_RECORD
  5
B
100
AcDbSymbolTableRecord
100
AcDbBlockTableRecord
  2
*PAPER_SPACE
340
21
  0
BLOCK_RECORD
  5
77
100
AcDbSymbolTableRecord
100
AcDbBlockTableRecord
  2
*L0
340
0
102
{BLKREFS
331
80
102
}
  0
BLOCK_RECORD
  5
2CD
100
AcDbSymbolTableRecord
100
AcDbBlockTableRecord
  2
*D1
340
0
  0
BLOCK_RECORD
  5
304
100
AcDbSymbolTableRecord
100
AcDbBlockTableRecord
  2
*D2
340
0
  0
BLOCK_RECORD
  5
36C
100
AcDbSymbolTableRecord
100
AcDbBlockTableRecord
  2
*D3
340
0
  0
BLOCK_RECORD
  5
37E
100
AcDbSymbolTableRecord
100
AcDbBlockTableRecord
  2
*D4
340
0
  0
BLOCK_RECORD
  5
390
100
AcDbSymbolTableRecord
100
AcDbBlockTableRecord
  2
*D5
340
0
  0
BLOCK_RECORD
  5
3A2
100
AcDbSymbolTableRecord
100
AcDbBlockTableRecord
  2
*D6
340
0
  0
BLOCK_RECORD
  5
3B4
100
AcDbSymbolTableRecord
100
AcDbBlockTableRecord
  2
*D7
340
0
  0
BLOCK_RECORD
  5
407
100
AcDbSymbolTableRecord
100
AcDbBlockTableRecord
  2
*D8
340
0
  0
BLOCK_RECORD
  5
423
100
AcDbSymbolTableRecord
100
AcDbBlockTableRecord
  2
*D9
340
0
  0
BLOCK_RECORD
  5
43A
100
AcDbSymbolTableRecord
100
AcDbBlockTableRecord
  2
*D10
340
0
  0
BLOCK_RECORD
  5
44E
100
AcDbSymbolTableRecord
100
AcDbBlockTableRecord
  2
*D11
340
0
  0
BLOCK_RECORD
  5
47A
100
AcDbSymbolTableRecord
100
AcDbBlockTableRecord
  2
*D12
340
0
  0
BLOCK_RECORD
  5
49A
100
AcDbSymbolTableRecord
100
AcDbBlockTableRecord
  2
*D13
340
0
  0
BLOCK_RECORD
  5
4AF
100
AcDbSymbolTableRecord
100
AcDbBlockTableRecord
  2
*D14
340
0
  0
BLOCK_RECORD
  5
4BF
100
AcDbSymbolTableRecord
100
AcDbBlockTableRecord
  2
*D15
340
0
  0
BLOCK_RECORD
  5
4CF
100
AcDbSymbolTableRecord
100
AcDbBlockTableRecord
  2
*D16
340
0
  0
BLOCK_RECORD
  5
4DF
100
AcDbSymbolTableRecord
100
AcDbBlockTableRecord
  2
*D17
340
0
  0
BLOCK_RECORD
  5
56B
100
AcDbSymbolTableRecord
100
AcDbBlockTableRecord
  2
*D18
340
0
  0
ENDTAB
  0
ENDSEC
  0
SECTION
  2
BLOCKS
  0
BLOCK
  5
D
100
AcDbEntity
  8
0
100
AcDbBlockBegin
  2
*MODEL_SPACE
 70
        0
 10
0.0
 20
0.0
 30
0.0
  3
*MODEL_SPACE
  1

  0
ENDBLK
  5
E
100
AcDbEntity
  8
0
100
AcDbBlockEnd
  0
BLOCK
  5
F
100
AcDbEntity
 67
        1
  8
0
100
AcDbBlockBegin
  2
*PAPER_SPACE
 70
        0
 10
0.0
 20
0.0
 30
0.0
  3
*PAPER_SPACE
  1

  0
ENDBLK
  5
10
100
AcDbEntity
 67
        1
  8
0
100
AcDbBlockEnd
  0
BLOCK
  5
78
100
AcDbEntity
  8
0
100
AcDbBlockBegin
  2
*L0
 70
        0
 10
0.0
 20
0.0
 30
0.0
  3
*L0
  1

  0
LINE
  5
79
100
AcDbEntity
  8
AUGSL1
  6
SOLID
 62
        3
100
AcDbLine
 10
251.342636108
 20
-2025.687133789
 30
0.0
 11
288.491546631
 21
-1957.679077148
 31
0.0
  0
LINE
  5
7A
100
AcDbEntity
  8
AUGSL1
  6
SOLID
 62
        3
100
AcDbLine
 10
255.007095337
 20
-2015.154663086
 30
0.0
 11
251.342636108
 21
-2025.687133789
 31
0.0
  0
LINE
  5
7B
100
AcDbEntity
  8
AUGSL1
  6
SOLID
 62
        3
100
AcDbLine
 10
251.342636108
 20
-2025.687133789
 30
0.0
 11
258.224639893
 21
-2016.912231445
 31
0.0
  0
LINE
  5
7C
100
AcDbEntity
  8
AUGSL1
  6
SOLID
 62
        3
100
AcDbLine
 10
258.224639893
 20
-2016.912231445
 30
0.0
 11
255.007095337
 21
-2015.154663086
 31
0.0
  0
TEXT
  5
7D
100
AcDbEntity
  8
AUGSL1
  6
SOLID
 62
        3
100
AcDbText
 10
218.070343018
 20
-1952.033081055
 30
0.0
 40
11.0
  1
4xM16x40
 72
        5
 11
282.845542908
 21
-1952.033081055
 31
0.0
100
AcDbText
  0
LINE
  5
7E
100
AcDbEntity
  8
AUGSL1
  6
SOLID
 62
        3
100
AcDbLine
 10
212.424331665
 20
-1957.679077148
 30
0.0
 11
288.491546631
 21
-1957.679077148
 31
0.0
  0
ENDBLK
  5
7F
100
AcDbEntity
  8
0
100
AcDbBlockEnd
  0
BLOCK
  5
2CE
100
AcDbEntity
  8
0
100
AcDbBlockBegin
  2
*D1
 70
        0
 10
0.0
 20
0.0
 30
0.0
  3
*D1
  1

  0
LINE
  5
2CF
100
AcDbEntity
  8
AUGSL1
  6
SOLID
 62
        3
100
AcDbLine
 10
-664.624267578
 20
-2065.490234375
 30
0.0
 11
-791.963134766
 21
-2065.490234375
 31
0.0
  0
LINE
  5
2D0
100
AcDbEntity
  8
AUGSL1
  6
SOLID
 62
        3
100
AcDbLine
 10
-777.099914551
 20
-1885.490112305
 30
0.0
 11
-791.963134766
 21
-1885.490112305
 31
0.0
  0
LINE
  5
2D1
100
AcDbEntity
  8
AUGSL1
  6
SOLID
 62
        3
100
AcDbLine
 10
-790.391723633
 20
-2065.490234375
 30
0.0
 11
-790.391723633
 21
-1885.490112305
 31
0.0
  0
LINE
  5
2D2
100
AcDbEntity
  8
AUGSL1
  6
SOLID
 62
        3
100
AcDbLine
 10
-792.224853516
 20
-2054.490234375
 30
0.0
 11
-790.391723633
 21
-2065.490234375
 31
0.0
  0
LINE
  5
2D3
100
AcDbEntity
  8
AUGSL1
  6
SOLID
 62
        3
100
AcDbLine
 10
-790.391723633
 20
-2065.490234375
 30
0.0
 11
-788.55859375
 21
-2054.490234375
 31
0.0
  0
LINE
  5
2D4
100
AcDbEntity
  8
AUGSL1
  6
SOLID
 62
        3
100
AcDbLine
 10
-788.55859375
 20
-2054.490234375
 30
0.0
 11
-792.224853516
 21
-2054.490234375
 31
0.0
  0
LINE
  5
2D5
100
AcDbEntity
  8
AUGSL1
  6
SOLID
 62
        3
100
AcDbLine
 10
-790.391723633
 20
-1885.490112305
 30
0.0
 11
-790.391723633
 21
-2065.490234375
 31
0.0
  0
LINE
  5
2D6
100
AcDbEntity
  8
AUGSL1
  6
SOLID
 62
        3
100
AcDbLine
 10
-788.55859375
 20
-1896.490112305
 30
0.0
 11
-790.391723633
 21
-1885.490112305
 31
0.0
  0
LINE
  5
2D7
100
AcDbEntity
  8
AUGSL1
  6
SOLID
 62
        3
100
AcDbLine
 10
-790.391723633
 20
-1885.490112305
 30
0.0
 11
-792.224853516
 21
-1896.490112305
 31
0.0
  0
LINE
  5
2D8
100
AcDbEntity
  8
AUGSL1
  6
SOLID
 62
        3
100
AcDbLine
 10
-792.224853516
 20
-1896.490112305
 30
0.0
 11
-788.55859375
 21
-1896.490112305
 31
0.0
  0
TEXT
  5
2D9
100
AcDbEntity
  8
AUGSL1
  6
SOLID
 62
        3
100
AcDbText
 10
-795.891723633
 20
-1988.413452148
 30
0.0
 40
11.0
  1
180
 50
90.000002504
 72
        5
 11
-795.891724763
 21
-1962.566837311
 31
0.0
100
AcDbText
  0
ENDBLK
  5
2DA
100
AcDbEntity
  8
0
100
AcDbBlockEnd
  0
BLOCK
  5
305
100
AcDbEntity
  8
0
100
AcDbBlockBegin
  2
*D2
 70
        0
 10
0.0
 20
0.0
 30
0.0
  3
*D2
  1

  0
LINE
  5
306
100
AcDbEntity
  8
AUGSL1
  6
SOLID
 62
        3
100
AcDbLine
 10
-769.453063965
 20
-1827.918701172
 30
0.0
 11
-769.453063965
 21
-1592.231445313
 31
0.0
  0
LINE
  5
307
100
AcDbEntity
  8
AUGSL1
  6
SOLID
 62
        3
100
AcDbLine
 10
-105.052627563
 20
-1761.918701172
 30
0.0
 11
-105.052612305
 21
-1592.231445313
 31
0.0
  0
LINE
  5
308
100
AcDbEntity
  8
AUGSL1
  6
SOLID
 62
        3
100
AcDbLine
 10
-769.453063965
 20
-1593.802856445
 30
0.0
 11
-105.052612305
 21
-1593.802856445
 31
0.0
  0
LINE
  5
309
100
AcDbEntity
  8
AUGSL1
  6
SOLID
 62
        3
100
AcDbLine
 10
-758.453063965
 20
-1591.969726563
 30
0.0
 11
-769.453063965
 21
-1593.802856445
 31
0.0
  0
LINE
  5
30A
100
AcDbEntity
  8
AUGSL1
  6
SOLID
 62
        3
100
AcDbLine
 10
-769.453063965
 20
-1593.802856445
 30
0.0
 11
-758.453063965
 21
-1595.635986328
 31
0.0
  0
LINE
  5
30B
100
AcDbEntity
  8
AUGSL1
  6
SOLID
 62
        3
100
AcDbLine
 10
-758.453063965
 20
-1595.635986328
 30
0.0
 11
-758.453063965
 21
-1591.969726563
 31
0.0
  0
LINE
  5
30C
100
AcDbEntity
  8
AUGSL1
  6
SOLID
 62
        3
100
AcDbLine
 10
-105.052612305
 20
-1593.802856445
 30
0.0
 11
-769.453063965
 21
-1593.802856445
 31
0.0
  0
LINE
  5
30D
100
AcDbEntity
  8
AUGSL1
  6
SOLID
 62
        3
100
AcDbLine
 10
-116.052612305
 20
-1595.635986328
 30
0.0
 11
-105.052612305
 21
-1593.802856445
 31
0.0
  0
LINE
  5
30E
100
AcDbEntity
  8
AUGSL1
  6
SOLID
 62
        3
100
AcDbLine
 10
-105.052612305
 20
-1593.802856445
 30
0.0
 11
-116.052612305
 21
-1591.969726563
 31
0.0
  0
LINE
  5
30F
100
AcDbEntity
  8
AUGSL1
  6
SOLID
 62
        3
100
AcDbLine
 10
-116.052612305
 20
-1591.969726563
 30
0.0
 11
-116.052612305
 21
-1595.635986328
 31
0.0
  0
TEXT
  5
310
100
AcDbEntity
  8
AUGSL1
  6
SOLID
 62
        3
100
AcDbText
 10
-450.176177979
 20
-1588.302856445
 30
0.0
 40
11.0
  1
665
 72
        5
 11
-424.329563141
 21
-1588.302856445
 31
0.0
100
AcDbText
  0
ENDBLK
  5
311
100
AcDbEntity
  8
0
100
AcDbBlockEnd
  0
BLOCK
  5
36D
100
AcDbEntity
  8
0
100
AcDbBlockBegin
  2
*D3
 70
        0
 10
0.0
 20
0.0
 30
0.0
  3
*D3
  1

  0
LINE
  5
36E
100
AcDbEntity
  8
AUGSL1
  6
SOLID
 62
        3
100
AcDbLine
 10
-641.05291748
 20
-2073.931396484
 30
0.0
 11
-641.05291748
 21
-2123.401123047
 31
0.0
  0
LINE
  5
36F
100
AcDbEntity
  8
AUGSL1
  6
SOLID
 62
        3
100
AcDbLine
 10
-261.05291748
 20
-2067.061767578
 30
0.0
 11
-261.05291748
 21
-2123.401123047
 31
0.0
  0
LINE
  5
370
100
AcDbEntity
  8
AUGSL1
  6
SOLID
 62
        3
100
AcDbLine
 10
-641.05291748
 20
-2121.829589844
 30
0.0
 11
-261.05291748
 21
-2121.829589844
 31
0.0
  0
LINE
  5
371
100
AcDbEntity
  8
AUGSL1
  6
SOLID
 62
        3
100
AcDbLine
 10
-630.05291748
 20
-2119.996337891
 30
0.0
 11
-641.05291748
 21
-2121.829589844
 31
0.0
  0
LINE
  5
372
100
AcDbEntity
  8
AUGSL1
  6
SOLID
 62
        3
100
AcDbLine
 10
-641.05291748
 20
-2121.829589844
 30
0.0
 11
-630.05291748
 21
-2123.662841797
 31
0.0
  0
LINE
  5
373
100
AcDbEntity
  8
AUGSL1
  6
SOLID
 62
        3
100
AcDbLine
 10
-630.05291748
 20
-2123.662841797
 30
0.0
 11
-630.05291748
 21
-2119.996337891
 31
0.0
  0
LINE
  5
374
100
AcDbEntity
  8
AUGSL1
  6
SOLID
 62
        3
100
AcDbLine
 10
-261.05291748
 20
-2121.829589844
 30
0.0
 11
-641.05291748
 21
-2121.829589844
 31
0.0
  0
LINE
  5
375
100
AcDbEntity
  8
AUGSL1
  6
SOLID
 62
        3
100
AcDbLine
 10
-272.05291748
 20
-2123.662841797
 30
0.0
 11
-261.05291748
 21
-2121.829589844
 31
0.0
  0
LINE
  5
376
100
AcDbEntity
  8
AUGSL1
  6
SOLID
 62
        3
100
AcDbLine
 10
-261.05291748
 20
-2121.829589844
 30
0.0
 11
-272.05291748
 21
-2119.996337891
 31
0.0
  0
LINE
  5
377
100
AcDbEntity
  8
AUGSL1
  6
SOLID
 62
        3
100
AcDbLine
 10
-272.05291748
 20
-2119.996337891
 30
0.0
 11
-272.05291748
 21
-2123.662841797
 31
0.0
  0
TEXT
  5
378
100
AcDbEntity
  8
AUGSL1
  6
SOLID
 62
        3
100
AcDbText
 10
-463.976226807
 20
-2116.329589844
 30
0.0
 40
11.0
  1
380
 72
        5
 11
-438.129611969
 21
-2116.329589844
 31
0.0
100
AcDbText
  0
ENDBLK
  5
379
100
AcDbEntity
  8
0
100
AcDbBlockEnd
  0
BLOCK
  5
37F
100
AcDbEntity
  8
0
100
AcDbBlockBegin
  2
*D4
 70
        0
 10
0.0
 20
0.0
 30
0.0
  3
*D4
  1

  0
LINE
  5
380
100
AcDbEntity
  8
AUGSL1
  6
SOLID
 62
        3
100
AcDbLine
 10
-261.05291748
 20
-2067.061767578
 30
0.0
 11
-261.05291748
 21
-2123.301025391
 31
0.0
  0
LINE
  5
381
100
AcDbEntity
  8
AUGSL1
  6
SOLID
 62
        3
100
AcDbLine
 10
-165.052627563
 20
-1907.581298828
 30
0.0
 11
-165.052627563
 21
-2123.301025391
 31
0.0
  0
LINE
  5
382
100
AcDbEntity
  8
AUGSL1
  6
SOLID
 62
        3
100
AcDbLine
 10
-261.05291748
 20
-2121.729492188
 30
0.0
 11
-165.052627563
 21
-2121.729492188
 31
0.0
  0
LINE
  5
383
100
AcDbEntity
  8
AUGSL1
  6
SOLID
 62
        3
100
AcDbLine
 10
-250.05291748
 20
-2119.896240234
 30
0.0
 11
-261.05291748
 21
-2121.729492188
 31
0.0
  0
LINE
  5
384
100
AcDbEntity
  8
AUGSL1
  6
SOLID
 62
        3
100
AcDbLine
 10
-261.05291748
 20
-2121.729492188
 30
0.0
 11
-250.05291748
 21
-2123.562744141
 31
0.0
  0
LINE
  5
385
100
AcDbEntity
  8
AUGSL1
  6
SOLID
 62
        3
100
AcDbLine
 10
-250.05291748
 20
-2123.562744141
 30
0.0
 11
-250.05291748
 21
-2119.896240234
 31
0.0
  0
LINE
  5
386
100
AcDbEntity
  8
AUGSL1
  6
SOLID
 62
        3
100
AcDbLine
 10
-165.052627563
 20
-2121.729492188
 30
0.0
 11
-261.05291748
 21
-2121.729492188
 31
0.0
  0
LINE
  5
387
100
AcDbEntity
  8
AUGSL1
  6
SOLID
 62
        3
100
AcDbLine
 10
-176.052627563
 20
-2123.562744141
 30
0.0
 11
-165.052627563
 21
-2121.729492188
 31
0.0
  0
LINE
  5
388
100
AcDbEntity
  8
AUGSL1
  6
SOLID
 62
        3
100
AcDbLine
 10
-165.052627563
 20
-2121.729492188
 30
0.0
 11
-176.052627563
 21
-2119.896240234
 31
0.0
  0
LINE
  5
389
100
AcDbEntity
  8
AUGSL1
  6
SOLID
 62
        3
100
AcDbLine
 10
-176.052627563
 20
-2119.896240234
 30
0.0
 11
-176.052627563
 21
-2123.562744141
 31
0.0
  0
TEXT
  5
38A
100
AcDbEntity
  8
AUGSL1
  6
SOLID
 62
        3
100
AcDbText
 10
-221.576934814
 20
-2116.229492188
 30
0.0
 40
11.0
  1
96
 72
        5
 11
-204.528627396
 21
-2116.229492188
 31
0.0
100
AcDbText
  0
ENDBLK
  5
38B
100
AcDbEntity
  8
0
100
AcDbBlockEnd
  0
BLOCK
  5
391
100
AcDbEntity
  8
0
100
AcDbBlockBegin
  2
*D5
 70
        0
 10
0.0
 20
0.0
 30
0.0
  3
*D5
  1

  0
LINE
  5
392
100
AcDbEntity
  8
AUGSL1
  6
SOLID
 62
        3
100
AcDbLine
 10
-664.624267578
 20
-2065.490234375
 30
0.0
 11
-813.406188965
 21
-2065.490234375
 31
0.0
  0
LINE
  5
393
100
AcDbEntity
  8
AUGSL1
  6
SOLID
 62
        3
100
AcDbLine
 10
-659.624328613
 20
-1620.490234375
 30
0.0
 11
-813.406188965
 21
-1620.490234375
 31
0.0
  0
LINE
  5
394
100
AcDbEntity
  8
AUGSL1
  6
SOLID
 62
        3
100
AcDbLine
 10
-811.834777832
 20
-2065.490234375
 30
0.0
 11
-811.834777832
 21
-1620.490234375
 31
0.0
  0
LINE
  5
395
100
AcDbEntity
  8
AUGSL1
  6
SOLID
 62
        3
100
AcDbLine
 10
-813.667907715
 20
-2054.490234375
 30
0.0
 11
-811.834777832
 21
-2065.490234375
 31
0.0
  0
LINE
  5
396
100
AcDbEntity
  8
AUGSL1
  6
SOLID
 62
        3
100
AcDbLine
 10
-811.834777832
 20
-2065.490234375
 30
0.0
 11
-810.001647949
 21
-2054.490234375
 31
0.0
  0
LINE
  5
397
100
AcDbEntity
  8
AUGSL1
  6
SOLID
 62
        3
100
AcDbLine
 10
-810.001647949
 20
-2054.490234375
 30
0.0
 11
-813.667907715
 21
-2054.490234375
 31
0.0
  0
LINE
  5
398
100
AcDbEntity
  8
AUGSL1
  6
SOLID
 62
        3
100
AcDbLine
 10
-811.834777832
 20
-1620.490234375
 30
0.0
 11
-811.834777832
 21
-2065.490234375
 31
0.0
  0
LINE
  5
399
100
AcDbEntity
  8
AUGSL1
  6
SOLID
 62
        3
100
AcDbLine
 10
-810.001647949
 20
-1631.490234375
 30
0.0
 11
-811.834777832
 21
-1620.490234375
 31
0.0
  0
LINE
  5
39A
100
AcDbEntity
  8
AUGSL1
  6
SOLID
 62
        3
100
AcDbLine
 10
-811.834777832
 20
-1620.490234375
 30
0.0
 11
-813.667907715
 21
-1631.490234375
 31
0.0
  0
LINE
  5
39B
100
AcDbEntity
  8
AUGSL1
  6
SOLID
 62
        3
100
AcDbLine
 10
-813.667907715
 20
-1631.490234375
 30
0.0
 11
-810.001647949
 21
-1631.490234375
 31
0.0
  0
TEXT
  5
39C
100
AcDbEntity
  8
AUGSL1
  6
SOLID
 62
        3
100
AcDbText
 10
-817.334777832
 20
-1855.913452148
 30
0.0
 40
11.0
  1
445
 50
90.000002504
 72
        5
 11
-817.334778962
 21
-1830.066837311
 31
0.0
100
AcDbText
  0
ENDBLK
  5
39D
100
AcDbEntity
  8
0
100
AcDbBlockEnd
  0
BLOCK
  5
3A3
100
AcDbEntity
  8
0
100
AcDbBlockBegin
  2
*D6
 70
        0
 10
0.0
 20
0.0
 30
0.0
  3
*D6
  1

  0
LINE
  5
3A4
100
AcDbEntity
  8
AUGSL1
  6
SOLID
 62
        3
100
AcDbLine
 10
-165.052627563
 20
-1907.581298828
 30
0.0
 11
-165.052627563
 21
-2123.201416016
 31
0.0
  0
LINE
  5
3A5
100
AcDbEntity
  8
AUGSL1
  6
SOLID
 62
        3
100
AcDbLine
 10
-105.052627563
 20
-2009.061523438
 30
0.0
 11
-105.052627563
 21
-2123.201416016
 31
0.0
  0
LINE
  5
3A6
100
AcDbEntity
  8
AUGSL1
  6
SOLID
 62
        3
100
AcDbLine
 10
-165.052627563
 20
-2121.629882813
 30
0.0
 11
-105.052627563
 21
-2121.629882813
 31
0.0
  0
LINE
  5
3A7
100
AcDbEntity
  8
AUGSL1
  6
SOLID
 62
        3
100
AcDbLine
 10
-154.052627563
 20
-2119.796630859
 30
0.0
 11
-165.052627563
 21
-2121.629882813
 31
0.0
  0
LINE
  5
3A8
100
AcDbEntity
  8
AUGSL1
  6
SOLID
 62
        3
100
AcDbLine
 10
-165.052627563
 20
-2121.629882813
 30
0.0
 11
-154.052627563
 21
-2123.463134766
 31
0.0
  0
LINE
  5
3A9
100
AcDbEntity
  8
AUGSL1
  6
SOLID
 62
        3
100
AcDbLine
 10
-154.052627563
 20
-2123.463134766
 30
0.0
 11
-154.052627563
 21
-2119.796630859
 31
0.0
  0
LINE
  5
3AA
100
AcDbEntity
  8
AUGSL1
  6
SOLID
 62
        3
100
AcDbLine
 10
-105.052627563
 20
-2121.629882813
 30
0.0
 11
-165.052627563
 21
-2121.629882813
 31
0.0
  0
LINE
  5
3AB
100
AcDbEntity
  8
AUGSL1
  6
SOLID
 62
        3
100
AcDbLine
 10
-116.052627563
 20
-2123.463134766
 30
0.0
 11
-105.052627563
 21
-2121.629882813
 31
0.0
  0
LINE
  5
3AC
100
AcDbEntity
  8
AUGSL1
  6
SOLID
 62
        3
100
AcDbLine
 10
-105.052627563
 20
-2121.629882813
 30
0.0
 11
-116.052627563
 21
-2119.796630859
 31
0.0
  0
LINE
  5
3AD
100
AcDbEntity
  8
AUGSL1
  6
SOLID
 62
        3
100
AcDbLine
 10
-116.052627563
 20
-2119.796630859
 30
0.0
 11
-116.052627563
 21
-2123.463134766
 31
0.0
  0
TEXT
  5
3AE
100
AcDbEntity
  8
AUGSL1
  6
SOLID
 62
        3
100
AcDbText
 10
-143.118164063
 20
-2116.129882813
 30
0.0
 40
11.0
  1
60
 72
        5
 11
-126.98708725
 21
-2116.129882813
 31
0.0
100
AcDbText
  0
ENDBLK
  5
3AF
100
AcDbEntity
  8
0
100
AcDbBlockEnd
  0
BLOCK
  5
3B5
100
AcDbEntity
  8
0
100
AcDbBlockBegin
  2
*D7
 70
        0
 10
0.0
 20
0.0
 30
0.0
  3
*D7
  1

  0
LINE
  5
3B6
100
AcDbEntity
  8
AUGSL1
  6
SOLID
 62
        3
100
AcDbLine
 10
-103.481201172
 20
-2007.490112305
 30
0.0
 11
-76.083534241
 21
-2007.490112305
 31
0.0
  0
LINE
  5
3B7
100
AcDbEntity
  8
AUGSL1
  6
SOLID
 62
        3
100
AcDbLine
 10
-103.481201172
 20
-1763.490112305
 30
0.0
 11
-76.083534241
 21
-1763.490112305
 31
0.0
  0
LINE
  5
3B8
100
AcDbEntity
  8
AUGSL1
  6
SOLID
 62
        3
100
AcDbLine
 10
-77.654960632
 20
-2007.490112305
 30
0.0
 11
-77.654960632
 21
-1763.490112305
 31
0.0
  0
LINE
  5
3B9
100
AcDbEntity
  8
AUGSL1
  6
SOLID
 62
        3
100
AcDbLine
 10
-79.488113403
 20
-1996.490112305
 30
0.0
 11
-77.654960632
 21
-2007.490112305
 31
0.0
  0
LINE
  5
3BA
100
AcDbEntity
  8
AUGSL1
  6
SOLID
 62
        3
100
AcDbLine
 10
-77.654960632
 20
-2007.490112305
 30
0.0
 11
-75.821807861
 21
-1996.490112305
 31
0.0
  0
LINE
  5
3BB
100
AcDbEntity
  8
AUGSL1
  6
SOLID
 62
        3
100
AcDbLine
 10
-75.821807861
 20
-1996.490112305
 30
0.0
 11
-79.488113403
 21
-1996.490112305
 31
0.0
  0
LINE
  5
3BC
100
AcDbEntity
  8
AUGSL1
  6
SOLID
 62
        3
100
AcDbLine
 10
-77.654960632
 20
-1763.490112305
 30
0.0
 11
-77.654960632
 21
-2007.490112305
 31
0.0
  0
LINE
  5
3BD
100
AcDbEntity
  8
AUGSL1
  6
SOLID
 62
        3
100
AcDbLine
 10
-75.821807861
 20
-1774.490112305
 30
0.0
 11
-77.654960632
 21
-1763.490112305
 31
0.0
  0
LINE
  5
3BE
100
AcDbEntity
  8
AUGSL1
  6
SOLID
 62
        3
100
AcDbLine
 10
-77.654960632
 20
-1763.490112305
 30
0.0
 11
-79.488113403
 21
-1774.490112305
 31
0.0
  0
LINE
  5
3BF
100
AcDbEntity
  8
AUGSL1
  6
SOLID
 62
        3
100
AcDbLine
 10
-79.488113403
 20
-1774.490112305
 30
0.0
 11
-75.821807861
 21
-1774.490112305
 31
0.0
  0
TEXT
  5
3C0
100
AcDbEntity
  8
AUGSL1
  6
SOLID
 62
        3
100
AcDbText
 10
-83.154960632
 20
-1942.133911133
 30
0.0
 40
11.0
  1
%%c
 50
90.000002504
 72
        5
 11
-83.154960953
 21
-1934.801142216
 31
0.0
100
AcDbText
  0
TEXT
  5
3C1
100
AcDbEntity
  8
AUGSL1
  6
SOLID
 62
        3
100
AcDbText
 10
-83.154960632
 20
-1929.1171875
 30
0.0
 40
11.0
  1
210/240/320
 50
90.000002504
 72
        5
 11
-83.15496516
 21
-1825.546272278
 31
0.0
100
AcDbText
  0
ENDBLK
  5
3C2
100
AcDbEntity
  8
0
100
AcDbBlockEnd
  0
BLOCK
  5
408
100
AcDbEntity
  8
0
100
AcDbBlockBegin
  2
*D8
 70
        0
 10
0.0
 20
0.0
 30
0.0
  3
*D8
  1

  0
LINE
  5
409
100
AcDbEntity
  8
AUGSL1
  6
SOLID
 62
        3
100
AcDbLine
 10
-4.815505981
 20
-2021.061401367
 30
0.0
 11
-4.815505981
 21
-2145.101318359
 31
0.0
  0
LINE
  5
40A
100
AcDbEntity
  8
AUGSL1
  6
SOLID
 62
        3
100
AcDbLine
 10
310.184509277
 20
-2021.061401367
 30
0.0
 11
310.184509277
 21
-2145.101318359
 31
0.0
  0
LINE
  5
40B
100
AcDbEntity
  8
AUGSL1
  6
SOLID
 62
        3
100
AcDbLine
 10
-4.815505981
 20
-2143.529785156
 30
0.0
 11
310.184509277
 21
-2143.529785156
 31
0.0
  0
LINE
  5
40C
100
AcDbEntity
  8
AUGSL1
  6
SOLID
 62
        3
100
AcDbLine
 10
6.184494019
 20
-2141.696533203
 30
0.0
 11
-4.815505981
 21
-2143.529785156
 31
0.0
  0
LINE
  5
40D
100
AcDbEntity
  8
AUGSL1
  6
SOLID
 62
        3
100
AcDbLine
 10
-4.815505981
 20
-2143.529785156
 30
0.0
 11
6.184494019
 21
-2145.363037109
 31
0.0
  0
LINE
  5
40E
100
AcDbEntity
  8
AUGSL1
  6
SOLID
 62
        3
100
AcDbLine
 10
6.184494019
 20
-2145.363037109
 30
0.0
 11
6.184494019
 21
-2141.696533203
 31
0.0
  0
LINE
  5
40F
100
AcDbEntity
  8
AUGSL1
  6
SOLID
 62
        3
100
AcDbLine
 10
310.184509277
 20
-2143.529785156
 30
0.0
 11
-4.815505981
 21
-2143.529785156
 31
0.0
  0
LINE
  5
410
100
AcDbEntity
  8
AUGSL1
  6
SOLID
 62
        3
100
AcDbLine
 10
299.184509277
 20
-2145.363037109
 30
0.0
 11
310.184509277
 21
-2143.529785156
 31
0.0
  0
LINE
  5
411
100
AcDbEntity
  8
AUGSL1
  6
SOLID
 62
        3
100
AcDbLine
 10
310.184509277
 20
-2143.529785156
 30
0.0
 11
299.184509277
 21
-2141.696533203
 31
0.0
  0
LINE
  5
412
100
AcDbEntity
  8
AUGSL1
  6
SOLID
 62
        3
100
AcDbLine
 10
299.184509277
 20
-2141.696533203
 30
0.0
 11
299.184509277
 21
-2145.363037109
 31
0.0
  0
TEXT
  5
413
100
AcDbEntity
  8
AUGSL1
  6
SOLID
 62
        3
100
AcDbText
 10
139.761184692
 20
-2138.029785156
 30
0.0
 40
11.0
  1
320
 72
        5
 11
165.60779953
 21
-2138.029785156
 31
0.0
100
AcDbText
  0
ENDBLK
  5
414
100
AcDbEntity
  8
0
100
AcDbBlockEnd
  0
BLOCK
  5
424
100
AcDbEntity
  8
0
100
AcDbBlockBegin
  2
*D9
 70
        0
 10
0.0
 20
0.0
 30
0.0
  3
*D9
  1

  0
LINE
  5
425
100
AcDbEntity
  8
AUGSL1
  6
SOLID
 62
        3
100
AcDbLine
 10
21.11306572
 20
-2065.489990234
 30
0.0
 11
-49.582294464
 21
-2065.489990234
 31
0.0
  0
LINE
  5
426
100
AcDbEntity
  8
AUGSL1
  6
SOLID
 62
        3
100
AcDbLine
 10
-6.38693428
 20
-1739.489990234
 30
0.0
 11
-49.582294464
 21
-1739.489990234
 31
0.0
  0
LINE
  5
427
100
AcDbEntity
  8
AUGSL1
  6
SOLID
 62
        3
100
AcDbLine
 10
-48.010864258
 20
-2065.489990234
 30
0.0
 11
-48.010864258
 21
-1739.489990234
 31
0.0
  0
LINE
  5
428
100
AcDbEntity
  8
AUGSL1
  6
SOLID
 62
        3
100
AcDbLine
 10
-49.844013214
 20
-2054.489990234
 30
0.0
 11
-48.010864258
 21
-2065.489990234
 31
0.0
  0
LINE
  5
429
100
AcDbEntity
  8
AUGSL1
  6
SOLID
 62
        3
100
AcDbLine
 10
-48.010864258
 20
-2065.489990234
 30
0.0
 11
-46.177715302
 21
-2054.489990234
 31
0.0
  0
LINE
  5
42A
100
AcDbEntity
  8
AUGSL1
  6
SOLID
 62
        3
100
AcDbLine
 10
-46.177715302
 20
-2054.489990234
 30
0.0
 11
-49.844013214
 21
-2054.489990234
 31
0.0
  0
LINE
  5
42B
100
AcDbEntity
  8
AUGSL1
  6
SOLID
 62
        3
100
AcDbLine
 10
-48.010864258
 20
-1739.489990234
 30
0.0
 11
-48.010864258
 21
-2065.489990234
 31
0.0
  0
LINE
  5
42C
100
AcDbEntity
  8
AUGSL1
  6
SOLID
 62
        3
100
AcDbLine
 10
-46.177715302
 20
-1750.489990234
 30
0.0
 11
-48.010864258
 21
-1739.489990234
 31
0.0
  0
LINE
  5
42D
100
AcDbEntity
  8
AUGSL1
  6
SOLID
 62
        3
100
AcDbLine
 10
-48.010864258
 20
-1739.489990234
 30
0.0
 11
-49.844013214
 21
-1750.489990234
 31
0.0
  0
LINE
  5
42E
100
AcDbEntity
  8
AUGSL1
  6
SOLID
 62
        3
100
AcDbLine
 10
-49.844013214
 20
-1750.489990234
 30
0.0
 11
-46.177715302
 21
-1750.489990234
 31
0.0
  0
TEXT
  5
42F
100
AcDbEntity
  8
AUGSL1
  6
SOLID
 62
        3
100
AcDbText
 10
-53.510864258
 20
-1915.871948242
 30
0.0
 40
11.0
  1
326
 50
90.000002504
 72
        5
 11
-53.510865428
 21
-1889.108102798
 31
0.0
100
AcDbText
  0
ENDBLK
  5
430
100
AcDbEntity
  8
0
100
AcDbBlockEnd
  0
BLOCK
  5
43B
100
AcDbEntity
  8
0
100
AcDbBlockBegin
  2
*D10
 70
        0
 10
0.0
 20
0.0
 30
0.0
  3
*D10
  1

  0
LINE
  5
43C
100
AcDbEntity
  8
AUGSL1
  6
SOLID
 62
        3
100
AcDbLine
 10
-6.38693428
 20
-2019.489990234
 30
0.0
 11
-23.003763199
 21
-2019.489990234
 31
0.0
  0
LINE
  5
43D
100
AcDbEntity
  8
AUGSL1
  6
SOLID
 62
        3
100
AcDbLine
 10
-6.38693428
 20
-1739.489990234
 30
0.0
 11
-23.003763199
 21
-1739.489990234
 31
0.0
  0
LINE
  5
43E
100
AcDbEntity
  8
AUGSL1
  6
SOLID
 62
        3
100
AcDbLine
 10
-21.4323349
 20
-2019.489990234
 30
0.0
 11
-21.4323349
 21
-1739.489990234
 31
0.0
  0
LINE
  5
43F
100
AcDbEntity
  8
AUGSL1
  6
SOLID
 62
        3
100
AcDbLine
 10
-23.265483856
 20
-2008.489990234
 30
0.0
 11
-21.4323349
 21
-2019.489990234
 31
0.0
  0
LINE
  5
440
100
AcDbEntity
  8
AUGSL1
  6
SOLID
 62
        3
100
AcDbLine
 10
-21.4323349
 20
-2019.489990234
 30
0.0
 11
-19.599185944
 21
-2008.489990234
 31
0.0
  0
LINE
  5
441
100
AcDbEntity
  8
AUGSL1
  6
SOLID
 62
        3
100
AcDbLine
 10
-19.599185944
 20
-2008.489990234
 30
0.0
 11
-23.265483856
 21
-2008.489990234
 31
0.0
  0
LINE
  5
442
100
AcDbEntity
  8
AUGSL1
  6
SOLID
 62
        3
100
AcDbLine
 10
-21.4323349
 20
-1739.489990234
 30
0.0
 11
-21.4323349
 21
-2019.489990234
 31
0.0
  0
LINE
  5
443
100
AcDbEntity
  8
AUGSL1
  6
SOLID
 62
        3
100
AcDbLine
 10
-19.599185944
 20
-1750.489990234
 30
0.0
 11
-21.4323349
 21
-1739.489990234
 31
0.0
  0
LINE
  5
444
100
AcDbEntity
  8
AUGSL1
  6
SOLID
 62
        3
100
AcDbLine
 10
-21.4323349
 20
-1739.489990234
 30
0.0
 11
-23.265483856
 21
-1750.489990234
 31
0.0
  0
LINE
  5
445
100
AcDbEntity
  8
AUGSL1
  6
SOLID
 62
        3
100
AcDbLine
 10
-23.265483856
 20
-1750.489990234
 30
0.0
 11
-19.599185944
 21
-1750.489990234
 31
0.0
  0
TEXT
  5
446
100
AcDbEntity
  8
AUGSL1
  6
SOLID
 62
        3
100
AcDbText
 10
-26.9323349
 20
-1892.413330078
 30
0.0
 40
11.0
  1
280
 50
90.000002504
 72
        5
 11
-26.93233603
 21
-1866.56671524
 31
0.0
100
AcDbText
  0
ENDBLK
  5
447
100
AcDbEntity
  8
0
100
AcDbBlockEnd
  0
BLOCK
  5
44F
100
AcDbEntity
  8
0
100
AcDbBlockBegin
  2
*D11
 70
        0
 10
0.0
 20
0.0
 30
0.0
  3
*D11
  1

  0
LINE
  5
450
100
AcDbEntity
  8
AUGSL1
  6
SOLID
 62
        3
100
AcDbLine
 10
21.11306572
 20
-2065.489990234
 30
0.0
 11
-23.003763199
 21
-2065.489990234
 31
0.0
  0
LINE
  5
451
100
AcDbEntity
  8
AUGSL1
  6
SOLID
 62
        3
100
AcDbLine
 10
-6.38693428
 20
-2019.489990234
 30
0.0
 11
-23.003763199
 21
-2019.489990234
 31
0.0
  0
LINE
  5
452
100
AcDbEntity
  8
AUGSL1
  6
SOLID
 62
        3
100
AcDbLine
 10
-21.4323349
 20
-2065.489990234
 30
0.0
 11
-21.4323349
 21
-2019.489990234
 31
0.0
  0
LINE
  5
453
100
AcDbEntity
  8
AUGSL1
  6
SOLID
 62
        3
100
AcDbLine
 10
-23.265483856
 20
-2054.489990234
 30
0.0
 11
-21.4323349
 21
-2065.489990234
 31
0.0
  0
LINE
  5
454
100
AcDbEntity
  8
AUGSL1
  6
SOLID
 62
        3
100
AcDbLine
 10
-21.4323349
 20
-2065.489990234
 30
0.0
 11
-19.599185944
 21
-2054.489990234
 31
0.0
  0
LINE
  5
455
100
AcDbEntity
  8
AUGSL1
  6
SOLID
 62
        3
100
AcDbLine
 10
-19.599185944
 20
-2054.489990234
 30
0.0
 11
-23.265483856
 21
-2054.489990234
 31
0.0
  0
LINE
  5
456
100
AcDbEntity
  8
AUGSL1
  6
SOLID
 62
        3
100
AcDbLine
 10
-21.4323349
 20
-2019.489990234
 30
0.0
 11
-21.4323349
 21
-2065.489990234
 31
0.0
  0
LINE
  5
457
100
AcDbEntity
  8
AUGSL1
  6
SOLID
 62
        3
100
AcDbLine
 10
-19.599185944
 20
-2030.489990234
 30
0.0
 11
-21.4323349
 21
-2019.489990234
 31
0.0
  0
LINE
  5
458
100
AcDbEntity
  8
AUGSL1
  6
SOLID
 62
        3
100
AcDbLine
 10
-21.4323349
 20
-2019.489990234
 30
0.0
 11
-23.265483856
 21
-2030.489990234
 31
0.0
  0
LINE
  5
459
100
AcDbEntity
  8
AUGSL1
  6
SOLID
 62
        3
100
AcDbLine
 10
-23.265483856
 20
-2030.489990234
 30
0.0
 11
-19.599185944
 21
-2030.489990234
 31
0.0
  0
TEXT
  5
45A
100
AcDbEntity
  8
AUGSL1
  6
SOLID
 62
        3
100
AcDbText
 10
-26.9323349
 20
-2051.014160156
 30
0.0
 40
11.0
  1
46
 50
90.000002504
 72
        5
 11
-26.932335645
 21
-2033.965852737
 31
0.0
100
AcDbText
  0
ENDBLK
  5
45B
100
AcDbEntity
  8
0
100
AcDbBlockEnd
  0
BLOCK
  5
47B
100
AcDbEntity
  8
0
100
AcDbBlockBegin
  2
*D12
 70
        0
 10
0.0
 20
0.0
 30
0.0
  3
*D12
  1

  0
LINE
  5
47C
100
AcDbEntity
  8
AUGSL1
  6
SOLID
 62
        3
100
AcDbLine
 10
-288.05291748
 20
-2067.061767578
 30
0.0
 11
-288.05291748
 21
-2097.833740234
 31
0.0
  0
LINE
  5
47D
100
AcDbEntity
  8
AUGSL1
  6
SOLID
 62
        3
100
AcDbLine
 10
-238.052932739
 20
-2067.061767578
 30
0.0
 11
-238.052932739
 21
-2097.833740234
 31
0.0
  0
LINE
  5
47E
100
AcDbEntity
  8
AUGSL1
  6
SOLID
 62
        3
100
AcDbLine
 10
-288.05291748
 20
-2096.262207031
 30
0.0
 11
-238.052932739
 21
-2096.262207031
 31
0.0
  0
LINE
  5
47F
100
AcDbEntity
  8
AUGSL1
  6
SOLID
 62
        3
100
AcDbLine
 10
-277.05291748
 20
-2094.428955078
 30
0.0
 11
-288.05291748
 21
-2096.262207031
 31
0.0
  0
LINE
  5
480
100
AcDbEntity
  8
AUGSL1
  6
SOLID
 62
        3
100
AcDbLine
 10
-288.05291748
 20
-2096.262207031
 30
0.0
 11
-277.05291748
 21
-2098.095458984
 31
0.0
  0
LINE
  5
481
100
AcDbEntity
  8
AUGSL1
  6
SOLID
 62
        3
100
AcDbLine
 10
-277.05291748
 20
-2098.095458984
 30
0.0
 11
-277.05291748
 21
-2094.428955078
 31
0.0
  0
LINE
  5
482
100
AcDbEntity
  8
AUGSL1
  6
SOLID
 62
        3
100
AcDbLine
 10
-238.052932739
 20
-2096.262207031
 30
0.0
 11
-288.05291748
 21
-2096.262207031
 31
0.0
  0
LINE
  5
483
100
AcDbEntity
  8
AUGSL1
  6
SOLID
 62
        3
100
AcDbLine
 10
-249.052932739
 20
-2098.095458984
 30
0.0
 11
-238.052932739
 21
-2096.262207031
 31
0.0
  0
LINE
  5
484
100
AcDbEntity
  8
AUGSL1
  6
SOLID
 62
        3
100
AcDbLine
 10
-238.052932739
 20
-2096.262207031
 30
0.0
 11
-249.052932739
 21
-2094.428955078
 31
0.0
  0
LINE
  5
485
100
AcDbEntity
  8
AUGSL1
  6
SOLID
 62
        3
100
AcDbLine
 10
-249.052932739
 20
-2094.428955078
 30
0.0
 11
-249.052932739
 21
-2098.095458984
 31
0.0
  0
TEXT
  5
486
100
AcDbEntity
  8
AUGSL1
  6
SOLID
 62
        3
100
AcDbText
 10
-282.76159668
 20
-2090.762207031
 30
0.0
 40
11.0
  1
50
 72
        5
 11
-266.630519867
 21
-2090.762207031
 31
0.0
100
AcDbText
  0
ENDBLK
  5
487
100
AcDbEntity
  8
0
100
AcDbBlockEnd
  0
BLOCK
  5
49B
100
AcDbEntity
  8
0
100
AcDbBlockBegin
  2
*D13
 70
        0
 10
0.0
 20
0.0
 30
0.0
  3
*D13
  1

  0
LINE
  5
49C
100
AcDbEntity
  8
AUGSL1
  6
SOLID
 62
        3
100
AcDbLine
 10
-663.052856445
 20
-2067.061767578
 30
0.0
 11
-663.052856445
 21
-2097.833740234
 31
0.0
  0
LINE
  5
49D
100
AcDbEntity
  8
AUGSL1
  6
SOLID
 62
        3
100
AcDbLine
 10
-613.05291748
 20
-2067.061767578
 30
0.0
 11
-613.05291748
 21
-2097.833740234
 31
0.0
  0
LINE
  5
49E
100
AcDbEntity
  8
AUGSL1
  6
SOLID
 62
        3
100
AcDbLine
 10
-663.052856445
 20
-2096.262207031
 30
0.0
 11
-613.05291748
 21
-2096.262207031
 31
0.0
  0
LINE
  5
49F
100
AcDbEntity
  8
AUGSL1
  6
SOLID
 62
        3
100
AcDbLine
 10
-652.052856445
 20
-2094.428955078
 30
0.0
 11
-663.052856445
 21
-2096.262207031
 31
0.0
  0
LINE
  5
4A0
100
AcDbEntity
  8
AUGSL1
  6
SOLID
 62
        3
100
AcDbLine
 10
-663.052856445
 20
-2096.262207031
 30
0.0
 11
-652.052856445
 21
-2098.095458984
 31
0.0
  0
LINE
  5
4A1
100
AcDbEntity
  8
AUGSL1
  6
SOLID
 62
        3
100
AcDbLine
 10
-652.052856445
 20
-2098.095458984
 30
0.0
 11
-652.052856445
 21
-2094.428955078
 31
0.0
  0
LINE
  5
4A2
100
AcDbEntity
  8
AUGSL1
  6
SOLID
 62
        3
100
AcDbLine
 10
-613.05291748
 20
-2096.262207031
 30
0.0
 11
-663.052856445
 21
-2096.262207031
 31
0.0
  0
LINE
  5
4A3
100
AcDbEntity
  8
AUGSL1
  6
SOLID
 62
        3
100
AcDbLine
 10
-624.05291748
 20
-2098.095458984
 30
0.0
 11
-613.05291748
 21
-2096.262207031
 31
0.0
  0
LINE
  5
4A4
100
AcDbEntity
  8
AUGSL1
  6
SOLID
 62
        3
100
AcDbLine
 10
-613.05291748
 20
-2096.262207031
 30
0.0
 11
-624.05291748
 21
-2094.428955078
 31
0.0
  0
LINE
  5
4A5
100
AcDbEntity
  8
AUGSL1
  6
SOLID
 62
        3
100
AcDbLine
 10
-624.05291748
 20
-2094.428955078
 30
0.0
 11
-624.05291748
 21
-2098.095458984
 31
0.0
  0
TEXT
  5
4A6
100
AcDbEntity
  8
AUGSL1
  6
SOLID
 62
        3
100
AcDbText
 10
-635.885620117
 20
-2090.762207031
 30
0.0
 40
11.0
  1
50
 72
        5
 11
-619.754543304
 21
-2090.762207031
 31
0.0
100
AcDbText
  0
ENDBLK
  5
4A7
100
AcDbEntity
  8
0
100
AcDbBlockEnd
  0
BLOCK
  5
4B0
100
AcDbEntity
  8
0
100
AcDbBlockBegin
  2
*D14
 70
        0
 10
0.0
 20
0.0
 30
0.0
  3
*D14
  1

  0
LINE
  5
4B1
100
AcDbEntity
  8
AUGSL1
  6
SOLID
 62
        3
100
AcDbLine
 10
281.684143066
 20
-2065.490234375
 30
0.0
 11
229.956588745
 21
-2065.490234375
 31
0.0
  0
LINE
  5
4B2
100
AcDbEntity
  8
AUGSL1
  6
SOLID
 62
        3
100
AcDbLine
 10
272.687072754
 20
-2025.490112305
 30
0.0
 11
229.956588745
 21
-2025.490112305
 31
0.0
  0
LINE
  5
4B3
100
AcDbEntity
  8
AUGSL1
  6
SOLID
 62
        3
100
AcDbLine
 10
230.956588745
 20
-2065.490234375
 30
0.0
 11
230.956588745
 21
-2025.490112305
 31
0.0
  0
LINE
  5
4B4
100
AcDbEntity
  8
AUGSL1
  6
SOLID
 62
        3
100
AcDbLine
 10
230.339981079
 20
-2061.790283203
 30
0.0
 11
230.956588745
 21
-2065.490234375
 31
0.0
  0
LINE
  5
4B5
100
AcDbEntity
  8
AUGSL1
  6
SOLID
 62
        3
100
AcDbLine
 10
230.956588745
 20
-2065.490234375
 30
0.0
 11
231.573196411
 21
-2061.790283203
 31
0.0
  0
LINE
  5
4B6
100
AcDbEntity
  8
AUGSL1
  6
SOLID
 62
        3
100
AcDbLine
 10
231.573196411
 20
-2061.790283203
 30
0.0
 11
230.339981079
 21
-2061.790283203
 31
0.0
  0
LINE
  5
4B7
100
AcDbEntity
  8
AUGSL1
  6
SOLID
 62
        3
100
AcDbLine
 10
230.956588745
 20
-2025.490112305
 30
0.0
 11
230.956588745
 21
-2065.490234375
 31
0.0
  0
LINE
  5
4B8
100
AcDbEntity
  8
AUGSL1
  6
SOLID
 62
        3
100
AcDbLine
 10
231.573196411
 20
-2029.190063477
 30
0.0
 11
230.956588745
 21
-2025.490112305
 31
0.0
  0
LINE
  5
4B9
100
AcDbEntity
  8
AUGSL1
  6
SOLID
 62
        3
100
AcDbLine
 10
230.956588745
 20
-2025.490112305
 30
0.0
 11
230.339981079
 21
-2029.190063477
 31
0.0
  0
LINE
  5
4BA
100
AcDbEntity
  8
AUGSL1
  6
SOLID
 62
        3
100
AcDbLine
 10
230.339981079
 20
-2029.190063477
 30
0.0
 11
231.573196411
 21
-2029.190063477
 31
0.0
  0
TEXT
  5
4BB
100
AcDbEntity
  8
AUGSL1
  6
SOLID
 62
        3
100
AcDbText
 10
229.106582642
 20
-2048.203125
 30
0.0
 40
3.700000048
  1
40
 50
90.000002504
 72
        5
 11
229.106582404
 21
-2042.777217388
 31
0.0
100
AcDbText
  0
ENDBLK
  5
4BC
100
AcDbEntity
  8
0
100
AcDbBlockEnd
  0
BLOCK
  5
4C0
100
AcDbEntity
  8
0
100
AcDbBlockBegin
  2
*D15
 70
        0
 10
0.0
 20
0.0
 30
0.0
  3
*D15
  1

  0
LINE
  5
4C1
100
AcDbEntity
  8
AUGSL1
  6
SOLID
 62
        3
100
AcDbLine
 10
82.684127808
 20
-2068.463134766
 30
0.0
 11
82.684127808
 21
-2080.502685547
 31
0.0
  0
LINE
  5
4C2
100
AcDbEntity
  8
AUGSL1
  6
SOLID
 62
        3
100
AcDbLine
 10
222.684127808
 20
-2068.463134766
 30
0.0
 11
222.684127808
 21
-2080.502685547
 31
0.0
  0
LINE
  5
4C3
100
AcDbEntity
  8
AUGSL1
  6
SOLID
 62
        3
100
AcDbLine
 10
82.684127808
 20
-2077.529785156
 30
0.0
 11
222.684127808
 21
-2077.529785156
 31
0.0
  0
LINE
  5
4C4
100
AcDbEntity
  8
AUGSL1
  6
SOLID
 62
        3
100
AcDbLine
 10
93.684127808
 20
-2075.696533203
 30
0.0
 11
82.684127808
 21
-2077.529785156
 31
0.0
  0
LINE
  5
4C5
100
AcDbEntity
  8
AUGSL1
  6
SOLID
 62
        3
100
AcDbLine
 10
82.684127808
 20
-2077.529785156
 30
0.0
 11
93.684127808
 21
-2079.363037109
 31
0.0
  0
LINE
  5
4C6
100
AcDbEntity
  8
AUGSL1
  6
SOLID
 62
        3
100
AcDbLine
 10
93.684127808
 20
-2079.363037109
 30
0.0
 11
93.684127808
 21
-2075.696533203
 31
0.0
  0
LINE
  5
4C7
100
AcDbEntity
  8
AUGSL1
  6
SOLID
 62
        3
100
AcDbLine
 10
222.684127808
 20
-2077.529785156
 30
0.0
 11
82.684127808
 21
-2077.529785156
 31
0.0
  0
LINE
  5
4C8
100
AcDbEntity
  8
AUGSL1
  6
SOLID
 62
        3
100
AcDbLine
 10
211.684127808
 20
-2079.363037109
 30
0.0
 11
222.684127808
 21
-2077.529785156
 31
0.0
  0
LINE
  5
4C9
100
AcDbEntity
  8
AUGSL1
  6
SOLID
 62
        3
100
AcDbLine
 10
222.684127808
 20
-2077.529785156
 30
0.0
 11
211.684127808
 21
-2075.696533203
 31
0.0
  0
LINE
  5
4CA
100
AcDbEntity
  8
AUGSL1
  6
SOLID
 62
        3
100
AcDbLine
 10
211.684127808
 20
-2075.696533203
 30
0.0
 11
211.684127808
 21
-2079.363037109
 31
0.0
  0
TEXT
  5
4CB
100
AcDbEntity
  8
AUGSL1
  6
SOLID
 62
        3
100
AcDbText
 10
139.760818481
 20
-2072.029785156
 30
0.0
 40
11.0
  1
140
 72
        5
 11
165.607433319
 21
-2072.029785156
 31
0.0
100
AcDbText
  0
ENDBLK
  5
4CC
100
AcDbEntity
  8
0
100
AcDbBlockEnd
  0
BLOCK
  5
4D0
100
AcDbEntity
  8
0
100
AcDbBlockBegin
  2
*D16
 70
        0
 10
0.0
 20
0.0
 30
0.0
  3
*D16
  1

  0
LINE
  5
4D1
100
AcDbEntity
  8
AUGSL1
  6
SOLID
 62
        3
100
AcDbLine
 10
52.684127808
 20
-2080.514404297
 30
0.0
 11
52.684127808
 21
-2102.502685547
 31
0.0
  0
LINE
  5
4D2
100
AcDbEntity
  8
AUGSL1
  6
SOLID
 62
        3
100
AcDbLine
 10
252.684127808
 20
-2080.514404297
 30
0.0
 11
252.684127808
 21
-2102.502685547
 31
0.0
  0
LINE
  5
4D3
100
AcDbEntity
  8
AUGSL1
  6
SOLID
 62
        3
100
AcDbLine
 10
52.684127808
 20
-2099.529785156
 30
0.0
 11
252.684127808
 21
-2099.529785156
 31
0.0
  0
LINE
  5
4D4
100
AcDbEntity
  8
AUGSL1
  6
SOLID
 62
        3
100
AcDbLine
 10
63.684127808
 20
-2097.696533203
 30
0.0
 11
52.684127808
 21
-2099.529785156
 31
0.0
  0
LINE
  5
4D5
100
AcDbEntity
  8
AUGSL1
  6
SOLID
 62
        3
100
AcDbLine
 10
52.684127808
 20
-2099.529785156
 30
0.0
 11
63.684127808
 21
-2101.363037109
 31
0.0
  0
LINE
  5
4D6
100
AcDbEntity
  8
AUGSL1
  6
SOLID
 62
        3
100
AcDbLine
 10
63.684127808
 20
-2101.363037109
 30
0.0
 11
63.684127808
 21
-2097.696533203
 31
0.0
  0
LINE
  5
4D7
100
AcDbEntity
  8
AUGSL1
  6
SOLID
 62
        3
100
AcDbLine
 10
252.684127808
 20
-2099.529785156
 30
0.0
 11
52.684127808
 21
-2099.529785156
 31
0.0
  0
LINE
  5
4D8
100
AcDbEntity
  8
AUGSL1
  6
SOLID
 62
        3
100
AcDbLine
 10
241.684127808
 20
-2101.363037109
 30
0.0
 11
252.684127808
 21
-2099.529785156
 31
0.0
  0
LINE
  5
4D9
100
AcDbEntity
  8
AUGSL1
  6
SOLID
 62
        3
100
AcDbLine
 10
252.684127808
 20
-2099.529785156
 30
0.0
 11
241.684127808
 21
-2097.696533203
 31
0.0
  0
LINE
  5
4DA
100
AcDbEntity
  8
AUGSL1
  6
SOLID
 62
        3
100
AcDbLine
 10
241.684127808
 20
-2097.696533203
 30
0.0
 11
241.684127808
 21
-2101.363037109
 31
0.0
  0
TEXT
  5
4DB
100
AcDbEntity
  8
AUGSL1
  6
SOLID
 62
        3
100
AcDbText
 10
139.760818481
 20
-2094.029785156
 30
0.0
 40
11.0
  1
200
 72
        5
 11
165.607433319
 21
-2094.029785156
 31
0.0
100
AcDbText
  0
ENDBLK
  5
4DC
100
AcDbEntity
  8
0
100
AcDbBlockEnd
  0
BLOCK
  5
4E0
100
AcDbEntity
  8
0
100
AcDbBlockBegin
  2
*D17
 70
        0
 10
0.0
 20
0.0
 30
0.0
  3
*D17
  1

  0
LINE
  5
4E1
100
AcDbEntity
  8
AUGSL1
  6
SOLID
 62
        3
100
AcDbLine
 10
22.684127808
 20
-2068.463134766
 30
0.0
 11
22.684127808
 21
-2124.502685547
 31
0.0
  0
LINE
  5
4E2
100
AcDbEntity
  8
AUGSL1
  6
SOLID
 62
        3
100
AcDbLine
 10
282.684143066
 20
-2068.463134766
 30
0.0
 11
282.684143066
 21
-2124.502685547
 31
0.0
  0
LINE
  5
4E3
100
AcDbEntity
  8
AUGSL1
  6
SOLID
 62
        3
100
AcDbLine
 10
22.684127808
 20
-2121.529785156
 30
0.0
 11
282.684143066
 21
-2121.529785156
 31
0.0
  0
LINE
  5
4E4
100
AcDbEntity
  8
AUGSL1
  6
SOLID
 62
        3
100
AcDbLine
 10
33.684127808
 20
-2119.696533203
 30
0.0
 11
22.684127808
 21
-2121.529785156
 31
0.0
  0
LINE
  5
4E5
100
AcDbEntity
  8
AUGSL1
  6
SOLID
 62
        3
100
AcDbLine
 10
22.684127808
 20
-2121.529785156
 30
0.0
 11
33.684127808
 21
-2123.363037109
 31
0.0
  0
LINE
  5
4E6
100
AcDbEntity
  8
AUGSL1
  6
SOLID
 62
        3
100
AcDbLine
 10
33.684127808
 20
-2123.363037109
 30
0.0
 11
33.684127808
 21
-2119.696533203
 31
0.0
  0
LINE
  5
4E7
100
AcDbEntity
  8
AUGSL1
  6
SOLID
 62
        3
100
AcDbLine
 10
282.684143066
 20
-2121.529785156
 30
0.0
 11
22.684127808
 21
-2121.529785156
 31
0.0
  0
LINE
  5
4E8
100
AcDbEntity
  8
AUGSL1
  6
SOLID
 62
        3
100
AcDbLine
 10
271.684143066
 20
-2123.363037109
 30
0.0
 11
282.684143066
 21
-2121.529785156
 31
0.0
  0
LINE
  5
4E9
100
AcDbEntity
  8
AUGSL1
  6
SOLID
 62
        3
100
AcDbLine
 10
282.684143066
 20
-2121.529785156
 30
0.0
 11
271.684143066
 21
-2119.696533203
 31
0.0
  0
LINE
  5
4EA
100
AcDbEntity
  8
AUGSL1
  6
SOLID
 62
        3
100
AcDbLine
 10
271.684143066
 20
-2119.696533203
 30
0.0
 11
271.684143066
 21
-2123.363037109
 31
0.0
  0
TEXT
  5
4EB
100
AcDbEntity
  8
AUGSL1
  6
SOLID
 62
        3
100
AcDbText
 10
139.760818481
 20
-2116.029785156
 30
0.0
 40
11.0
  1
260
 72
        5
 11
165.607433319
 21
-2116.029785156
 31
0.0
100
AcDbText
  0
ENDBLK
  5
4EC
100
AcDbEntity
  8
0
100
AcDbBlockEnd
  0
BLOCK
  5
56C
100
AcDbEntity
  8
0
100
AcDbBlockBegin
  2
*D18
 70
        0
 10
0.0
 20
0.0
 30
0.0
  3
*D18
  1

  0
LINE
  5
56D
100
AcDbEntity
  8
AUGSL1
  6
SOLID
 62
        3
100
AcDbLine
 10
-225.052627563
 20
-1761.918701172
 30
0.0
 11
-225.052627563
 21
-1713.970825195
 31
0.0
  0
LINE
  5
56E
100
AcDbEntity
  8
AUGSL1
  6
SOLID
 62
        3
100
AcDbLine
 10
-105.052627563
 20
-1761.918701172
 30
0.0
 11
-105.052627563
 21
-1713.970825195
 31
0.0
  0
LINE
  5
56F
100
AcDbEntity
  8
AUGSL1
  6
SOLID
 62
        3
100
AcDbLine
 10
-225.052627563
 20
-1715.542236328
 30
0.0
 11
-105.052627563
 21
-1715.542236328
 31
0.0
  0
LINE
  5
570
100
AcDbEntity
  8
AUGSL1
  6
SOLID
 62
        3
100
AcDbLine
 10
-214.052627563
 20
-1713.709106445
 30
0.0
 11
-225.052627563
 21
-1715.542236328
 31
0.0
  0
LINE
  5
571
100
AcDbEntity
  8
AUGSL1
  6
SOLID
 62
        3
100
AcDbLine
 10
-225.052627563
 20
-1715.542236328
 30
0.0
 11
-214.052627563
 21
-1717.375366211
 31
0.0
  0
LINE
  5
572
100
AcDbEntity
  8
AUGSL1
  6
SOLID
 62
        3
100
AcDbLine
 10
-214.052627563
 20
-1717.375366211
 30
0.0
 11
-214.052627563
 21
-1713.709106445
 31
0.0
  0
LINE
  5
573
100
AcDbEntity
  8
AUGSL1
  6
SOLID
 62
        3
100
AcDbLine
 10
-105.052627563
 20
-1715.542236328
 30
0.0
 11
-225.052627563
 21
-1715.542236328
 31
0.0
  0
LINE
  5
574
100
AcDbEntity
  8
AUGSL1
  6
SOLID
 62
        3
100
AcDbLine
 10
-116.052627563
 20
-1717.375366211
 30
0.0
 11
-105.052627563
 21
-1715.542236328
 31
0.0
  0
LINE
  5
575
100
AcDbEntity
  8
AUGSL1
  6
SOLID
 62
        3
100
AcDbLine
 10
-105.052627563
 20
-1715.542236328
 30
0.0
 11
-116.052627563
 21
-1713.709106445
 31
0.0
  0
LINE
  5
576
100
AcDbEntity
  8
AUGSL1
  6
SOLID
 62
        3
100
AcDbLine
 10
-116.052627563
 20
-1713.709106445
 30
0.0
 11
-116.052627563
 21
-1717.375366211
 31
0.0
  0
TEXT
  5
577
100
AcDbEntity
  8
AUGSL1
  6
SOLID
 62
        3
100
AcDbText
 10
-177.97593689
 20
-1710.042236328
 30
0.0
 40
11.0
  1
120
 72
        5
 11
-152.129322052
 21
-1710.042236328
 31
0.0
100
AcDbText
  0
ENDBLK
  5
578
100
AcDbEntity
  8
0
100
AcDbBlockEnd
  0
ENDSEC
  0
SECTION
  2
ENTITIES
  0
ARC
  5
56
100
AcDbEntity
  8
AUGSL1
  6
SOLID
 62
        3
100
AcDbCircle
 10
152.684492903
 20
-1885.490034586
 30
0.0
 40
20.0
100
AcDbArc
 50
42.369942135
 51
165.086280637
  0
CIRCLE
  5
57
100
AcDbEntity
  8
AUGSL1
  6
SOLID
 62
        3
100
AcDbCircle
 10
152.684492903
 20
-1885.490034586
 30
0.0
 40
28.0
  0
LINE
  5
58
100
AcDbEntity
  8
AUGSL1
  6
SOLID
 62
        3
100
AcDbLine
 10
167.628758731
 20
-1875.853947599
 30
0.0
 11
166.109446345
 21
-1877.843998414
 31
0.0
  0
ARC
  5
59
100
AcDbEntity
  8
AUGSL1
  6
SOLID
 62
        3
100
AcDbCircle
 10
170.083634848
 20
-1880.878108785
 30
0.0
 40
5.0
100
AcDbArc
 50
142.639928744
 51
194.845775288
  0
ARC
  5
5A
100
AcDbEntity
  8
AUGSL1
  6
SOLID
 62
        3
100
AcDbCircle
 10
165.244245629
 20
-1874.033481376
 30
0.0
 40
3.0
100
AcDbArc
 50
322.639928744
 51
42.369942135
  0
CIRCLE
  5
5B
100
AcDbEntity
  8
AUGSL1
  6
SOLID
 62
        3
100
AcDbCircle
 10
152.684492903
 20
-1885.490034586
 30
0.0
 40
10.0
  0
ARC
  5
5C
100
AcDbEntity
  8
AUGSL1
  6
SOLID
 62
        3
100
AcDbCircle
 10
152.684492903
 20
-1885.490034586
 30
0.0
 40
13.0
100
AcDbArc
 50
194.477606223
 51
14.845775288
  0
LINE
  5
5D
100
AcDbEntity
  8
AUGSL1
  6
SOLID
 62
        3
100
AcDbLine
 10
134.630432743
 20
-1883.635518322
 30
0.0
 11
137.967265184
 21
-1885.788938456
 31
0.0
  0
ARC
  5
5E
100
AcDbEntity
  8
AUGSL1
  6
SOLID
 62
        3
100
AcDbCircle
 10
136.257146715
 20
-1881.114843481
 30
0.0
 40
3.0
100
AcDbArc
 50
165.086280637
 51
237.163881096
  0
ARC
  5
5F
100
AcDbEntity
  8
AUGSL1
  6
SOLID
 62
        3
100
AcDbCircle
 10
135.256075231
 20
-1889.990063191
 30
0.0
 40
5.0
100
AcDbArc
 50
14.477606223
 51
57.163881096
  0
LINE
  5
60
100
AcDbEntity
  8
AUGSL1
  6
SOLID
 62
        7
100
AcDbLine
 10
-719.653089982
 20
-2367.890111923
 30
0.0
 11
-719.653089982
 21
-2370.490112305
 31
0.0
  0
LINE
  5
61
100
AcDbEntity
  8
AUGSL1
  6
SOLID
 62
        7
100
AcDbLine
 10
-719.653089982
 20
-2354.011290885
 30
0.0
 11
-719.653089982
 21
-2370.490112305
 31
0.0
  0
LINE
  5
62
100
AcDbEntity
  8
AUGSL1
  6
SOLID
 62
        7
100
AcDbLine
 10
-686.053088409
 20
-2370.490112305
 30
0.0
 11
-705.053088409
 21
-2370.490112305
 31
0.0
  0
LINE
  5
63
100
AcDbEntity
  8
AUGSL1
  6
SOLID
 62
        7
100
AcDbLine
 10
-719.653089982
 20
-2370.490112305
 30
0.0
 11
-764.453089934
 21
-2370.490112305
 31
0.0
  0
LINE
  5
65
100
AcDbEntity
  8
AUGSL1
  6
CENTER
 62
        3
100
AcDbLine
 10
-740.23240503
 20
-2381.490112305
 30
0.0
 11
-779.903426388
 21
-2381.490112305
 31
0.0
  0
LINE
  5
66
100
AcDbEntity
  8
AUGSL1
  6
SOLID
 62
        7
100
AcDbLine
 10
-764.453089934
 20
-2391.490112305
 30
0.0
 11
-769.453089934
 21
-2391.490112305
 31
0.0
  0
LINE
  5
67
100
AcDbEntity
  8
AUGSL1
  6
SOLID
 62
        3
100
AcDbLine
 10
-668.053088409
 20
-2460.490112305
 30
0.0
 11
-686.053088409
 21
-2460.490112305
 31
0.0
  0
LINE
  5
68
100
AcDbEntity
  8
AUGSL1
  6
SOLID
 62
        7
100
AcDbLine
 10
-703.053088409
 20
-2372.990112305
 30
0.0
 11
-703.053088409
 21
-2370.490112305
 31
0.0
  0
LINE
  5
69
100
AcDbEntity
  8
AUGSL1
  6
SOLID
 62
        7
100
AcDbLine
 10
-719.653089982
 20
-2316.968933724
 30
0.0
 11
-719.653089982
 21
-2300.490112305
 31
0.0
  0
LINE
  5
6A
100
AcDbEntity
  8
AUGSL1
  6
SOLID
 62
        7
100
AcDbLine
 10
-719.653089982
 20
-2300.490112305
 30
0.0
 11
-764.453089934
 21
-2300.490112305
 31
0.0
  0
LINE
  5
6B
100
AcDbEntity
  8
AUGSL1
  6
CENTER
 62
        3
100
AcDbLine
 10
-740.23240503
 20
-2289.490112305
 30
0.0
 11
-779.903426388
 21
-2289.490112305
 31
0.0
  0
LINE
  5
6C
100
AcDbEntity
  8
AUGSL1
  6
CENTER
 62
        7
100
AcDbLine
 10
-463.052964051
 20
-2335.490112305
 30
0.0
 11
-463.052964051
 21
-2341.240112305
 31
0.0
  0
LINE
  5
6D
100
AcDbEntity
  8
AUGSL1
  6
CENTER
 62
        7
100
AcDbLine
 10
-463.052964051
 20
-2335.490112305
 30
0.0
 11
-463.052964051
 21
-2329.740112305
 31
0.0
  0
LINE
  5
6E
100
AcDbEntity
  8
AUGSL1
  6
CENTER
 62
        7
100
AcDbLine
 10
-463.052964051
 20
-2335.490112305
 30
0.0
 11
-468.802964051
 21
-2335.490112305
 31
0.0
  0
LINE
  5
6F
100
AcDbEntity
  8
AUGSL1
  6
CENTER
 62
        7
100
AcDbLine
 10
-463.052964051
 20
-2335.490112305
 30
0.0
 11
-457.302964051
 21
-2335.490112305
 31
0.0
  0
CIRCLE
  5
70
100
AcDbEntity
  8
AUGSL1
  6
SOLID
 62
        1
100
AcDbCircle
 10
-463.052967072
 20
-2335.490112305
 30
0.0
 40
5.0
  0
LINE
  5
71
100
AcDbEntity
  8
AUGSL1
  6
SOLID
 62
        1
100
AcDbLine
 10
-460.552967072
 20
-2336.933488011
 30
0.0
 11
-460.552967072
 21
-2334.046736598
 31
0.0
  0
LINE
  5
72
100
AcDbEntity
  8
AUGSL1
  6
SOLID
 62
        1
100
AcDbLine
 10
-463.052967072
 20
-2338.376863718
 30
0.0
 11
-460.552967024
 21
-2336.933487992
 31
0.0
  0
LINE
  5
73
100
AcDbEntity
  8
AUGSL1
  6
SOLID
 62
        1
100
AcDbLine
 10
-465.552967072
 20
-2336.933488011
 30
0.0
 11
-463.052967024
 21
-2338.376863737
 31
0.0
  0
LINE
  5
74
100
AcDbEntity
  8
AUGSL1
  6
SOLID
 62
        1
100
AcDbLine
 10
-465.552967072
 20
-2334.046736598
 30
0.0
 11
-465.552967072
 21
-2336.933488011
 31
0.0
  0
LINE
  5
75
100
AcDbEntity
  8
AUGSL1
  6
SOLID
 62
        1
100
AcDbLine
 10
-463.052967072
 20
-2332.603360891
 30
0.0
 11
-465.552967119
 21
-2334.046736617
 31
0.0
  0
LINE
  5
76
100
AcDbEntity
  8
AUGSL1
  6
SOLID
 62
        1
100
AcDbLine
 10
-460.552967072
 20
-2334.046736598
 30
0.0
 11
-463.052967119
 21
-2332.603360872
 31
0.0
  0
INSERT
  5
80
100
AcDbEntity
  8
AUGSL1
100
AcDbBlockReference
  2
*L0
 10
0.0
 20
0.0
 30
0.0
  0
LINE
  5
81
100
AcDbEntity
  8
AUGSL1
  6
CENTER
 62
        2
100
AcDbLine
 10
-96.28363831
 20
-2335.490112305
 30
0.0
 11
-775.528500497
 21
-2335.490112305
 31
0.0
  0
LINE
  5
82
100
AcDbEntity
  8
AUGSL1
  6
CENTER
 62
        7
100
AcDbLine
 10
-566.552964051
 20
-2405.490112305
 30
0.0
 11
-566.552964051
 21
-2411.240112305
 31
0.0
  0
LINE
  5
83
100
AcDbEntity
  8
AUGSL1
  6
CENTER
 62
        7
100
AcDbLine
 10
-566.552964051
 20
-2405.490112305
 30
0.0
 11
-566.552964051
 21
-2399.740112305
 31
0.0
  0
LINE
  5
84
100
AcDbEntity
  8
AUGSL1
  6
CENTER
 62
        7
100
AcDbLine
 10
-566.552964051
 20
-2405.490112305
 30
0.0
 11
-572.302964051
 21
-2405.490112305
 31
0.0
  0
LINE
  5
85
100
AcDbEntity
  8
AUGSL1
  6
CENTER
 62
        7
100
AcDbLine
 10
-566.552964051
 20
-2405.490112305
 30
0.0
 11
-560.802964051
 21
-2405.490112305
 31
0.0
  0
LINE
  5
86
100
AcDbEntity
  8
AUGSL1
  6
SOLID
 62
        7
100
AcDbLine
 10
-635.053088409
 20
-2248.490112305
 30
0.0
 11
-649.053088409
 21
-2248.490112305
 31
0.0
  0
ARC
  5
87
100
AcDbEntity
  8
AUGSL1
  6
SOLID
 62
        7
100
AcDbCircle
 10
-649.053088409
 20
-2246.490112305
 30
0.0
 40
2.0
100
AcDbArc
 50
180.0
 51
270.0
  0
LINE
  5
88
100
AcDbEntity
  8
AUGSL1
  6
SOLID
 62
        7
100
AcDbLine
 10
-633.053088409
 20
-2260.490112305
 30
0.0
 11
-633.053088409
 21
-2250.490112305
 31
0.0
  0
ARC
  5
89
100
AcDbEntity
  8
AUGSL1
  6
SOLID
 62
        7
100
AcDbCircle
 10
-635.053088409
 20
-2250.490112305
 30
0.0
 40
2.0
100
AcDbArc
 50
0.0
 51
90.0
  0
CIRCLE
  5
8A
100
AcDbEntity
  8
AUGSL1
  6
SOLID
 62
        1
100
AcDbCircle
 10
-566.552967072
 20
-2405.490112305
 30
0.0
 40
5.0
  0
LINE
  5
8B
100
AcDbEntity
  8
AUGSL1
  6
SOLID
 62
        1
100
AcDbLine
 10
-564.052967072
 20
-2406.933488011
 30
0.0
 11
-564.052967072
 21
-2404.046736598
 31
0.0
  0
LINE
  5
8C
100
AcDbEntity
  8
AUGSL1
  6
SOLID
 62
        1
100
AcDbLine
 10
-566.552967072
 20
-2408.376863718
 30
0.0
 11
-564.052967024
 21
-2406.933487992
 31
0.0
  0
LINE
  5
8D
100
AcDbEntity
  8
AUGSL1
  6
SOLID
 62
        1
100
AcDbLine
 10
-569.052967072
 20
-2406.933488011
 30
0.0
 11
-566.552967024
 21
-2408.376863737
 31
0.0
  0
LINE
  5
8E
100
AcDbEntity
  8
AUGSL1
  6
SOLID
 62
        1
100
AcDbLine
 10
-569.052967072
 20
-2404.046736598
 30
0.0
 11
-569.052967072
 21
-2406.933488011
 31
0.0
  0
LINE
  5
8F
100
AcDbEntity
  8
AUGSL1
  6
SOLID
 62
        1
100
AcDbLine
 10
-566.552967072
 20
-2402.603360891
 30
0.0
 11
-569.052967119
 21
-2404.046736617
 31
0.0
  0
LINE
  5
90
100
AcDbEntity
  8
AUGSL1
  6
SOLID
 62
        1
100
AcDbLine
 10
-564.052967072
 20
-2404.046736598
 30
0.0
 11
-566.552967119
 21
-2402.603360872
 31
0.0
  0
ARC
  5
91
100
AcDbEntity
  8
AUGSL1
  6
SOLID
 62
        7
100
AcDbCircle
 10
-649.053088409
 20
-2424.490112305
 30
0.0
 40
2.0
100
AcDbArc
 50
90.0
 51
180.0
  0
ARC
  5
92
100
AcDbEntity
  8
AUGSL1
  6
SOLID
 62
        7
100
AcDbCircle
 10
-635.053088409
 20
-2420.490112305
 30
0.0
 40
2.0
100
AcDbArc
 50
270.0
 51
0.0
  0
LINE
  5
93
100
AcDbEntity
  8
AUGSL1
  6
SOLID
 62
        7
100
AcDbLine
 10
-633.053088409
 20
-2410.490112305
 30
0.0
 11
-633.053088409
 21
-2420.490112305
 31
0.0
  0
LINE
  5
94
100
AcDbEntity
  8
AUGSL1
  6
SOLID
 62
        7
100
AcDbLine
 10
-635.053088409
 20
-2422.490112305
 30
0.0
 11
-649.053088409
 21
-2422.490112305
 31
0.0
  0
LINE
  5
95
100
AcDbEntity
  8
AUGSL1
  6
SOLID
 62
        7
100
AcDbLine
 10
-590.053088409
 20
-2452.490112305
 30
0.0
 11
-590.053088409
 21
-2472.490112305
 31
0.0
  0
LINE
  5
96
100
AcDbEntity
  8
AUGSL1
  6
SOLID
 62
        7
100
AcDbLine
 10
-651.053088409
 20
-2195.490112305
 30
0.0
 11
-651.053088409
 21
-2260.490112305
 31
0.0
  0
LINE
  5
97
100
AcDbEntity
  8
AUGSL1
  6
SOLID
 62
        7
100
AcDbLine
 10
-651.053088409
 20
-2195.490112305
 30
0.0
 11
-668.053088409
 21
-2195.490112305
 31
0.0
  0
LINE
  5
98
100
AcDbEntity
  8
AUGSL1
  6
SOLID
 62
        7
100
AcDbLine
 10
-651.053088409
 20
-2475.490112305
 30
0.0
 11
-668.053088409
 21
-2475.490112305
 31
0.0
  0
LINE
  5
99
100
AcDbEntity
  8
AUGSL1
  6
SOLID
 62
        7
100
AcDbLine
 10
-651.053088409
 20
-2410.490112305
 30
0.0
 11
-651.053088409
 21
-2475.490112305
 31
0.0
  0
LINE
  5
9A
100
AcDbEntity
  8
AUGSL1
  6
SOLID
 62
        7
100
AcDbLine
 10
-668.053088409
 20
-2359.149644615
 30
0.0
 11
-668.053088409
 21
-2475.490112305
 31
0.0
  0
LINE
  5
9B
100
AcDbEntity
  8
AUGSL1
  6
CENTER
 62
        7
100
AcDbLine
 10
-566.552964051
 20
-2265.490112305
 30
0.0
 11
-566.552964051
 21
-2271.240112305
 31
0.0
  0
LINE
  5
9C
100
AcDbEntity
  8
AUGSL1
  6
CENTER
 62
        7
100
AcDbLine
 10
-566.552964051
 20
-2265.490112305
 30
0.0
 11
-566.552964051
 21
-2259.740112305
 31
0.0
  0
LINE
  5
9D
100
AcDbEntity
  8
AUGSL1
  6
CENTER
 62
        7
100
AcDbLine
 10
-566.552964051
 20
-2265.490112305
 30
0.0
 11
-572.302964051
 21
-2265.490112305
 31
0.0
  0
LINE
  5
9E
100
AcDbEntity
  8
AUGSL1
  6
CENTER
 62
        7
100
AcDbLine
 10
-566.552964051
 20
-2265.490112305
 30
0.0
 11
-560.802964051
 21
-2265.490112305
 31
0.0
  0
LINE
  5
9F
100
AcDbEntity
  8
AUGSL1
  6
SOLID
 62
        7
100
AcDbLine
 10
-590.053088409
 20
-2472.490112305
 30
0.0
 11
-648.174738665
 21
-2474.01208128
 31
0.0
  0
CIRCLE
  5
A0
100
AcDbEntity
  8
AUGSL1
  6
SOLID
 62
        1
100
AcDbCircle
 10
-566.552967072
 20
-2265.490112305
 30
0.0
 40
5.0
  0
LINE
  5
A1
100
AcDbEntity
  8
AUGSL1
  6
SOLID
 62
        1
100
AcDbLine
 10
-564.052967072
 20
-2266.933488011
 30
0.0
 11
-564.052967072
 21
-2264.046736598
 31
0.0
  0
LINE
  5
A2
100
AcDbEntity
  8
AUGSL1
  6
SOLID
 62
        1
100
AcDbLine
 10
-566.552967072
 20
-2268.376863718
 30
0.0
 11
-564.052967024
 21
-2266.933487992
 31
0.0
  0
LINE
  5
A3
100
AcDbEntity
  8
AUGSL1
  6
SOLID
 62
        1
100
AcDbLine
 10
-569.052967072
 20
-2266.933488011
 30
0.0
 11
-566.552967024
 21
-2268.376863737
 31
0.0
  0
LINE
  5
A4
100
AcDbEntity
  8
AUGSL1
  6
SOLID
 62
        1
100
AcDbLine
 10
-569.052967072
 20
-2264.046736598
 30
0.0
 11
-569.052967072
 21
-2266.933488011
 31
0.0
  0
LINE
  5
A5
100
AcDbEntity
  8
AUGSL1
  6
SOLID
 62
        1
100
AcDbLine
 10
-566.552967072
 20
-2262.603360891
 30
0.0
 11
-569.052967119
 21
-2264.046736617
 31
0.0
  0
LINE
  5
A6
100
AcDbEntity
  8
AUGSL1
  6
SOLID
 62
        1
100
AcDbLine
 10
-564.052967072
 20
-2264.046736598
 30
0.0
 11
-566.552967119
 21
-2262.603360872
 31
0.0
  0
LINE
  5
A7
100
AcDbEntity
  8
AUGSL1
  6
SOLID
 62
        7
100
AcDbLine
 10
-452.052964051
 20
-2370.490130129
 30
0.0
 11
-458.052964051
 21
-2370.490130129
 31
0.0
  0
LINE
  5
A8
100
AcDbEntity
  8
AUGSL1
  6
CENTER
 62
        2
100
AcDbLine
 10
-449.052964051
 20
-2403.490130129
 30
0.0
 11
-452.052964051
 21
-2403.490130129
 31
0.0
  0
LINE
  5
A9
100
AcDbEntity
  8
AUGSL1
  6
SOLID
 62
        7
100
AcDbLine
 10
-434.052964051
 20
-2370.490130129
 30
0.0
 11
-449.052964051
 21
-2370.490130129
 31
0.0
  0
LINE
  5
AA
100
AcDbEntity
  8
AUGSL1
  6
CENTER
 62
        2
100
AcDbLine
 10
-415.931311495
 20
-2370.490130129
 30
0.0
 11
-434.052964051
 21
-2370.490130129
 31
0.0
  0
LINE
  5
AB
100
AcDbEntity
  8
AUGSL1
  6
SOLID
 62
        7
100
AcDbLine
 10
-449.052964051
 20
-2386.990130129
 30
0.0
 11
-452.052964051
 21
-2386.990130129
 31
0.0
  0
ARC
  5
AC
100
AcDbEntity
  8
AUGSL1
  6
SOLID
 62
        7
100
AcDbCircle
 10
-431.052964051
 20
-2356.990130129
 30
0.0
 40
3.0
100
AcDbArc
 50
0.0
 51
90.802355149
  0
ARC
  5
AD
100
AcDbEntity
  8
AUGSL1
  6
SOLID
 62
        7
100
AcDbCircle
 10
-431.052964051
 20
-2383.990130129
 30
0.0
 40
3.0
100
AcDbArc
 50
270.0
 51
0.0
  0
LINE
  5
AE
100
AcDbEntity
  8
AUGSL1
  6
SOLID
 62
        7
100
AcDbLine
 10
-431.052964051
 20
-2386.990130129
 30
0.0
 11
-434.052964051
 21
-2386.990130129
 31
0.0
  0
LINE
  5
AF
100
AcDbEntity
  8
AUGSL1
  6
SOLID
 62
        7
100
AcDbLine
 10
-431.052964051
 20
-2353.990130129
 30
0.0
 11
-431.094924159
 21
-2353.990130129
 31
0.0
  0
LINE
  5
B0
100
AcDbEntity
  8
AUGSL1
  6
SOLID
 62
        7
100
AcDbLine
 10
-428.052964051
 20
-2383.990130129
 30
0.0
 11
-428.052964051
 21
-2356.990130129
 31
0.0
  0
LINE
  5
B1
100
AcDbEntity
  8
AUGSL1
  6
SOLID
 62
        7
100
AcDbLine
 10
-434.052964051
 20
-2388.490130129
 30
0.0
 11
-434.052964051
 21
-2356.490130129
 31
0.0
  0
LINE
  5
B2
100
AcDbEntity
  8
AUGSL1
  6
SOLID
 62
        7
100
AcDbLine
 10
-434.052964051
 20
-2388.490130129
 30
0.0
 11
-449.052964051
 21
-2388.490130129
 31
0.0
  0
LINE
  5
B3
100
AcDbEntity
  8
AUGSL1
  6
SOLID
 62
        7
100
AcDbLine
 10
-449.052964051
 20
-2388.490130129
 30
0.0
 11
-449.052964051
 21
-2357.490130129
 31
0.0
  0
LINE
  5
B4
100
AcDbEntity
  8
AUGSL1
  6
SOLID
 62
        7
100
AcDbLine
 10
-452.052964051
 20
-2388.490130129
 30
0.0
 11
-458.052964051
 21
-2388.490130129
 31
0.0
  0
LINE
  5
B5
100
AcDbEntity
  8
AUGSL1
  6
SOLID
 62
        7
100
AcDbLine
 10
-452.052964051
 20
-2388.490130129
 30
0.0
 11
-452.052964051
 21
-2355.490130129
 31
0.0
  0
LINE
  5
B6
100
AcDbEntity
  8
AUGSL1
  6
SOLID
 62
        7
100
AcDbLine
 10
-453.052964051
 20
-2317.490130129
 30
0.0
 11
-458.052964051
 21
-2317.490130129
 31
0.0
  0
LINE
  5
B7
100
AcDbEntity
  8
AUGSL1
  6
CENTER
 62
        7
100
AcDbLine
 10
-450.052964051
 20
-2317.490130129
 30
0.0
 11
-453.052964051
 21
-2317.490130129
 31
0.0
  0
LINE
  5
B8
100
AcDbEntity
  8
AUGSL1
  6
SOLID
 62
        7
100
AcDbLine
 10
-437.052964051
 20
-2317.490130129
 30
0.0
 11
-450.052964051
 21
-2317.490130129
 31
0.0
  0
LINE
  5
B9
100
AcDbEntity
  8
AUGSL1
  6
CENTER
 62
        7
100
AcDbLine
 10
-428.832386859
 20
-2317.490130129
 30
0.0
 11
-437.052964051
 21
-2317.490130129
 31
0.0
  0
ARC
  5
BA
100
AcDbEntity
  8
AUGSL1
  6
SOLID
 62
        7
100
AcDbCircle
 10
-434.052964051
 20
-2325.490130129
 30
0.0
 40
3.0
100
AcDbArc
 50
270.0
 51
0.0
  0
ARC
  5
BB
100
AcDbEntity
  8
AUGSL1
  6
SOLID
 62
        7
100
AcDbCircle
 10
-434.052964051
 20
-2309.490130129
 30
0.0
 40
3.0
100
AcDbArc
 50
0.0
 51
90.0
  0
LINE
  5
BC
100
AcDbEntity
  8
AUGSL1
  6
SOLID
 62
        7
100
AcDbLine
 10
-431.052964051
 20
-2325.490130129
 30
0.0
 11
-431.052964051
 21
-2309.490130129
 31
0.0
  0
LINE
  5
BD
100
AcDbEntity
  8
AUGSL1
  6
SOLID
 62
        7
100
AcDbLine
 10
-434.052964051
 20
-2328.490130129
 30
0.0
 11
-437.052964051
 21
-2328.490130129
 31
0.0
  0
LINE
  5
BE
100
AcDbEntity
  8
AUGSL1
  6
SOLID
 62
        7
100
AcDbLine
 10
-434.052964051
 20
-2306.490130129
 30
0.0
 11
-437.052964051
 21
-2306.490130129
 31
0.0
  0
LINE
  5
BF
100
AcDbEntity
  8
AUGSL1
  6
SOLID
 62
        7
100
AcDbLine
 10
-437.052964051
 20
-2329.490130129
 30
0.0
 11
-450.052964051
 21
-2329.490130129
 31
0.0
  0
LINE
  5
C0
100
AcDbEntity
  8
AUGSL1
  6
SOLID
 62
        7
100
AcDbLine
 10
-437.052964051
 20
-2305.490130129
 30
0.0
 11
-450.052964051
 21
-2305.490130129
 31
0.0
  0
LINE
  5
C1
100
AcDbEntity
  8
AUGSL1
  6
SOLID
 62
        7
100
AcDbLine
 10
-437.052964051
 20
-2329.490130129
 30
0.0
 11
-437.052964051
 21
-2305.490130129
 31
0.0
  0
LINE
  5
C2
100
AcDbEntity
  8
AUGSL1
  6
SOLID
 62
        7
100
AcDbLine
 10
-450.052964051
 20
-2329.490130129
 30
0.0
 11
-450.052964051
 21
-2305.490130129
 31
0.0
  0
LINE
  5
C3
100
AcDbEntity
  8
AUGSL1
  6
SOLID
 62
        7
100
AcDbLine
 10
-450.052964051
 20
-2327.490130129
 30
0.0
 11
-453.052964051
 21
-2327.490130129
 31
0.0
  0
LINE
  5
C4
100
AcDbEntity
  8
AUGSL1
  6
SOLID
 62
        7
100
AcDbLine
 10
-450.052964051
 20
-2307.490130129
 30
0.0
 11
-453.052964051
 21
-2307.490130129
 31
0.0
  0
LINE
  5
C5
100
AcDbEntity
  8
AUGSL1
  6
SOLID
 62
        7
100
AcDbLine
 10
-453.052964051
 20
-2329.490130129
 30
0.0
 11
-458.052964051
 21
-2329.490130129
 31
0.0
  0
LINE
  5
C6
100
AcDbEntity
  8
AUGSL1
  6
SOLID
 62
        7
100
AcDbLine
 10
-453.052964051
 20
-2305.490130129
 30
0.0
 11
-458.052964051
 21
-2305.490130129
 31
0.0
  0
LINE
  5
C7
100
AcDbEntity
  8
AUGSL1
  6
SOLID
 62
        7
100
AcDbLine
 10
-453.052964051
 20
-2329.490130129
 30
0.0
 11
-453.052964051
 21
-2305.490130129
 31
0.0
  0
LINE
  5
C8
100
AcDbEntity
  8
AUGSL1
  6
SOLID
 62
        7
100
AcDbLine
 10
-453.052964051
 20
-2345.490130129
 30
0.0
 11
-458.052964051
 21
-2345.490130129
 31
0.0
  0
LINE
  5
C9
100
AcDbEntity
  8
AUGSL1
  6
CENTER
 62
        2
100
AcDbLine
 10
-450.052964051
 20
-2345.490130129
 30
0.0
 11
-453.052964051
 21
-2345.490130129
 31
0.0
  0
LINE
  5
CA
100
AcDbEntity
  8
AUGSL1
  6
SOLID
 62
        7
100
AcDbLine
 10
-437.052964051
 20
-2345.490130129
 30
0.0
 11
-450.052964051
 21
-2345.490130129
 31
0.0
  0
LINE
  5
CB
100
AcDbEntity
  8
AUGSL1
  6
CENTER
 62
        2
100
AcDbLine
 10
-428.832386859
 20
-2345.490130129
 30
0.0
 11
-437.052964051
 21
-2345.490130129
 31
0.0
  0
ARC
  5
CC
100
AcDbEntity
  8
AUGSL1
  6
SOLID
 62
        7
100
AcDbCircle
 10
-434.052964051
 20
-2353.490130129
 30
0.0
 40
3.0
100
AcDbArc
 50
270.0
 51
0.0
  0
ARC
  5
CD
100
AcDbEntity
  8
AUGSL1
  6
SOLID
 62
        7
100
AcDbCircle
 10
-434.052964051
 20
-2337.490130129
 30
0.0
 40
3.0
100
AcDbArc
 50
0.0
 51
90.0
  0
LINE
  5
CE
100
AcDbEntity
  8
AUGSL1
  6
SOLID
 62
        7
100
AcDbLine
 10
-431.052964051
 20
-2353.490130129
 30
0.0
 11
-431.052964051
 21
-2337.490130129
 31
0.0
  0
LINE
  5
CF
100
AcDbEntity
  8
AUGSL1
  6
SOLID
 62
        7
100
AcDbLine
 10
-434.052964051
 20
-2356.490130129
 30
0.0
 11
-437.052964051
 21
-2356.490130129
 31
0.0
  0
LINE
  5
D0
100
AcDbEntity
  8
AUGSL1
  6
SOLID
 62
        7
100
AcDbLine
 10
-434.052964051
 20
-2334.490130129
 30
0.0
 11
-437.052964051
 21
-2334.490130129
 31
0.0
  0
LINE
  5
D1
100
AcDbEntity
  8
AUGSL1
  6
SOLID
 62
        7
100
AcDbLine
 10
-437.052964051
 20
-2357.490130129
 30
0.0
 11
-450.052964051
 21
-2357.490130129
 31
0.0
  0
LINE
  5
D2
100
AcDbEntity
  8
AUGSL1
  6
SOLID
 62
        7
100
AcDbLine
 10
-437.052964051
 20
-2333.490130129
 30
0.0
 11
-450.052964051
 21
-2333.490130129
 31
0.0
  0
LINE
  5
D3
100
AcDbEntity
  8
AUGSL1
  6
SOLID
 62
        7
100
AcDbLine
 10
-437.052964051
 20
-2357.490130129
 30
0.0
 11
-437.052964051
 21
-2333.490130129
 31
0.0
  0
LINE
  5
D4
100
AcDbEntity
  8
AUGSL1
  6
SOLID
 62
        7
100
AcDbLine
 10
-450.052964051
 20
-2357.490130129
 30
0.0
 11
-450.052964051
 21
-2333.490130129
 31
0.0
  0
LINE
  5
D5
100
AcDbEntity
  8
AUGSL1
  6
SOLID
 62
        7
100
AcDbLine
 10
-450.052964051
 20
-2355.490130129
 30
0.0
 11
-453.052964051
 21
-2355.490130129
 31
0.0
  0
LINE
  5
D6
100
AcDbEntity
  8
AUGSL1
  6
SOLID
 62
        7
100
AcDbLine
 10
-450.052964051
 20
-2335.490130129
 30
0.0
 11
-453.052964051
 21
-2335.490130129
 31
0.0
  0
LINE
  5
D7
100
AcDbEntity
  8
AUGSL1
  6
SOLID
 62
        7
100
AcDbLine
 10
-453.052964051
 20
-2357.490130129
 30
0.0
 11
-458.052964051
 21
-2357.490130129
 31
0.0
  0
LINE
  5
D8
100
AcDbEntity
  8
AUGSL1
  6
SOLID
 62
        7
100
AcDbLine
 10
-453.052964051
 20
-2333.490130129
 30
0.0
 11
-458.052964051
 21
-2333.490130129
 31
0.0
  0
LINE
  5
D9
100
AcDbEntity
  8
AUGSL1
  6
SOLID
 62
        7
100
AcDbLine
 10
-453.052964051
 20
-2357.490130129
 30
0.0
 11
-453.052964051
 21
-2333.490130129
 31
0.0
  0
LINE
  5
DA
100
AcDbEntity
  8
AUGSL1
  6
SOLID
 62
        7
100
AcDbLine
 10
-453.052964051
 20
-2292.490130129
 30
0.0
 11
-458.052964051
 21
-2292.490130129
 31
0.0
  0
LINE
  5
DB
100
AcDbEntity
  8
AUGSL1
  6
CENTER
 62
        2
100
AcDbLine
 10
-450.052964051
 20
-2292.490130129
 30
0.0
 11
-453.052964051
 21
-2292.490130129
 31
0.0
  0
LINE
  5
DC
100
AcDbEntity
  8
AUGSL1
  6
SOLID
 62
        7
100
AcDbLine
 10
-437.052964051
 20
-2292.490130129
 30
0.0
 11
-450.052964051
 21
-2292.490130129
 31
0.0
  0
LINE
  5
DD
100
AcDbEntity
  8
AUGSL1
  6
CENTER
 62
        2
100
AcDbLine
 10
-428.832386859
 20
-2292.490130129
 30
0.0
 11
-437.052964051
 21
-2292.490130129
 31
0.0
  0
ARC
  5
DE
100
AcDbEntity
  8
AUGSL1
  6
SOLID
 62
        7
100
AcDbCircle
 10
-434.052964051
 20
-2300.490130129
 30
0.0
 40
3.0
100
AcDbArc
 50
270.0
 51
0.0
  0
LINE
  5
DF
100
AcDbEntity
  8
AUGSL1
  6
CENTER
 62
        7
100
AcDbLine
 10
201.184492903
 20
-1885.490034586
 30
0.0
 11
201.184492903
 21
-1891.240034586
 31
0.0
  0
LINE
  5
E0
100
AcDbEntity
  8
AUGSL1
  6
CENTER
 62
        7
100
AcDbLine
 10
201.184492903
 20
-1885.490034586
 30
0.0
 11
201.184492903
 21
-1879.740034586
 31
0.0
  0
LINE
  5
E1
100
AcDbEntity
  8
AUGSL1
  6
CENTER
 62
        7
100
AcDbLine
 10
201.184492903
 20
-1885.490034586
 30
0.0
 11
195.434492903
 21
-1885.490034586
 31
0.0
  0
LINE
  5
E2
100
AcDbEntity
  8
AUGSL1
  6
CENTER
 62
        7
100
AcDbLine
 10
201.184492903
 20
-1885.490034586
 30
0.0
 11
206.934492903
 21
-1885.490034586
 31
0.0
  0
LINE
  5
E3
100
AcDbEntity
  8
AUGSL1
  6
SOLID
 62
        7
100
AcDbLine
 10
-316.052920553
 20
-2472.490112305
 30
0.0
 11
-316.052920553
 21
-2452.490112305
 31
0.0
  0
LINE
  5
E4
100
AcDbEntity
  8
AUGSL1
  6
SOLID
 62
        7
100
AcDbLine
 10
-316.052920553
 20
-2438.490112305
 30
0.0
 11
-316.052920553
 21
-2335.490112305
 31
0.0
  0
LINE
  5
E5
100
AcDbEntity
  8
AUGSL1
  6
SOLID
 62
        4
100
AcDbLine
 10
-586.052965555
 20
-2467.860233253
 30
0.0
 11
-316.052920553
 21
-2467.860233253
 31
0.0
  0
LINE
  5
E6
100
AcDbEntity
  8
AUGSL1
  6
SOLID
 62
        4
100
AcDbLine
 10
-586.052965555
 20
-2472.490112305
 30
0.0
 11
-316.052920553
 21
-2472.490112305
 31
0.0
  0
LINE
  5
E7
100
AcDbEntity
  8
AUGSL1
  6
SOLID
 62
        4
100
AcDbLine
 10
-431.122204648
 20
-2336.849310867
 30
0.0
 11
-316.052920553
 21
-2336.849310867
 31
0.0
  0
LINE
  5
E8
100
AcDbEntity
  8
AUGSL1
  6
SOLID
 62
        7
100
AcDbLine
 10
-586.052965555
 20
-2472.490112305
 30
0.0
 11
-586.052965555
 21
-2452.490112305
 31
0.0
  0
LINE
  5
E9
100
AcDbEntity
  8
AUGSL1
  6
SOLID
 62
        7
100
AcDbLine
 10
-586.052965555
 20
-2438.490112305
 30
0.0
 11
-586.052965555
 21
-2410.490112305
 31
0.0
  0
LINE
  5
EA
100
AcDbEntity
  8
AUGSL1
  6
SOLID
 62
        7
100
AcDbLine
 10
-638.252905846
 20
-2438.490112305
 30
0.0
 11
-586.052965555
 21
-2438.490112305
 31
0.0
  0
LINE
  5
EB
100
AcDbEntity
  8
AUGSL1
  6
SOLID
 62
        7
100
AcDbLine
 10
-586.052965555
 20
-2438.490112305
 30
0.0
 11
-288.052935812
 21
-2438.490112305
 31
0.0
  0
LINE
  5
EC
100
AcDbEntity
  8
AUGSL1
  6
SOLID
 62
        4
100
AcDbLine
 10
-431.052964051
 20
-2350.849310867
 30
0.0
 11
-316.052920553
 21
-2350.849310867
 31
0.0
  0
LINE
  5
ED
100
AcDbEntity
  8
AUGSL1
  6
SOLID
 62
        4
100
AcDbLine
 10
-431.052964051
 20
-2348.130913742
 30
0.0
 11
-316.052920553
 21
-2348.130913742
 31
0.0
  0
LINE
  5
EE
100
AcDbEntity
  8
AUGSL1
  6
SOLID
 62
        4
100
AcDbLine
 10
-428.052964051
 20
-2362.130913742
 30
0.0
 11
-316.052920553
 21
-2362.130913742
 31
0.0
  0
LINE
  5
EF
100
AcDbEntity
  8
AUGSL1
  6
SOLID
 62
        4
100
AcDbLine
 10
-428.052964051
 20
-2364.849310867
 30
0.0
 11
-316.052920553
 21
-2364.849310867
 31
0.0
  0
LINE
  5
F0
100
AcDbEntity
  8
AUGSL1
  6
SOLID
 62
        4
100
AcDbLine
 10
-428.052964051
 20
-2376.130913742
 30
0.0
 11
-316.052920553
 21
-2376.130913742
 31
0.0
  0
LINE
  5
F1
100
AcDbEntity
  8
AUGSL1
  6
SOLID
 62
        4
100
AcDbLine
 10
-428.052964051
 20
-2378.849310867
 30
0.0
 11
-316.052920553
 21
-2378.849310867
 31
0.0
  0
LINE
  5
F2
100
AcDbEntity
  8
AUGSL1
  6
SOLID
 62
        4
100
AcDbLine
 10
-458.052964051
 20
-2390.130913742
 30
0.0
 11
-316.052920553
 21
-2390.130913742
 31
0.0
  0
LINE
  5
F3
100
AcDbEntity
  8
AUGSL1
  6
SOLID
 62
        4
100
AcDbLine
 10
-458.052964051
 20
-2392.849310867
 30
0.0
 11
-316.052920553
 21
-2392.849310867
 31
0.0
  0
LINE
  5
F4
100
AcDbEntity
  8
AUGSL1
  6
SOLID
 62
        4
100
AcDbLine
 10
-458.052964051
 20
-2406.849310867
 30
0.0
 11
-316.052920553
 21
-2406.849310867
 31
0.0
  0
LINE
  5
F5
100
AcDbEntity
  8
AUGSL1
  6
SOLID
 62
        4
100
AcDbLine
 10
-458.052964051
 20
-2404.130913742
 30
0.0
 11
-316.052920553
 21
-2404.130913742
 31
0.0
  0
LINE
  5
F6
100
AcDbEntity
  8
AUGSL1
  6
SOLID
 62
        4
100
AcDbLine
 10
-437.052964051
 20
-2334.130913742
 30
0.0
 11
-316.052920553
 21
-2334.130913742
 31
0.0
  0
ARC
  5
F7
100
AcDbEntity
  8
AUGSL1
  6
SOLID
 62
        7
100
AcDbCircle
 10
-434.052964051
 20
-2284.490130129
 30
0.0
 40
3.0
100
AcDbArc
 50
0.0
 51
90.0
  0
LINE
  5
F8
100
AcDbEntity
  8
AUGSL1
  6
SOLID
 62
        7
100
AcDbLine
 10
-431.052964051
 20
-2300.490130129
 30
0.0
 11
-431.052964051
 21
-2284.490130129
 31
0.0
  0
LINE
  5
F9
100
AcDbEntity
  8
AUGSL1
  6
SOLID
 62
        7
100
AcDbLine
 10
-434.052964051
 20
-2303.490130129
 30
0.0
 11
-437.052964051
 21
-2303.490130129
 31
0.0
  0
LINE
  5
FA
100
AcDbEntity
  8
AUGSL1
  6
SOLID
 62
        7
100
AcDbLine
 10
-434.052964051
 20
-2281.490130129
 30
0.0
 11
-437.052964051
 21
-2281.490130129
 31
0.0
  0
LINE
  5
FB
100
AcDbEntity
  8
AUGSL1
  6
SOLID
 62
        7
100
AcDbLine
 10
-437.052964051
 20
-2304.490130129
 30
0.0
 11
-450.052964051
 21
-2304.490130129
 31
0.0
  0
LINE
  5
FC
100
AcDbEntity
  8
AUGSL1
  6
SOLID
 62
        7
100
AcDbLine
 10
-437.052964051
 20
-2280.490130129
 30
0.0
 11
-450.052964051
 21
-2280.490130129
 31
0.0
  0
LINE
  5
FD
100
AcDbEntity
  8
AUGSL1
  6
SOLID
 62
        7
100
AcDbLine
 10
-437.052964051
 20
-2304.490130129
 30
0.0
 11
-437.052964051
 21
-2280.490130129
 31
0.0
  0
LINE
  5
FE
100
AcDbEntity
  8
AUGSL1
  6
SOLID
 62
        7
100
AcDbLine
 10
-450.052964051
 20
-2304.490130129
 30
0.0
 11
-450.052964051
 21
-2280.490130129
 31
0.0
  0
LINE
  5
FF
100
AcDbEntity
  8
AUGSL1
  6
SOLID
 62
        7
100
AcDbLine
 10
-450.052964051
 20
-2302.490130129
 30
0.0
 11
-453.052964051
 21
-2302.490130129
 31
0.0
  0
LINE
  5
100
100
AcDbEntity
  8
AUGSL1
  6
SOLID
 62
        7
100
AcDbLine
 10
-450.052964051
 20
-2282.490130129
 30
0.0
 11
-453.052964051
 21
-2282.490130129
 31
0.0
  0
LINE
  5
101
100
AcDbEntity
  8
AUGSL1
  6
SOLID
 62
        7
100
AcDbLine
 10
-453.052964051
 20
-2304.490130129
 30
0.0
 11
-458.052964051
 21
-2304.490130129
 31
0.0
  0
CIRCLE
  5
102
100
AcDbEntity
  8
AUGSL1
  6
SOLID
 62
        1
100
AcDbCircle
 10
201.184490204
 20
-1885.489990234
 30
0.0
 40
5.0
  0
LINE
  5
103
100
AcDbEntity
  8
AUGSL1
  6
SOLID
 62
        1
100
AcDbLine
 10
203.684490204
 20
-1886.933365941
 30
0.0
 11
203.684490204
 21
-1884.046614528
 31
0.0
  0
LINE
  5
104
100
AcDbEntity
  8
AUGSL1
  6
SOLID
 62
        1
100
AcDbLine
 10
201.184490204
 20
-1888.376741648
 30
0.0
 11
203.684490251
 21
-1886.933365922
 31
0.0
  0
LINE
  5
105
100
AcDbEntity
  8
AUGSL1
  6
SOLID
 62
        1
100
AcDbLine
 10
198.684490204
 20
-1886.933365941
 30
0.0
 11
201.184490251
 21
-1888.376741667
 31
0.0
  0
LINE
  5
106
100
AcDbEntity
  8
AUGSL1
  6
SOLID
 62
        1
100
AcDbLine
 10
198.684490204
 20
-1884.046614528
 30
0.0
 11
198.684490204
 21
-1886.933365941
 31
0.0
  0
LINE
  5
107
100
AcDbEntity
  8
AUGSL1
  6
SOLID
 62
        1
100
AcDbLine
 10
201.184490204
 20
-1882.603238821
 30
0.0
 11
198.684490157
 21
-1884.046614547
 31
0.0
  0
LINE
  5
108
100
AcDbEntity
  8
AUGSL1
  6
SOLID
 62
        1
100
AcDbLine
 10
203.684490204
 20
-1884.046614528
 30
0.0
 11
201.184490157
 21
-1882.603238802
 31
0.0
  0
LINE
  5
109
100
AcDbEntity
  8
AUGSL1
  6
CENTER
 62
        2
100
AcDbLine
 10
-566.552964051
 20
-2396.232483263
 30
0.0
 11
-566.552964051
 21
-2417.086825812
 31
0.0
  0
LINE
  5
10A
100
AcDbEntity
  8
AUGSL1
  6
CENTER
 62
        2
100
AcDbLine
 10
-558.501898744
 20
-2405.490112305
 30
0.0
 11
-573.719932496
 21
-2405.490112305
 31
0.0
  0
LINE
  5
10B
100
AcDbEntity
  8
AUGSL1
  6
CENTER
 62
        2
100
AcDbLine
 10
-566.552964051
 20
-2278.151813964
 30
0.0
 11
-566.552964051
 21
-2255.065311706
 31
0.0
  0
LINE
  5
10C
100
AcDbEntity
  8
AUGSL1
  6
CENTER
 62
        2
100
AcDbLine
 10
-557.374636984
 20
-2265.490112305
 30
0.0
 11
-572.592670736
 21
-2265.490112305
 31
0.0
  0
LINE
  5
10D
100
AcDbEntity
  8
AUGSL1
  6
SOLID
 62
        7
100
AcDbLine
 10
-458.052964051
 20
-2335.490112305
 30
0.0
 11
-458.052964051
 21
-2260.490112305
 31
0.0
  0
LINE
  5
10E
100
AcDbEntity
  8
AUGSL1
  6
SOLID
 62
        7
100
AcDbLine
 10
-586.552964051
 20
-2260.490112305
 30
0.0
 11
-458.052964051
 21
-2260.490112305
 31
0.0
  0
LINE
  5
10F
100
AcDbEntity
  8
AUGSL1
  6
SOLID
 62
        7
100
AcDbLine
 10
-586.552964051
 20
-2260.490112305
 30
0.0
 11
-654.552964051
 21
-2260.490112305
 31
0.0
  0
LINE
  5
110
100
AcDbEntity
  8
AUGSL1
  6
SOLID
 62
        7
100
AcDbLine
 10
-469.052964051
 20
-2271.490120229
 30
0.0
 11
-658.052964051
 21
-2271.490120229
 31
0.0
  0
LINE
  5
111
100
AcDbEntity
  8
AUGSL1
  6
SOLID
 62
        7
100
AcDbLine
 10
-656.552964051
 20
-2271.490120229
 30
0.0
 11
-656.552964051
 21
-2262.490112305
 31
0.0
  0
LINE
  5
112
100
AcDbEntity
  8
AUGSL1
  6
SOLID
 62
        7
100
AcDbLine
 10
-658.052964051
 20
-2335.490112305
 30
0.0
 11
-658.052964051
 21
-2271.490120229
 31
0.0
  0
LINE
  5
113
100
AcDbEntity
  8
AUGSL1
  6
SOLID
 62
        7
100
AcDbLine
 10
-654.552964051
 20
-2260.490112305
 30
0.0
 11
-656.552964051
 21
-2262.490112305
 31
0.0
  0
LINE
  5
114
100
AcDbEntity
  8
AUGSL1
  6
SOLID
 62
        7
100
AcDbLine
 10
-453.052964051
 20
-2280.490130129
 30
0.0
 11
-458.052964051
 21
-2280.490130129
 31
0.0
  0
LINE
  5
115
100
AcDbEntity
  8
AUGSL1
  6
SOLID
 62
        7
100
AcDbLine
 10
-469.052964051
 20
-2272.990120229
 30
0.0
 11
-460.052964051
 21
-2272.990120229
 31
0.0
  0
LINE
  5
116
100
AcDbEntity
  8
AUGSL1
  6
SOLID
 62
        7
100
AcDbLine
 10
-586.552964051
 20
-2410.490112305
 30
0.0
 11
-458.052964051
 21
-2410.490112305
 31
0.0
  0
LINE
  5
117
100
AcDbEntity
  8
AUGSL1
  6
SOLID
 62
        7
100
AcDbLine
 10
-469.052964051
 20
-2397.99010438
 30
0.0
 11
-469.052964051
 21
-2408.490112305
 31
0.0
  0
LINE
  5
118
100
AcDbEntity
  8
AUGSL1
  6
SOLID
 62
        7
100
AcDbLine
 10
-469.052964051
 20
-2408.490112305
 30
0.0
 11
-471.052964051
 21
-2410.490112305
 31
0.0
  0
LINE
  5
119
100
AcDbEntity
  8
AUGSL1
  6
SOLID
 62
        7
100
AcDbLine
 10
-469.052964051
 20
-2397.99010438
 30
0.0
 11
-460.052964051
 21
-2397.99010438
 31
0.0
  0
LINE
  5
11A
100
AcDbEntity
  8
AUGSL1
  6
SOLID
 62
        7
100
AcDbLine
 10
-458.052964051
 20
-2335.490112305
 30
0.0
 11
-458.052964051
 21
-2410.490112305
 31
0.0
  0
LINE
  5
11B
100
AcDbEntity
  8
AUGSL1
  6
SOLID
 62
        7
100
AcDbLine
 10
-458.052964051
 20
-2395.99010438
 30
0.0
 11
-460.052964051
 21
-2397.99010438
 31
0.0
  0
LINE
  5
11C
100
AcDbEntity
  8
AUGSL1
  6
SOLID
 62
        7
100
AcDbLine
 10
-469.052964051
 20
-2399.49010438
 30
0.0
 11
-658.052964051
 21
-2399.49010438
 31
0.0
  0
LINE
  5
11D
100
AcDbEntity
  8
AUGSL1
  6
SOLID
 62
        7
100
AcDbLine
 10
225.684492903
 20
-1705.490090119
 30
0.0
 11
225.684492903
 21
-1703.990090119
 31
0.0
  0
LINE
  5
11E
100
AcDbEntity
  8
AUGSL1
  6
SOLID
 62
        7
100
AcDbLine
 10
79.684492903
 20
-1705.490090119
 30
0.0
 11
79.684492903
 21
-1703.990090119
 31
0.0
  0
LINE
  5
11F
100
AcDbEntity
  8
AUGSL1
  6
SOLID
 62
        7
100
AcDbLine
 10
216.684492903
 20
-1703.990090119
 30
0.0
 11
227.684492903
 21
-1703.990090119
 31
0.0
  0
LINE
  5
120
100
AcDbEntity
  8
AUGSL1
  6
SOLID
 62
        7
100
AcDbLine
 10
227.684492903
 20
-1705.490090119
 30
0.0
 11
227.684492903
 21
-1703.990090119
 31
0.0
  0
LINE
  5
121
100
AcDbEntity
  8
AUGSL1
  6
CENTER
 62
        2
100
AcDbLine
 10
152.684492903
 20
-1705.490090119
 30
0.0
 11
152.684492903
 21
-1623.990090119
 31
0.0
  0
LINE
  5
122
100
AcDbEntity
  8
AUGSL1
  6
SOLID
 62
        7
100
AcDbLine
 10
216.684492903
 20
-1703.990090119
 30
0.0
 11
216.684492903
 21
-1623.990090119
 31
0.0
  0
LINE
  5
123
100
AcDbEntity
  8
AUGSL1
  6
SOLID
 62
        7
100
AcDbLine
 10
88.684492903
 20
-1703.990090119
 30
0.0
 11
88.684492903
 21
-1623.990090119
 31
0.0
  0
LINE
  5
124
100
AcDbEntity
  8
AUGSL1
  6
SOLID
 62
        7
100
AcDbLine
 10
88.684492903
 20
-1623.990090119
 30
0.0
 11
152.684492903
 21
-1623.990090119
 31
0.0
  0
LINE
  5
125
100
AcDbEntity
  8
AUGSL1
  6
SOLID
 62
        7
100
AcDbLine
 10
216.684492903
 20
-1623.990090119
 30
0.0
 11
152.684492903
 21
-1623.990090119
 31
0.0
  0
LINE
  5
126
100
AcDbEntity
  8
AUGSL1
  6
SOLID
 62
        7
100
AcDbLine
 10
77.684492903
 20
-1705.490090119
 30
0.0
 11
77.684492903
 21
-1703.990090119
 31
0.0
  0
LINE
  5
127
100
AcDbEntity
  8
AUGSL1
  6
SOLID
 62
        7
100
AcDbLine
 10
-686.053088409
 20
-2495.490112305
 30
0.0
 11
-686.053088409
 21
-2363.828018631
 31
0.0
  0
LINE
  5
128
100
AcDbEntity
  8
AUGSL1
  6
SOLID
 62
        7
100
AcDbLine
 10
-686.053088409
 20
-2175.490112305
 30
0.0
 11
-686.053088409
 21
-2307.152205978
 31
0.0
  0
LINE
  5
129
100
AcDbEntity
  8
AUGSL1
  6
SOLID
 62
        7
100
AcDbLine
 10
-658.052964051
 20
-2313.913914126
 30
0.0
 11
-658.052964051
 21
-2357.066310484
 31
0.0
  0
ARC
  5
12A
100
AcDbEntity
  8
AUGSL1
  6
SOLID
 62
        7
100
AcDbCircle
 10
-696.052964051
 20
-2335.490112305
 30
0.0
 40
30.0
100
AcDbArc
 50
76.231848953
 51
283.768151047
  0
LINE
  5
12B
100
AcDbEntity
  8
AUGSL1
  6
SOLID
 62
        7
100
AcDbLine
 10
88.684492903
 20
-1703.990090119
 30
0.0
 11
77.684492903
 21
-1703.990090119
 31
0.0
  0
LINE
  5
12C
100
AcDbEntity
  8
AUGSL1
  6
CENTER
 62
        2
100
AcDbLine
 10
-463.052964051
 20
-2344.482507141
 30
0.0
 11
-463.052964051
 21
-2324.99804915
 31
0.0
  0
LINE
  5
12D
100
AcDbEntity
  8
AUGSL1
  6
SOLID
 62
        7
100
AcDbLine
 10
-673.052964051
 20
-2310.788951791
 30
0.0
 11
-688.913156134
 21
-2306.352110607
 31
0.0
  0
LINE
  5
12E
100
AcDbEntity
  8
AUGSL1
  6
SOLID
 62
        7
100
AcDbLine
 10
-673.052964051
 20
-2360.191272819
 30
0.0
 11
-688.913156134
 21
-2364.628114002
 31
0.0
  0
LINE
  5
12F
100
AcDbEntity
  8
AUGSL1
  6
SOLID
 62
        7
100
AcDbLine
 10
-586.552964051
 20
-2410.490112305
 30
0.0
 11
-654.552964051
 21
-2410.490112305
 31
0.0
  0
LINE
  5
130
100
AcDbEntity
  8
AUGSL1
  6
SOLID
 62
        4
100
AcDbLine
 10
-260.252936363
 20
-2216.396845818
 30
0.0
 11
-260.252936363
 21
-2234.583378792
 31
0.0
  0
LINE
  5
131
100
AcDbEntity
  8
AUGSL1
  6
SOLID
 62
        4
100
AcDbLine
 10
-272.115114212
 20
-2219.427934647
 30
0.0
 11
-261.190758705
 21
-2219.427934647
 31
0.0
  0
LINE
  5
132
100
AcDbEntity
  8
AUGSL1
  6
SOLID
 62
        4
100
AcDbLine
 10
-273.052936554
 20
-2234.583378792
 30
0.0
 11
-273.052936554
 21
-2216.396845818
 31
0.0
  0
LINE
  5
133
100
AcDbEntity
  8
AUGSL1
  6
SOLID
 62
        4
100
AcDbLine
 10
-272.115114212
 20
-2231.552289963
 30
0.0
 11
-261.190758705
 21
-2231.552289963
 31
0.0
  0
ARC
  5
134
100
AcDbEntity
  8
AUGSL1
  6
SOLID
 62
        4
100
AcDbCircle
 10
-265.620163068
 20
-2234.583378792
 30
0.0
 40
5.367226705
100
AcDbArc
 50
325.615745828
 51
34.384254172
  0
ARC
  5
135
100
AcDbEntity
  8
AUGSL1
  6
SOLID
 62
        4
100
AcDbCircle
 10
-280.31510967
 20
-2225.490112305
 30
0.0
 40
20.062173307
100
AcDbArc
 50
342.412042639
 51
17.587957361
  0
ARC
  5
136
100
AcDbEntity
  8
AUGSL1
  6
SOLID
 62
        4
100
AcDbCircle
 10
-265.620163068
 20
-2216.396845818
 30
0.0
 40
5.367226705
100
AcDbArc
 50
325.615745828
 51
34.384254172
  0
LINE
  5
137
100
AcDbEntity
  8
AUGSL1
  6
SOLID
 62
        4
100
AcDbLine
 10
-272.115114212
 20
-2213.365756989
 30
0.0
 11
-261.190758705
 21
-2213.365756989
 31
0.0
  0
ARC
  5
138
100
AcDbEntity
  8
AUGSL1
  6
SOLID
 62
        4
100
AcDbCircle
 10
-267.685709849
 20
-2216.396845818
 30
0.0
 40
5.367226705
100
AcDbArc
 50
145.615745828
 51
214.384254172
  0
ARC
  5
139
100
AcDbEntity
  8
AUGSL1
  6
SOLID
 62
        4
100
AcDbCircle
 10
-252.990763247
 20
-2225.490112305
 30
0.0
 40
20.062173307
100
AcDbArc
 50
162.412042639
 51
197.587957361
  0
ARC
  5
13A
100
AcDbEntity
  8
AUGSL1
  6
SOLID
 62
        4
100
AcDbCircle
 10
-267.685709849
 20
-2234.583378792
 30
0.0
 40
5.367226705
100
AcDbArc
 50
145.615745828
 51
214.384254172
  0
LINE
  5
13B
100
AcDbEntity
  8
AUGSL1
  6
SOLID
 62
        4
100
AcDbLine
 10
-261.190758705
 20
-2237.614467621
 30
0.0
 11
-272.115114212
 21
-2237.614467621
 31
0.0
  0
LINE
  5
13C
100
AcDbEntity
  8
AUGSL1
  6
SOLID
 62
        1
100
AcDbLine
 10
-285.552921295
 20
-2331.737335443
 30
0.0
 11
-292.052921459
 21
-2327.984558532
 31
0.0
  0
LINE
  5
13D
100
AcDbEntity
  8
AUGSL1
  6
CENTER
 62
        2
100
AcDbLine
 10
-292.052920553
 20
-2347.669697211
 30
0.0
 11
-292.052920553
 21
-2324.959898452
 31
0.0
  0
LINE
  5
13E
100
AcDbEntity
  8
AUGSL1
  6
SOLID
 62
        1
100
AcDbLine
 10
-292.052921295
 20
-2327.984558582
 30
0.0
 11
-298.552921459
 21
-2331.737335494
 31
0.0
  0
LINE
  5
13F
100
AcDbEntity
  8
AUGSL1
  6
SOLID
 62
        7
100
AcDbLine
 10
-281.29556124
 20
-2198.490137439
 30
0.0
 11
-303.052920553
 21
-2198.490137439
 31
0.0
  0
LINE
  5
140
100
AcDbEntity
  8
AUGSL1
  6
SOLID
 62
        1
100
AcDbLine
 10
-298.552921295
 20
-2331.737335443
 30
0.0
 11
-298.552921295
 21
-2339.242889166
 31
0.0
  0
LINE
  5
141
100
AcDbEntity
  8
AUGSL1
  6
SOLID
 62
        1
100
AcDbLine
 10
-298.552921295
 20
-2339.242889166
 30
0.0
 11
-292.052921131
 21
-2342.995666078
 31
0.0
  0
LINE
  5
142
100
AcDbEntity
  8
AUGSL1
  6
SOLID
 62
        7
100
AcDbLine
 10
-253.052935812
 20
-2232.490112305
 30
0.0
 11
-252.052935812
 21
-2231.490112305
 31
0.0
  0
LINE
  5
143
100
AcDbEntity
  8
AUGSL1
  6
SOLID
 62
        7
100
AcDbLine
 10
-253.052935812
 20
-2218.490112305
 30
0.0
 11
-252.052935812
 21
-2219.490112305
 31
0.0
  0
LINE
  5
144
100
AcDbEntity
  8
AUGSL1
  6
SOLID
 62
        7
100
AcDbLine
 10
-252.052935812
 20
-2231.490112305
 30
0.0
 11
-252.052935812
 21
-2219.490112305
 31
0.0
  0
LINE
  5
145
100
AcDbEntity
  8
AUGSL1
  6
SOLID
 62
        3
100
AcDbLine
 10
-257.052935812
 20
-2231.290112257
 30
0.0
 11
-252.052935812
 21
-2231.290112257
 31
0.0
  0
LINE
  5
146
100
AcDbEntity
  8
AUGSL1
  6
SOLID
 62
        3
100
AcDbLine
 10
-257.052935812
 20
-2219.690112352
 30
0.0
 11
-252.052935812
 21
-2219.690112352
 31
0.0
  0
LINE
  5
147
100
AcDbEntity
  8
AUGSL1
  6
SOLID
 62
        3
100
AcDbLine
 10
-253.052935812
 20
-2232.490112305
 30
0.0
 11
-253.052935812
 21
-2218.490112305
 31
0.0
  0
ARC
  5
148
100
AcDbEntity
  8
AUGSL1
  6
SOLID
 62
        7
100
AcDbCircle
 10
-259.052935812
 20
-2233.990112305
 30
0.0
 40
2.0
100
AcDbArc
 50
270.0
 51
0.0
  0
LINE
  5
149
100
AcDbEntity
  8
AUGSL1
  6
SOLID
 62
        1
100
AcDbLine
 10
-292.052921295
 20
-2342.995666027
 30
0.0
 11
-285.552921131
 21
-2339.242889115
 31
0.0
  0
ARC
  5
14A
100
AcDbEntity
  8
AUGSL1
  6
SOLID
 62
        7
100
AcDbCircle
 10
-259.052935812
 20
-2216.990112305
 30
0.0
 40
2.0
100
AcDbArc
 50
0.0
 51
90.0
  0
LINE
  5
14B
100
AcDbEntity
  8
AUGSL1
  6
SOLID
 62
        7
100
AcDbLine
 10
-260.440566238
 20
-2235.990112305
 30
0.0
 11
-259.052935812
 21
-2235.990112305
 31
0.0
  0
LINE
  5
14C
100
AcDbEntity
  8
AUGSL1
  6
SOLID
 62
        7
100
AcDbLine
 10
-260.440566238
 20
-2214.990112305
 30
0.0
 11
-259.052935812
 21
-2214.990112305
 31
0.0
  0
LINE
  5
14D
100
AcDbEntity
  8
AUGSL1
  6
SOLID
 62
        7
100
AcDbLine
 10
-257.052935812
 20
-2233.990112305
 30
0.0
 11
-257.052935812
 21
-2216.990112305
 31
0.0
  0
LINE
  5
14E
100
AcDbEntity
  8
AUGSL1
  6
SOLID
 62
        7
100
AcDbLine
 10
-257.052935812
 20
-2232.490112305
 30
0.0
 11
-253.052935812
 21
-2232.490112305
 31
0.0
  0
LINE
  5
14F
100
AcDbEntity
  8
AUGSL1
  6
SOLID
 62
        7
100
AcDbLine
 10
-257.052935812
 20
-2218.490112305
 30
0.0
 11
-253.052935812
 21
-2218.490112305
 31
0.0
  0
LINE
  5
150
100
AcDbEntity
  8
AUGSL1
  6
SOLID
 62
        1
100
AcDbLine
 10
-285.552921295
 20
-2339.242889166
 30
0.0
 11
-285.552921295
 21
-2331.737335443
 31
0.0
  0
CIRCLE
  5
151
100
AcDbEntity
  8
AUGSL1
  6
SOLID
 62
        1
100
AcDbCircle
 10
-292.052921295
 20
-2335.490112305
 30
0.0
 40
6.5
  0
LINE
  5
152
100
AcDbEntity
  8
AUGSL1
  6
CENTER
 62
        7
100
AcDbLine
 10
-644.652920458
 20
-2225.490112305
 30
0.0
 11
-652.972920629
 21
-2225.490112305
 31
0.0
  0
LINE
  5
153
100
AcDbEntity
  8
AUGSL1
  6
CENTER
 62
        7
100
AcDbLine
 10
-644.652920458
 20
-2225.490112305
 30
0.0
 11
-636.332920286
 21
-2225.490112305
 31
0.0
  0
LINE
  5
154
100
AcDbEntity
  8
AUGSL1
  6
SOLID
 62
        4
100
AcDbLine
 10
-638.252905846
 20
-2216.396845818
 30
0.0
 11
-638.252905846
 21
-2234.583378792
 31
0.0
  0
LINE
  5
155
100
AcDbEntity
  8
AUGSL1
  6
SOLID
 62
        4
100
AcDbLine
 10
-650.115083695
 20
-2219.427934647
 30
0.0
 11
-639.190728187
 21
-2219.427934647
 31
0.0
  0
LINE
  5
156
100
AcDbEntity
  8
AUGSL1
  6
SOLID
 62
        4
100
AcDbLine
 10
-651.052906036
 20
-2234.583378792
 30
0.0
 11
-651.052906036
 21
-2216.396845818
 31
0.0
  0
LINE
  5
157
100
AcDbEntity
  8
AUGSL1
  6
SOLID
 62
        4
100
AcDbLine
 10
-650.115083695
 20
-2231.552289963
 30
0.0
 11
-639.190728187
 21
-2231.552289963
 31
0.0
  0
ARC
  5
158
100
AcDbEntity
  8
AUGSL1
  6
SOLID
 62
        4
100
AcDbCircle
 10
-643.620132551
 20
-2234.583378792
 30
0.0
 40
5.367226705
100
AcDbArc
 50
325.615745828
 51
34.384254172
  0
ARC
  5
159
100
AcDbEntity
  8
AUGSL1
  6
SOLID
 62
        4
100
AcDbCircle
 10
-658.315079153
 20
-2225.490112305
 30
0.0
 40
20.062173307
100
AcDbArc
 50
342.412042639
 51
17.587957361
  0
ARC
  5
15A
100
AcDbEntity
  8
AUGSL1
  6
SOLID
 62
        4
100
AcDbCircle
 10
-643.620132551
 20
-2216.396845818
 30
0.0
 40
5.367226705
100
AcDbArc
 50
325.615745828
 51
34.384254172
  0
LINE
  5
15B
100
AcDbEntity
  8
AUGSL1
  6
SOLID
 62
        4
100
AcDbLine
 10
-650.115083695
 20
-2213.365756989
 30
0.0
 11
-639.190728187
 21
-2213.365756989
 31
0.0
  0
ARC
  5
15C
100
AcDbEntity
  8
AUGSL1
  6
SOLID
 62
        4
100
AcDbCircle
 10
-645.685679331
 20
-2216.396845818
 30
0.0
 40
5.367226705
100
AcDbArc
 50
145.615745828
 51
214.384254172
  0
ARC
  5
15D
100
AcDbEntity
  8
AUGSL1
  6
SOLID
 62
        4
100
AcDbCircle
 10
-630.990732729
 20
-2225.490112305
 30
0.0
 40
20.062173307
100
AcDbArc
 50
162.412042639
 51
197.587957361
  0
ARC
  5
15E
100
AcDbEntity
  8
AUGSL1
  6
SOLID
 62
        4
100
AcDbCircle
 10
-645.685679331
 20
-2234.583378792
 30
0.0
 40
5.367226705
100
AcDbArc
 50
145.615745828
 51
214.384254172
  0
LINE
  5
15F
100
AcDbEntity
  8
AUGSL1
  6
SOLID
 62
        4
100
AcDbLine
 10
-639.190728187
 20
-2237.614467621
 30
0.0
 11
-650.115083695
 21
-2237.614467621
 31
0.0
  0
LINE
  5
160
100
AcDbEntity
  8
AUGSL1
  6
SOLID
 62
        7
100
AcDbLine
 10
-656.552964051
 20
-2399.49010438
 30
0.0
 11
-656.552964051
 21
-2408.490112305
 31
0.0
  0
LINE
  5
161
100
AcDbEntity
  8
AUGSL1
  6
SOLID
 62
        4
100
AcDbLine
 10
-260.252936363
 20
-2454.583378792
 30
0.0
 11
-260.252936363
 21
-2436.396845818
 31
0.0
  0
LINE
  5
162
100
AcDbEntity
  8
AUGSL1
  6
SOLID
 62
        4
100
AcDbLine
 10
-272.115114212
 20
-2451.552289963
 30
0.0
 11
-261.190758705
 21
-2451.552289963
 31
0.0
  0
LINE
  5
163
100
AcDbEntity
  8
AUGSL1
  6
SOLID
 62
        4
100
AcDbLine
 10
-273.052936554
 20
-2436.396845818
 30
0.0
 11
-273.052936554
 21
-2454.583378792
 31
0.0
  0
LINE
  5
164
100
AcDbEntity
  8
AUGSL1
  6
SOLID
 62
        4
100
AcDbLine
 10
-272.115114212
 20
-2439.427934647
 30
0.0
 11
-261.190758705
 21
-2439.427934647
 31
0.0
  0
ARC
  5
165
100
AcDbEntity
  8
AUGSL1
  6
SOLID
 62
        4
100
AcDbCircle
 10
-265.620163068
 20
-2436.396845818
 30
0.0
 40
5.367226705
100
AcDbArc
 50
325.615745828
 51
34.384254172
  0
ARC
  5
166
100
AcDbEntity
  8
AUGSL1
  6
SOLID
 62
        4
100
AcDbCircle
 10
-280.31510967
 20
-2445.490112305
 30
0.0
 40
20.062173307
100
AcDbArc
 50
342.412042639
 51
17.587957361
  0
ARC
  5
167
100
AcDbEntity
  8
AUGSL1
  6
SOLID
 62
        4
100
AcDbCircle
 10
-265.620163068
 20
-2454.583378792
 30
0.0
 40
5.367226705
100
AcDbArc
 50
325.615745828
 51
34.384254172
  0
LINE
  5
168
100
AcDbEntity
  8
AUGSL1
  6
SOLID
 62
        4
100
AcDbLine
 10
-272.115114212
 20
-2457.614467621
 30
0.0
 11
-261.190758705
 21
-2457.614467621
 31
0.0
  0
ARC
  5
169
100
AcDbEntity
  8
AUGSL1
  6
SOLID
 62
        4
100
AcDbCircle
 10
-267.685709849
 20
-2454.583378792
 30
0.0
 40
5.367226705
100
AcDbArc
 50
145.615745828
 51
214.384254172
  0
ARC
  5
16A
100
AcDbEntity
  8
AUGSL1
  6
SOLID
 62
        4
100
AcDbCircle
 10
-252.990763247
 20
-2445.490112305
 30
0.0
 40
20.062173307
100
AcDbArc
 50
162.412042639
 51
197.587957361
  0
ARC
  5
16B
100
AcDbEntity
  8
AUGSL1
  6
SOLID
 62
        4
100
AcDbCircle
 10
-267.685709849
 20
-2436.396845818
 30
0.0
 40
5.367226705
100
AcDbArc
 50
145.615745828
 51
214.384254172
  0
LINE
  5
16C
100
AcDbEntity
  8
AUGSL1
  6
SOLID
 62
        4
100
AcDbLine
 10
-261.190758705
 20
-2433.365756989
 30
0.0
 11
-272.115114212
 21
-2433.365756989
 31
0.0
  0
LINE
  5
16D
100
AcDbEntity
  8
AUGSL1
  6
SOLID
 62
        7
100
AcDbLine
 10
-253.052935812
 20
-2438.490112305
 30
0.0
 11
-252.052935812
 21
-2439.490112305
 31
0.0
  0
LINE
  5
16E
100
AcDbEntity
  8
AUGSL1
  6
SOLID
 62
        7
100
AcDbLine
 10
-658.052964051
 20
-2335.490112305
 30
0.0
 11
-658.052964051
 21
-2399.49010438
 31
0.0
  0
LINE
  5
16F
100
AcDbEntity
  8
AUGSL1
  6
SOLID
 62
        7
100
AcDbLine
 10
-253.052935812
 20
-2452.490112305
 30
0.0
 11
-252.052935812
 21
-2451.490112305
 31
0.0
  0
LINE
  5
170
100
AcDbEntity
  8
AUGSL1
  6
SOLID
 62
        7
100
AcDbLine
 10
-252.052935812
 20
-2439.490112305
 30
0.0
 11
-252.052935812
 21
-2451.490112305
 31
0.0
  0
LINE
  5
171
100
AcDbEntity
  8
AUGSL1
  6
SOLID
 62
        7
100
AcDbLine
 10
-654.552964051
 20
-2410.490112305
 30
0.0
 11
-656.552964051
 21
-2408.490112305
 31
0.0
  0
LINE
  5
172
100
AcDbEntity
  8
AUGSL1
  6
SOLID
 62
        3
100
AcDbLine
 10
-257.052935812
 20
-2439.690112352
 30
0.0
 11
-252.052935812
 21
-2439.690112352
 31
0.0
  0
LINE
  5
173
100
AcDbEntity
  8
AUGSL1
  6
SOLID
 62
        7
100
AcDbLine
 10
-638.252905846
 20
-2232.490112305
 30
0.0
 11
-586.052965555
 21
-2232.490112305
 31
0.0
  0
LINE
  5
174
100
AcDbEntity
  8
AUGSL1
  6
SOLID
 62
        4
100
AcDbLine
 10
-586.052965555
 20
-2418.130913742
 30
0.0
 11
-316.052920553
 21
-2418.130913742
 31
0.0
  0
LINE
  5
175
100
AcDbEntity
  8
AUGSL1
  6
SOLID
 62
        7
100
AcDbLine
 10
-312.052920553
 20
-2198.490137439
 30
0.0
 11
-312.052920553
 21
-2218.490112305
 31
0.0
  0
LINE
  5
176
100
AcDbEntity
  8
AUGSL1
  6
SOLID
 62
        7
100
AcDbLine
 10
-586.052965555
 20
-2232.490112305
 30
0.0
 11
-288.052935812
 21
-2232.490112305
 31
0.0
  0
LINE
  5
177
100
AcDbEntity
  8
AUGSL1
  6
SOLID
 62
        7
100
AcDbLine
 10
-638.252905846
 20
-2218.490112305
 30
0.0
 11
-288.052935812
 21
-2218.490112305
 31
0.0
  0
LINE
  5
178
100
AcDbEntity
  8
AUGSL1
  6
SOLID
 62
        7
100
AcDbLine
 10
-273.052935812
 20
-2315.389704859
 30
0.0
 11
-273.052935812
 21
-2200.490137439
 31
0.0
  0
ARC
  5
179
100
AcDbEntity
  8
AUGSL1
  6
SOLID
 62
        7
100
AcDbCircle
 10
-275.052935812
 20
-2200.490137439
 30
0.0
 40
2.0
100
AcDbArc
 50
360.0
 51
90.0
  0
LINE
  5
17A
100
AcDbEntity
  8
AUGSL1
  6
SOLID
 62
        7
100
AcDbLine
 10
-286.052935812
 20
-2198.490137439
 30
0.0
 11
-275.052935812
 21
-2198.490137439
 31
0.0
  0
ARC
  5
17B
100
AcDbEntity
  8
AUGSL1
  6
SOLID
 62
        7
100
AcDbCircle
 10
-286.052935812
 20
-2200.490137439
 30
0.0
 40
2.0
100
AcDbArc
 50
90.0
 51
180.0
  0
LINE
  5
17C
100
AcDbEntity
  8
AUGSL1
  6
SOLID
 62
        7
100
AcDbLine
 10
-288.052935812
 20
-2319.365153148
 30
0.0
 11
-288.052935812
 21
-2200.490137439
 31
0.0
  0
LINE
  5
17D
100
AcDbEntity
  8
AUGSL1
  6
CENTER
 62
        2
100
AcDbLine
 10
-310.615671927
 20
-2225.490112305
 30
0.0
 11
-244.956576323
 21
-2225.490112305
 31
0.0
  0
LINE
  5
17E
100
AcDbEntity
  8
AUGSL1
  6
SOLID
 62
        3
100
AcDbLine
 10
-257.052935812
 20
-2451.290112257
 30
0.0
 11
-252.052935812
 21
-2451.290112257
 31
0.0
  0
LINE
  5
17F
100
AcDbEntity
  8
AUGSL1
  6
SOLID
 62
        7
100
AcDbLine
 10
-658.052964051
 20
-2313.913914126
 30
0.0
 11
-673.052964051
 21
-2310.788951791
 31
0.0
  0
LINE
  5
180
100
AcDbEntity
  8
AUGSL1
  6
SOLID
 62
        7
100
AcDbLine
 10
-658.052964051
 20
-2357.066310484
 30
0.0
 11
-673.052964051
 21
-2360.191272819
 31
0.0
  0
LINE
  5
181
100
AcDbEntity
  8
AUGSL1
  6
SOLID
 62
        3
100
AcDbLine
 10
-253.052935812
 20
-2438.490112305
 30
0.0
 11
-253.052935812
 21
-2452.490112305
 31
0.0
  0
LINE
  5
182
100
AcDbEntity
  8
AUGSL1
  6
SOLID
 62
        7
100
AcDbLine
 10
-586.052940954
 20
-2467.490142822
 30
0.0
 11
-590.052920553
 21
-2467.490142822
 31
0.0
  0
LINE
  5
183
100
AcDbEntity
  8
AUGSL1
  6
SOLID
 62
        7
100
AcDbLine
 10
-769.453089934
 20
-2391.490112305
 30
0.0
 11
-769.453089934
 21
-2335.490112305
 31
0.0
  0
LINE
  5
184
100
AcDbEntity
  8
AUGSL1
  6
SOLID
 62
        7
100
AcDbLine
 10
-312.052920553
 20
-2232.490112305
 30
0.0
 11
-312.052920553
 21
-2335.490112305
 31
0.0
  0
LINE
  5
185
100
AcDbEntity
  8
AUGSL1
  6
SOLID
 62
        7
100
AcDbLine
 10
-316.052945154
 20
-2467.490142822
 30
0.0
 11
-312.052945154
 21
-2467.490142822
 31
0.0
  0
LINE
  5
186
100
AcDbEntity
  8
AUGSL1
  6
SOLID
 62
        4
100
AcDbLine
 10
-431.052964051
 20
-2320.130913742
 30
0.0
 11
-316.052920553
 21
-2320.130913742
 31
0.0
  0
LINE
  5
187
100
AcDbEntity
  8
AUGSL1
  6
SOLID
 62
        7
100
AcDbLine
 10
-586.052965555
 20
-2232.490112305
 30
0.0
 11
-586.052965555
 21
-2260.490112305
 31
0.0
  0
ARC
  5
188
100
AcDbEntity
  8
AUGSL1
  6
SOLID
 62
        7
100
AcDbCircle
 10
-259.052935812
 20
-2436.990112305
 30
0.0
 40
2.0
100
AcDbArc
 50
0.0
 51
90.0
  0
LINE
  5
189
100
AcDbEntity
  8
AUGSL1
  6
SOLID
 62
        7
100
AcDbLine
 10
-316.052920553
 20
-2232.490112305
 30
0.0
 11
-316.052920553
 21
-2335.490112305
 31
0.0
  0
LINE
  5
18A
100
AcDbEntity
  8
AUGSL1
  6
SOLID
 62
        7
100
AcDbLine
 10
-233.052935812
 20
-2230.490140131
 30
0.0
 11
-234.052935812
 21
-2230.490140131
 31
0.0
  0
LINE
  5
18B
100
AcDbEntity
  8
AUGSL1
  6
SOLID
 62
        7
100
AcDbLine
 10
-312.052945899
 20
-2471.490115333
 30
0.0
 11
-312.052945154
 21
-2467.490115333
 31
0.0
  0
LINE
  5
18C
100
AcDbEntity
  8
AUGSL1
  6
SOLID
 62
        7
100
AcDbLine
 10
-686.053088409
 20
-2300.490112305
 30
0.0
 11
-705.053088409
 21
-2300.490112305
 31
0.0
  0
LINE
  5
18D
100
AcDbEntity
  8
AUGSL1
  6
SOLID
 62
        7
100
AcDbLine
 10
-769.453089934
 20
-2279.490112305
 30
0.0
 11
-769.453089934
 21
-2335.490112305
 31
0.0
  0
LINE
  5
18E
100
AcDbEntity
  8
AUGSL1
  6
CENTER
 62
        7
100
AcDbLine
 10
104.184492903
 20
-1885.490034586
 30
0.0
 11
104.184492903
 21
-1891.240034586
 31
0.0
  0
LINE
  5
18F
100
AcDbEntity
  8
AUGSL1
  6
CENTER
 62
        7
100
AcDbLine
 10
104.184492903
 20
-1885.490034586
 30
0.0
 11
104.184492903
 21
-1879.740034586
 31
0.0
  0
LINE
  5
190
100
AcDbEntity
  8
AUGSL1
  6
CENTER
 62
        7
100
AcDbLine
 10
104.184492903
 20
-1885.490034586
 30
0.0
 11
98.434492903
 21
-1885.490034586
 31
0.0
  0
LINE
  5
191
100
AcDbEntity
  8
AUGSL1
  6
CENTER
 62
        7
100
AcDbLine
 10
104.184492903
 20
-1885.490034586
 30
0.0
 11
109.934492903
 21
-1885.490034586
 31
0.0
  0
LINE
  5
192
100
AcDbEntity
  8
AUGSL1
  6
SOLID
 62
        7
100
AcDbLine
 10
-312.052920553
 20
-2198.490137439
 30
0.0
 11
-240.052935812
 21
-2198.490137439
 31
0.0
  0
LINE
  5
193
100
AcDbEntity
  8
AUGSL1
  6
SOLID
 62
        7
100
AcDbLine
 10
-232.052935812
 20
-2254.490112305
 30
0.0
 11
-232.052935812
 21
-2245.490112305
 31
0.0
  0
ARC
  5
194
100
AcDbEntity
  8
AUGSL1
  6
SOLID
 62
        7
100
AcDbCircle
 10
-233.052935812
 20
-2231.490140131
 30
0.0
 40
1.0
100
AcDbArc
 50
0.0
 51
90.0
  0
LINE
  5
195
100
AcDbEntity
  8
AUGSL1
  6
SOLID
 62
        7
100
AcDbLine
 10
-238.052935812
 20
-2200.490137439
 30
0.0
 11
-238.052935812
 21
-2335.490112305
 31
0.0
  0
LINE
  5
196
100
AcDbEntity
  8
AUGSL1
  6
SOLID
 62
        7
100
AcDbLine
 10
-233.052935812
 20
-2440.490140131
 30
0.0
 11
-238.052935812
 21
-2440.490140131
 31
0.0
  0
LINE
  5
197
100
AcDbEntity
  8
AUGSL1
  6
SOLID
 62
        7
100
AcDbLine
 10
-232.052935812
 20
-2416.490112305
 30
0.0
 11
-232.052935812
 21
-2439.490140131
 31
0.0
  0
ARC
  5
198
100
AcDbEntity
  8
AUGSL1
  6
SOLID
 62
        7
100
AcDbCircle
 10
-233.052935812
 20
-2439.490140131
 30
0.0
 40
1.0
100
AcDbArc
 50
270.0
 51
0.0
  0
LINE
  5
199
100
AcDbEntity
  8
AUGSL1
  6
SOLID
 62
        7
100
AcDbLine
 10
-469.052964051
 20
-2262.490112305
 30
0.0
 11
-471.052964051
 21
-2260.490112305
 31
0.0
  0
ARC
  5
19A
100
AcDbEntity
  8
AUGSL1
  6
SOLID
 62
        7
100
AcDbCircle
 10
-696.052964051
 20
-2335.490112305
 30
0.0
 40
15.0
100
AcDbArc
 50
270.0
 51
90.0
  0
ARC
  5
19B
100
AcDbEntity
  8
AUGSL1
  6
SOLID
 62
        7
100
AcDbCircle
 10
-696.052964051
 20
-2335.490112305
 30
0.0
 40
15.0
100
AcDbArc
 50
90.0
 51
270.0
  0
ARC
  5
19C
100
AcDbEntity
  8
AUGSL1
  6
SOLID
 62
        7
100
AcDbCircle
 10
-259.052935812
 20
-2453.990112305
 30
0.0
 40
2.0
100
AcDbArc
 50
270.0
 51
0.0
  0
LINE
  5
19D
100
AcDbEntity
  8
AUGSL1
  6
SOLID
 62
        7
100
AcDbLine
 10
-260.440566238
 20
-2434.990112305
 30
0.0
 11
-259.052935812
 21
-2434.990112305
 31
0.0
  0
ARC
  5
19E
100
AcDbEntity
  8
AUGSL1
  6
SOLID
 62
        7
100
AcDbCircle
 10
-240.052935812
 20
-2200.490137439
 30
0.0
 40
2.0
100
AcDbArc
 50
0.0
 51
90.0
  0
CIRCLE
  5
19F
100
AcDbEntity
  8
AUGSL1
  6
SOLID
 62
        1
100
AcDbCircle
 10
104.184490204
 20
-1885.489990234
 30
0.0
 40
5.0
  0
LINE
  5
1A0
100
AcDbEntity
  8
AUGSL1
  6
SOLID
 62
        1
100
AcDbLine
 10
106.684490204
 20
-1886.933365941
 30
0.0
 11
106.684490204
 21
-1884.046614528
 31
0.0
  0
LINE
  5
1A1
100
AcDbEntity
  8
AUGSL1
  6
SOLID
 62
        1
100
AcDbLine
 10
104.184490204
 20
-1888.376741648
 30
0.0
 11
106.684490251
 21
-1886.933365922
 31
0.0
  0
LINE
  5
1A2
100
AcDbEntity
  8
AUGSL1
  6
SOLID
 62
        1
100
AcDbLine
 10
101.684490204
 20
-1886.933365941
 30
0.0
 11
104.184490251
 21
-1888.376741667
 31
0.0
  0
LINE
  5
1A3
100
AcDbEntity
  8
AUGSL1
  6
SOLID
 62
        1
100
AcDbLine
 10
101.684490204
 20
-1884.046614528
 30
0.0
 11
101.684490204
 21
-1886.933365941
 31
0.0
  0
LINE
  5
1A4
100
AcDbEntity
  8
AUGSL1
  6
SOLID
 62
        1
100
AcDbLine
 10
104.184490204
 20
-1882.603238821
 30
0.0
 11
101.684490157
 21
-1884.046614547
 31
0.0
  0
LINE
  5
1A5
100
AcDbEntity
  8
AUGSL1
  6
SOLID
 62
        1
100
AcDbLine
 10
106.684490204
 20
-1884.046614528
 30
0.0
 11
104.184490157
 21
-1882.603238802
 31
0.0
  0
LINE
  5
1A6
100
AcDbEntity
  8
AUGSL1
  6
SOLID
 62
        7
100
AcDbLine
 10
-225.052627605
 20
-2245.490112305
 30
0.0
 11
-225.052627605
 21
-2335.490112305
 31
0.0
  0
LINE
  5
1A7
100
AcDbEntity
  8
AUGSL1
  6
SOLID
 62
        7
100
AcDbLine
 10
-586.052965555
 20
-2203.490200864
 30
0.0
 11
-590.052920553
 21
-2203.490200864
 31
0.0
  0
LINE
  5
1A8
100
AcDbEntity
  8
AUGSL1
  6
SOLID
 62
        7
100
AcDbLine
 10
-651.053088409
 20
-2475.490112305
 30
0.0
 11
-606.262388485
 21
-2452.490112305
 31
0.0
  0
LINE
  5
1A9
100
AcDbEntity
  8
AUGSL1
  6
SOLID
 62
        7
100
AcDbLine
 10
-260.440566238
 20
-2455.990112305
 30
0.0
 11
-259.052935812
 21
-2455.990112305
 31
0.0
  0
LINE
  5
1AA
100
AcDbEntity
  8
AUGSL1
  6
SOLID
 62
        7
100
AcDbLine
 10
-453.052964051
 20
-2304.490130129
 30
0.0
 11
-453.052964051
 21
-2280.490130129
 31
0.0
  0
LINE
  5
1AB
100
AcDbEntity
  8
AUGSL1
  6
SOLID
 62
        7
100
AcDbLine
 10
-590.053088409
 20
-2218.490112305
 30
0.0
 11
-590.053088409
 21
-2198.490112305
 31
0.0
  0
LINE
  5
1AC
100
AcDbEntity
  8
AUGSL1
  6
SOLID
 62
        7
100
AcDbLine
 10
-764.453089934
 20
-2495.490112305
 30
0.0
 11
-764.453089934
 21
-2335.490112305
 31
0.0
  0
LINE
  5
1AD
100
AcDbEntity
  8
AUGSL1
  6
SOLID
 62
        7
100
AcDbLine
 10
-686.053088409
 20
-2495.490112305
 30
0.0
 11
-764.453089934
 21
-2495.490112305
 31
0.0
  0
LINE
  5
1AE
100
AcDbEntity
  8
AUGSL1
  6
SOLID
 62
        7
100
AcDbLine
 10
-458.052964051
 20
-2274.990120229
 30
0.0
 11
-460.052964051
 21
-2272.990120229
 31
0.0
  0
LINE
  5
1AF
100
AcDbEntity
  8
AUGSL1
  6
SOLID
 62
        7
100
AcDbLine
 10
-303.052920553
 20
-2348.490112305
 30
0.0
 11
-303.052920553
 21
-2322.490112305
 31
0.0
  0
LINE
  5
1B0
100
AcDbEntity
  8
AUGSL1
  6
SOLID
 62
        7
100
AcDbLine
 10
-686.053088409
 20
-2346.67056342
 30
0.0
 11
-686.053088409
 21
-2335.490112305
 31
0.0
  0
LINE
  5
1B1
100
AcDbEntity
  8
AUGSL1
  6
SOLID
 62
        7
100
AcDbLine
 10
-703.053088409
 20
-2297.990112305
 30
0.0
 11
-703.053088409
 21
-2300.490112305
 31
0.0
  0
LINE
  5
1B2
100
AcDbEntity
  8
AUGSL1
  6
SOLID
 62
        7
100
AcDbLine
 10
-590.053088409
 20
-2198.490112305
 30
0.0
 11
-648.174738665
 21
-2196.96814333
 31
0.0
  0
LINE
  5
1B3
100
AcDbEntity
  8
AUGSL1
  6
SOLID
 62
        7
100
AcDbLine
 10
-764.453089934
 20
-2175.490112305
 30
0.0
 11
-764.453089934
 21
-2335.490112305
 31
0.0
  0
LINE
  5
1B4
100
AcDbEntity
  8
AUGSL1
  6
SOLID
 62
        7
100
AcDbLine
 10
-686.053088409
 20
-2175.490112305
 30
0.0
 11
-764.453089934
 21
-2175.490112305
 31
0.0
  0
LINE
  5
1B5
100
AcDbEntity
  8
AUGSL1
  6
SOLID
 62
        4
100
AcDbLine
 10
-431.052964051
 20
-2322.849310867
 30
0.0
 11
-316.052920553
 21
-2322.849310867
 31
0.0
  0
LINE
  5
1B6
100
AcDbEntity
  8
AUGSL1
  6
SOLID
 62
        7
100
AcDbLine
 10
-280.126078463
 20
-2353.266480171
 30
0.0
 11
-270.052920553
 21
-2356.576242016
 31
0.0
  0
LINE
  5
1B7
100
AcDbEntity
  8
AUGSL1
  6
SOLID
 62
        7
100
AcDbLine
 10
-686.053088409
 20
-2324.309661189
 30
0.0
 11
-686.053088409
 21
-2335.490112305
 31
0.0
  0
LINE
  5
1B8
100
AcDbEntity
  8
AUGSL1
  6
SOLID
 62
        7
100
AcDbLine
 10
-668.053088409
 20
-2210.490112305
 30
0.0
 11
-686.053088409
 21
-2210.490112305
 31
0.0
  0
LINE
  5
1B9
100
AcDbEntity
  8
AUGSL1
  6
SOLID
 62
        7
100
AcDbLine
 10
-764.453089934
 20
-2279.490112305
 30
0.0
 11
-769.453089934
 21
-2279.490112305
 31
0.0
  0
LINE
  5
1BA
100
AcDbEntity
  8
AUGSL1
  6
CENTER
 62
        2
100
AcDbLine
 10
-696.052964051
 20
-2305.658601345
 30
0.0
 11
-696.052964051
 21
-2363.285635083
 31
0.0
  0
LINE
  5
1BB
100
AcDbEntity
  8
AUGSL1
  6
SOLID
 62
        7
100
AcDbLine
 10
-231.718617916
 20
-2248.490112305
 30
0.0
 11
-231.718617916
 21
-2245.490112305
 31
0.0
  0
LINE
  5
1BC
100
AcDbEntity
  8
AUGSL1
  6
SOLID
 62
        7
100
AcDbLine
 10
-232.052935812
 20
-2248.490112305
 30
0.0
 11
-231.718617916
 21
-2248.490112305
 31
0.0
  0
LINE
  5
1BD
100
AcDbEntity
  8
AUGSL1
  6
SOLID
 62
        7
100
AcDbLine
 10
-105.052627605
 20
-2457.490107008
 30
0.0
 11
-225.052627605
 21
-2457.490107008
 31
0.0
  0
LINE
  5
1BE
100
AcDbEntity
  8
AUGSL1
  6
SOLID
 62
        7
100
AcDbLine
 10
-105.052627605
 20
-2213.490107008
 30
0.0
 11
-225.052627605
 21
-2213.490107008
 31
0.0
  0
LINE
  5
1BF
100
AcDbEntity
  8
AUGSL1
  6
SOLID
 62
        7
100
AcDbLine
 10
-225.052627605
 20
-2416.490112305
 30
0.0
 11
-225.052627605
 21
-2457.490107008
 31
0.0
  0
LINE
  5
1C0
100
AcDbEntity
  8
AUGSL1
  6
SOLID
 62
        7
100
AcDbLine
 10
-105.052627605
 20
-2416.490112305
 30
0.0
 11
-105.052627605
 21
-2457.490107008
 31
0.0
  0
LINE
  5
1C1
100
AcDbEntity
  8
AUGSL1
  6
SOLID
 62
        1
100
AcDbLine
 10
-770.138612747
 20
-2225.727594376
 30
0.0
 11
-764.853144079
 21
-2225.727594376
 31
0.0
  0
LINE
  5
1C2
100
AcDbEntity
  8
AUGSL1
  6
SOLID
 62
        1
100
AcDbLine
 10
-764.853144079
 20
-2225.727594376
 30
0.0
 11
-764.853144079
 21
-2207.252386093
 31
0.0
  0
LINE
  5
1C3
100
AcDbEntity
  8
AUGSL1
  6
SOLID
 62
        1
100
AcDbLine
 10
-764.853144079
 20
-2207.252386093
 30
0.0
 11
-770.138612747
 21
-2207.252386093
 31
0.0
  0
ARC
  5
1C4
100
AcDbEntity
  8
AUGSL1
  6
SOLID
 62
        1
100
AcDbCircle
 10
-766.763829048
 20
-2209.561787128
 30
0.0
 40
4.089315121
100
AcDbArc
 50
145.615740999
 51
214.384259001
  0
LINE
  5
1C5
100
AcDbEntity
  8
AUGSL1
  6
SOLID
 62
        1
100
AcDbLine
 10
-770.138612747
 20
-2211.871188164
 30
0.0
 11
-764.853144079
 21
-2211.871188164
 31
0.0
  0
ARC
  5
1C6
100
AcDbEntity
  8
AUGSL1
  6
SOLID
 62
        1
100
AcDbCircle
 10
-755.567680816
 20
-2216.489990234
 30
0.0
 40
15.285463353
100
AcDbArc
 50
162.412040055
 51
197.587959945
  0
LINE
  5
1C7
100
AcDbEntity
  8
AUGSL1
  6
SOLID
 62
        1
100
AcDbLine
 10
-770.138612747
 20
-2221.108792305
 30
0.0
 11
-764.853144079
 21
-2221.108792305
 31
0.0
  0
ARC
  5
1C8
100
AcDbEntity
  8
AUGSL1
  6
SOLID
 62
        1
100
AcDbCircle
 10
-766.763829048
 20
-2223.41819334
 30
0.0
 40
4.089315121
100
AcDbArc
 50
145.615740999
 51
214.384259001
  0
LINE
  5
1C9
100
AcDbEntity
  8
AUGSL1
  6
SOLID
 62
        1
100
AcDbLine
 10
-770.853144169
 20
-2223.41819334
 30
0.0
 11
-770.853144169
 21
-2209.561787128
 31
0.0
  0
LINE
  5
1CA
100
AcDbEntity
  8
AUGSL1
  6
SOLID
 62
        1
100
AcDbLine
 10
-764.853144079
 20
-2223.804990292
 30
0.0
 11
-764.453144073
 21
-2223.804990292
 31
0.0
  0
LINE
  5
1CB
100
AcDbEntity
  8
AUGSL1
  6
SOLID
 62
        1
100
AcDbLine
 10
-764.453144073
 20
-2223.804990292
 30
0.0
 11
-764.453144073
 21
-2209.174990177
 31
0.0
  0
LINE
  5
1CC
100
AcDbEntity
  8
AUGSL1
  6
SOLID
 62
        1
100
AcDbLine
 10
-764.453144073
 20
-2209.174990177
 30
0.0
 11
-764.853144079
 21
-2209.174990177
 31
0.0
  0
LINE
  5
1CD
100
AcDbEntity
  8
AUGSL1
  6
SOLID
 62
        7
100
AcDbLine
 10
-705.053088409
 20
-2300.490112305
 30
0.0
 11
-705.053088409
 21
-2306.871975371
 31
0.0
  0
LINE
  5
1CE
100
AcDbEntity
  8
AUGSL1
  6
SOLID
 62
        1
100
AcDbLine
 10
-770.138612747
 20
-2445.252630234
 30
0.0
 11
-764.853144079
 21
-2445.252630234
 31
0.0
  0
LINE
  5
1CF
100
AcDbEntity
  8
AUGSL1
  6
SOLID
 62
        1
100
AcDbLine
 10
-770.138612747
 20
-2449.871432304
 30
0.0
 11
-764.853144079
 21
-2449.871432304
 31
0.0
  0
ARC
  5
1D0
100
AcDbEntity
  8
AUGSL1
  6
SOLID
 62
        1
100
AcDbCircle
 10
-766.763829048
 20
-2447.562031269
 30
0.0
 40
4.089315121
100
AcDbArc
 50
145.615740999
 51
214.384259001
  0
LINE
  5
1D1
100
AcDbEntity
  8
AUGSL1
  6
SOLID
 62
        1
100
AcDbLine
 10
-764.853144079
 20
-2463.727838516
 30
0.0
 11
-770.138612747
 21
-2463.727838516
 31
0.0
  0
ARC
  5
1D2
100
AcDbEntity
  8
AUGSL1
  6
SOLID
 62
        1
100
AcDbCircle
 10
-766.763829048
 20
-2461.418437481
 30
0.0
 40
4.089315121
100
AcDbArc
 50
145.615740999
 51
214.384259001
  0
LINE
  5
1D3
100
AcDbEntity
  8
AUGSL1
  6
SOLID
 62
        1
100
AcDbLine
 10
-770.138612747
 20
-2459.109036446
 30
0.0
 11
-764.853144079
 21
-2459.109036446
 31
0.0
  0
ARC
  5
1D4
100
AcDbEntity
  8
AUGSL1
  6
SOLID
 62
        1
100
AcDbCircle
 10
-755.567680816
 20
-2454.490234375
 30
0.0
 40
15.285463353
100
AcDbArc
 50
162.412040055
 51
197.587959945
  0
LINE
  5
1D5
100
AcDbEntity
  8
AUGSL1
  6
SOLID
 62
        1
100
AcDbLine
 10
-770.853144169
 20
-2447.562031269
 30
0.0
 11
-770.853144169
 21
-2461.418437481
 31
0.0
  0
LINE
  5
1D6
100
AcDbEntity
  8
AUGSL1
  6
SOLID
 62
        4
100
AcDbLine
 10
-431.052964051
 20
-2308.849310867
 30
0.0
 11
-316.052920553
 21
-2308.849310867
 31
0.0
  0
LINE
  5
1D7
100
AcDbEntity
  8
AUGSL1
  6
SOLID
 62
        7
100
AcDbLine
 10
-257.052935812
 20
-2436.990112305
 30
0.0
 11
-257.052935812
 21
-2453.990112305
 31
0.0
  0
LINE
  5
1D8
100
AcDbEntity
  8
AUGSL1
  6
SOLID
 62
        7
100
AcDbLine
 10
-257.052935812
 20
-2438.490112305
 30
0.0
 11
-253.052935812
 21
-2438.490112305
 31
0.0
  0
LINE
  5
1D9
100
AcDbEntity
  8
AUGSL1
  6
SOLID
 62
        7
100
AcDbLine
 10
-651.053088409
 20
-2195.490112305
 30
0.0
 11
-606.262388485
 21
-2218.490112305
 31
0.0
  0
LINE
  5
1DA
100
AcDbEntity
  8
AUGSL1
  6
SOLID
 62
        7
100
AcDbLine
 10
-257.052935812
 20
-2452.490112305
 30
0.0
 11
-253.052935812
 21
-2452.490112305
 31
0.0
  0
LINE
  5
1DB
100
AcDbEntity
  8
AUGSL1
  6
CENTER
 62
        2
100
AcDbLine
 10
-310.615671927
 20
-2445.490112305
 30
0.0
 11
-244.956576323
 21
-2445.490112305
 31
0.0
  0
LINE
  5
1DC
100
AcDbEntity
  8
AUGSL1
  6
SOLID
 62
        7
100
AcDbLine
 10
-270.052920553
 20
-2365.490112305
 30
0.0
 11
-270.052920553
 21
-2305.490112305
 31
0.0
  0
ARC
  5
1DD
100
AcDbEntity
  8
AUGSL1
  6
SOLID
 62
        7
100
AcDbCircle
 10
-671.295604738
 20
-1709.490090119
 30
0.0
 40
3.0
100
AcDbArc
 50
45.0
 51
90.0
  0
ARC
  5
1DE
100
AcDbEntity
  8
AUGSL1
  6
SOLID
 62
        7
100
AcDbCircle
 10
-671.295604738
 20
-1709.490090119
 30
0.0
 40
8.0
100
AcDbArc
 50
45.0
 51
90.0
  0
LINE
  5
1DF
100
AcDbEntity
  8
AUGSL1
  6
SOLID
 62
        7
100
AcDbLine
 10
-312.052920553
 20
-2472.49008717
 30
0.0
 11
-312.052920553
 21
-2452.490112305
 31
0.0
  0
LINE
  5
1E0
100
AcDbEntity
  8
AUGSL1
  6
SOLID
 62
        7
100
AcDbLine
 10
-316.052920553
 20
-2438.490112305
 30
0.0
 11
-288.052935812
 21
-2438.490112305
 31
0.0
  0
LINE
  5
1E1
100
AcDbEntity
  8
AUGSL1
  6
SOLID
 62
        7
100
AcDbLine
 10
-312.052920553
 20
-2350.490112305
 30
0.0
 11
-293.452804845
 21
-2350.490112305
 31
0.0
  0
ARC
  5
1E2
100
AcDbEntity
  8
AUGSL1
  6
SOLID
 62
        7
100
AcDbCircle
 10
-666.052964051
 20
-1714.732730806
 30
0.0
 40
8.0
100
AcDbArc
 50
360.0
 51
45.0
  0
LINE
  5
1E3
100
AcDbEntity
  8
AUGSL1
  6
SOLID
 62
        7
100
AcDbLine
 10
-312.052920553
 20
-2438.490112305
 30
0.0
 11
-312.052920553
 21
-2335.490112305
 31
0.0
  0
LINE
  5
1E4
100
AcDbEntity
  8
AUGSL1
  6
SOLID
 62
        4
100
AcDbLine
 10
-586.052965555
 20
-2420.849310867
 30
0.0
 11
-316.052920553
 21
-2420.849310867
 31
0.0
  0
LINE
  5
1E5
100
AcDbEntity
  8
AUGSL1
  6
SOLID
 62
        7
100
AcDbLine
 10
-316.052920553
 20
-2472.490112305
 30
0.0
 11
-316.052920553
 21
-2452.490112305
 31
0.0
  0
LINE
  5
1E6
100
AcDbEntity
  8
AUGSL1
  6
CENTER
 62
        2
100
AcDbLine
 10
-668.052920553
 20
-2445.490112305
 30
0.0
 11
-590.564185462
 21
-2445.490112305
 31
0.0
  0
LINE
  5
1E7
100
AcDbEntity
  8
AUGSL1
  6
SOLID
 62
        7
100
AcDbLine
 10
-105.052627605
 20
-2245.490112305
 30
0.0
 11
-105.052627605
 21
-2402.490112305
 31
0.0
  0
LINE
  5
1E8
100
AcDbEntity
  8
AUGSL1
  6
CENTER
 62
        2
100
AcDbLine
 10
-116.052627605
 20
-2470.211488795
 30
0.0
 11
-116.052627605
 21
-2416.490112305
 31
0.0
  0
LINE
  5
1E9
100
AcDbEntity
  8
AUGSL1
  6
CENTER
 62
        2
100
AcDbLine
 10
-130.052627605
 20
-2470.211488795
 30
0.0
 11
-130.052627605
 21
-2416.490112305
 31
0.0
  0
LINE
  5
1EA
100
AcDbEntity
  8
AUGSL1
  6
CENTER
 62
        2
100
AcDbLine
 10
-144.052627605
 20
-2470.211488795
 30
0.0
 11
-144.052627605
 21
-2416.490112305
 31
0.0
  0
LINE
  5
1EB
100
AcDbEntity
  8
AUGSL1
  6
CENTER
 62
        2
100
AcDbLine
 10
-158.052627605
 20
-2470.211488795
 30
0.0
 11
-158.052627605
 21
-2416.490112305
 31
0.0
  0
LINE
  5
1EC
100
AcDbEntity
  8
AUGSL1
  6
CENTER
 62
        2
100
AcDbLine
 10
-172.052627605
 20
-2470.211488795
 30
0.0
 11
-172.052627605
 21
-2416.490112305
 31
0.0
  0
LINE
  5
1ED
100
AcDbEntity
  8
AUGSL1
  6
CENTER
 62
        2
100
AcDbLine
 10
-186.052627605
 20
-2470.211488795
 30
0.0
 11
-186.052627605
 21
-2416.490112305
 31
0.0
  0
LINE
  5
1EE
100
AcDbEntity
  8
AUGSL1
  6
CENTER
 62
        2
100
AcDbLine
 10
-200.052627605
 20
-2470.211488795
 30
0.0
 11
-200.052627605
 21
-2416.490112305
 31
0.0
  0
LINE
  5
1EF
100
AcDbEntity
  8
AUGSL1
  6
CENTER
 62
        2
100
AcDbLine
 10
-214.052627605
 20
-2470.211488795
 30
0.0
 11
-214.052627605
 21
-2416.490112305
 31
0.0
  0
LINE
  5
1F0
100
AcDbEntity
  8
AUGSL1
  6
SOLID
 62
        7
100
AcDbLine
 10
-225.052627605
 20
-2335.490112305
 30
0.0
 11
-225.052627605
 21
-2402.490112305
 31
0.0
  0
LINE
  5
1F1
100
AcDbEntity
  8
AUGSL1
  6
CENTER
 62
        2
100
AcDbLine
 10
-116.052627605
 20
-2200.768735814
 30
0.0
 11
-116.052627605
 21
-2231.490112305
 31
0.0
  0
LINE
  5
1F2
100
AcDbEntity
  8
AUGSL1
  6
CENTER
 62
        2
100
AcDbLine
 10
-130.052627605
 20
-2200.768735814
 30
0.0
 11
-130.052627605
 21
-2231.490112305
 31
0.0
  0
LINE
  5
1F3
100
AcDbEntity
  8
AUGSL1
  6
CENTER
 62
        2
100
AcDbLine
 10
-144.052627605
 20
-2200.768735814
 30
0.0
 11
-144.052627605
 21
-2231.490112305
 31
0.0
  0
LINE
  5
1F4
100
AcDbEntity
  8
AUGSL1
  6
SOLID
 62
        7
100
AcDbLine
 10
-590.052920553
 20
-2452.490112305
 30
0.0
 11
-590.052920553
 21
-2472.490023745
 31
0.0
  0
LINE
  5
1F5
100
AcDbEntity
  8
AUGSL1
  6
SOLID
 62
        7
100
AcDbLine
 10
-586.052965555
 20
-2472.490112305
 30
0.0
 11
-586.052965555
 21
-2452.490112305
 31
0.0
  0
LINE
  5
1F6
100
AcDbEntity
  8
AUGSL1
  6
CENTER
 62
        2
100
AcDbLine
 10
-158.052627605
 20
-2200.768735814
 30
0.0
 11
-158.052627605
 21
-2231.490112305
 31
0.0
  0
LINE
  5
1F7
100
AcDbEntity
  8
AUGSL1
  6
SOLID
 62
        7
100
AcDbLine
 10
-105.052627605
 20
-2213.490107008
 30
0.0
 11
-105.052627605
 21
-2231.490112305
 31
0.0
  0
LINE
  5
1F8
100
AcDbEntity
  8
AUGSL1
  6
CENTER
 62
        2
100
AcDbLine
 10
-172.052627605
 20
-2200.768735814
 30
0.0
 11
-172.052627605
 21
-2231.490112305
 31
0.0
  0
LINE
  5
1F9
100
AcDbEntity
  8
AUGSL1
  6
CENTER
 62
        2
100
AcDbLine
 10
-186.052627605
 20
-2200.768735814
 30
0.0
 11
-186.052627605
 21
-2231.490112305
 31
0.0
  0
LINE
  5
1FA
100
AcDbEntity
  8
AUGSL1
  6
CENTER
 62
        2
100
AcDbLine
 10
-200.052627605
 20
-2200.768735814
 30
0.0
 11
-200.052627605
 21
-2231.490112305
 31
0.0
  0
LINE
  5
1FB
100
AcDbEntity
  8
AUGSL1
  6
CENTER
 62
        2
100
AcDbLine
 10
-214.052627605
 20
-2200.768735814
 30
0.0
 11
-214.052627605
 21
-2231.490112305
 31
0.0
  0
LINE
  5
1FC
100
AcDbEntity
  8
AUGSL1
  6
SOLID
 62
        7
100
AcDbLine
 10
-225.052627605
 20
-2213.490107008
 30
0.0
 11
-225.052627605
 21
-2231.490112305
 31
0.0
  0
LINE
  5
1FD
100
AcDbEntity
  8
AUGSL1
  6
SOLID
 62
        7
100
AcDbLine
 10
-232.052935812
 20
-2335.490112305
 30
0.0
 11
-232.052935812
 21
-2402.490112305
 31
0.0
  0
LINE
  5
1FE
100
AcDbEntity
  8
AUGSL1
  6
SOLID
 62
        7
100
AcDbLine
 10
-238.052935812
 20
-2394.490089398
 30
0.0
 11
-234.052935812
 21
-2394.490089398
 31
0.0
  0
LINE
  5
1FF
100
AcDbEntity
  8
AUGSL1
  6
CENTER
 62
        2
100
AcDbLine
 10
-242.005388445
 20
-2441.990110683
 30
0.0
 11
-227.974181598
 21
-2441.990110683
 31
0.0
  0
LINE
  5
200
100
AcDbEntity
  8
AUGSL1
  6
SOLID
 62
        4
100
AcDbLine
 10
-586.052965555
 20
-2432.130913742
 30
0.0
 11
-316.052920553
 21
-2432.130913742
 31
0.0
  0
LINE
  5
201
100
AcDbEntity
  8
AUGSL1
  6
SOLID
 62
        7
100
AcDbLine
 10
-590.052920553
 20
-2410.490112305
 30
0.0
 11
-590.052920553
 21
-2438.490112305
 31
0.0
  0
LINE
  5
202
100
AcDbEntity
  8
AUGSL1
  6
SOLID
 62
        7
100
AcDbLine
 10
-234.052935812
 20
-2394.490089398
 30
0.0
 11
-234.052935812
 21
-2459.490106906
 31
0.0
  0
LINE
  5
203
100
AcDbEntity
  8
AUGSL1
  6
SOLID
 62
        4
100
AcDbLine
 10
-437.052964051
 20
-2306.130913742
 30
0.0
 11
-316.052920553
 21
-2306.130913742
 31
0.0
  0
LINE
  5
204
100
AcDbEntity
  8
AUGSL1
  6
SOLID
 62
        4
100
AcDbLine
 10
-431.052964051
 20
-2294.849310867
 30
0.0
 11
-316.052920553
 21
-2294.849310867
 31
0.0
  0
LINE
  5
205
100
AcDbEntity
  8
AUGSL1
  6
SOLID
 62
        7
100
AcDbLine
 10
-238.052935812
 20
-2459.490106906
 30
0.0
 11
-234.052935812
 21
-2459.490106906
 31
0.0
  0
LINE
  5
206
100
AcDbEntity
  8
AUGSL1
  6
CENTER
 62
        2
100
AcDbLine
 10
-258.258781969
 20
-2409.490112305
 30
0.0
 11
-87.251764169
 21
-2409.490112305
 31
0.0
  0
LINE
  5
207
100
AcDbEntity
  8
AUGSL1
  6
SOLID
 62
        7
100
AcDbLine
 10
-638.252905846
 20
-2452.490112305
 30
0.0
 11
-288.052935812
 21
-2452.490112305
 31
0.0
  0
LINE
  5
208
100
AcDbEntity
  8
AUGSL1
  6
SOLID
 62
        7
100
AcDbLine
 10
-638.252905846
 20
-2438.490112305
 30
0.0
 11
-586.052965555
 21
-2438.490112305
 31
0.0
  0
LINE
  5
209
100
AcDbEntity
  8
AUGSL1
  6
SOLID
 62
        7
100
AcDbLine
 10
-238.052935812
 20
-2253.490135211
 30
0.0
 11
-234.052935812
 21
-2253.490135211
 31
0.0
  0
LINE
  5
20A
100
AcDbEntity
  8
AUGSL1
  6
SOLID
 62
        7
100
AcDbLine
 10
-238.052935812
 20
-2211.490117704
 30
0.0
 11
-234.052935812
 21
-2211.490117704
 31
0.0
  0
LINE
  5
20B
100
AcDbEntity
  8
AUGSL1
  6
CENTER
 62
        2
100
AcDbLine
 10
-668.052920553
 20
-2225.490112305
 30
0.0
 11
-590.564185462
 21
-2225.490112305
 31
0.0
  0
LINE
  5
20C
100
AcDbEntity
  8
AUGSL1
  6
SOLID
 62
        7
100
AcDbLine
 10
-586.052965555
 20
-2198.490112305
 30
0.0
 11
-586.052965555
 21
-2218.490112305
 31
0.0
  0
LINE
  5
20D
100
AcDbEntity
  8
AUGSL1
  6
SOLID
 62
        4
100
AcDbLine
 10
-431.052964051
 20
-2292.130913742
 30
0.0
 11
-316.052920553
 21
-2292.130913742
 31
0.0
  0
LINE
  5
20E
100
AcDbEntity
  8
AUGSL1
  6
SOLID
 62
        4
100
AcDbLine
 10
-437.052964051
 20
-2280.849310867
 30
0.0
 11
-316.052920553
 21
-2280.849310867
 31
0.0
  0
LINE
  5
20F
100
AcDbEntity
  8
AUGSL1
  6
SOLID
 62
        7
100
AcDbLine
 10
-590.052920553
 20
-2260.490112305
 30
0.0
 11
-590.052920553
 21
-2232.490112305
 31
0.0
  0
LINE
  5
210
100
AcDbEntity
  8
AUGSL1
  6
SOLID
 62
        7
100
AcDbLine
 10
-234.052935812
 20
-2253.490135211
 30
0.0
 11
-234.052935812
 21
-2211.490117704
 31
0.0
  0
LINE
  5
211
100
AcDbEntity
  8
AUGSL1
  6
CENTER
 62
        2
100
AcDbLine
 10
-258.258781969
 20
-2238.490112305
 30
0.0
 11
-87.251764169
 21
-2238.490112305
 31
0.0
  0
LINE
  5
212
100
AcDbEntity
  8
AUGSL1
  6
CENTER
 62
        2
100
AcDbLine
 10
-242.005388445
 20
-2228.990113926
 30
0.0
 11
-227.974181598
 21
-2228.990113926
 31
0.0
  0
LINE
  5
213
100
AcDbEntity
  8
AUGSL1
  6
SOLID
 62
        7
100
AcDbLine
 10
-99.052935812
 20
-2403.490112305
 30
0.0
 11
-99.052935812
 21
-2415.490112305
 31
0.0
  0
LINE
  5
214
100
AcDbEntity
  8
AUGSL1
  6
SOLID
 62
        7
100
AcDbLine
 10
-234.052935812
 20
-2402.490112305
 30
0.0
 11
-100.052935812
 21
-2402.490112305
 31
0.0
  0
LINE
  5
215
100
AcDbEntity
  8
AUGSL1
  6
SOLID
 62
        7
100
AcDbLine
 10
-234.052935812
 20
-2416.490112305
 30
0.0
 11
-100.052935812
 21
-2416.490112305
 31
0.0
  0
LINE
  5
216
100
AcDbEntity
  8
AUGSL1
  6
SOLID
 62
        7
100
AcDbLine
 10
-99.052935812
 20
-2244.490112305
 30
0.0
 11
-99.052935812
 21
-2232.490112305
 31
0.0
  0
LINE
  5
217
100
AcDbEntity
  8
AUGSL1
  6
SOLID
 62
        7
100
AcDbLine
 10
-234.052935812
 20
-2245.490112305
 30
0.0
 11
-100.052935812
 21
-2245.490112305
 31
0.0
  0
LINE
  5
218
100
AcDbEntity
  8
AUGSL1
  6
SOLID
 62
        7
100
AcDbLine
 10
-312.052920553
 20
-2320.490112305
 30
0.0
 11
-293.452804845
 21
-2320.490112305
 31
0.0
  0
ARC
  5
219
100
AcDbEntity
  8
AUGSL1
  6
SOLID
 62
        7
100
AcDbCircle
 10
-666.052964051
 20
-1714.732730806
 30
0.0
 40
3.0
100
AcDbArc
 50
360.0
 51
45.0
  0
LINE
  5
21A
100
AcDbEntity
  8
AUGSL1
  6
CENTER
 62
        2
100
AcDbLine
 10
-649.906390831
 20
-1725.490090119
 30
0.0
 11
-667.0394695
 21
-1725.490090119
 31
0.0
  0
LINE
  5
21B
100
AcDbEntity
  8
AUGSL1
  6
CENTER
 62
        7
100
AcDbLine
 10
-644.652920458
 20
-2445.490112305
 30
0.0
 11
-652.972920629
 21
-2445.490112305
 31
0.0
  0
LINE
  5
21C
100
AcDbEntity
  8
AUGSL1
  6
CENTER
 62
        7
100
AcDbLine
 10
-644.652920458
 20
-2445.490112305
 30
0.0
 11
-636.332920286
 21
-2445.490112305
 31
0.0
  0
LINE
  5
21D
100
AcDbEntity
  8
AUGSL1
  6
SOLID
 62
        4
100
AcDbLine
 10
-638.252905846
 20
-2454.583378792
 30
0.0
 11
-638.252905846
 21
-2436.396845818
 31
0.0
  0
LINE
  5
21E
100
AcDbEntity
  8
AUGSL1
  6
SOLID
 62
        4
100
AcDbLine
 10
-650.115083695
 20
-2451.552289963
 30
0.0
 11
-639.190728187
 21
-2451.552289963
 31
0.0
  0
LINE
  5
21F
100
AcDbEntity
  8
AUGSL1
  6
SOLID
 62
        4
100
AcDbLine
 10
-651.052906036
 20
-2436.396845818
 30
0.0
 11
-651.052906036
 21
-2454.583378792
 31
0.0
  0
LINE
  5
220
100
AcDbEntity
  8
AUGSL1
  6
SOLID
 62
        4
100
AcDbLine
 10
-650.115083695
 20
-2439.427934647
 30
0.0
 11
-639.190728187
 21
-2439.427934647
 31
0.0
  0
ARC
  5
221
100
AcDbEntity
  8
AUGSL1
  6
SOLID
 62
        4
100
AcDbCircle
 10
-643.620132551
 20
-2436.396845818
 30
0.0
 40
5.367226705
100
AcDbArc
 50
325.615745828
 51
34.384254172
  0
ARC
  5
222
100
AcDbEntity
  8
AUGSL1
  6
SOLID
 62
        4
100
AcDbCircle
 10
-658.315079153
 20
-2445.490112305
 30
0.0
 40
20.062173307
100
AcDbArc
 50
342.412042639
 51
17.587957361
  0
ARC
  5
223
100
AcDbEntity
  8
AUGSL1
  6
SOLID
 62
        4
100
AcDbCircle
 10
-643.620132551
 20
-2454.583378792
 30
0.0
 40
5.367226705
100
AcDbArc
 50
325.615745828
 51
34.384254172
  0
LINE
  5
224
100
AcDbEntity
  8
AUGSL1
  6
SOLID
 62
        4
100
AcDbLine
 10
-650.115083695
 20
-2457.614467621
 30
0.0
 11
-639.190728187
 21
-2457.614467621
 31
0.0
  0
ARC
  5
225
100
AcDbEntity
  8
AUGSL1
  6
SOLID
 62
        4
100
AcDbCircle
 10
-645.685679331
 20
-2454.583378792
 30
0.0
 40
5.367226705
100
AcDbArc
 50
145.615745828
 51
214.384254172
  0
ARC
  5
226
100
AcDbEntity
  8
AUGSL1
  6
SOLID
 62
        4
100
AcDbCircle
 10
-630.990732729
 20
-2445.490112305
 30
0.0
 40
20.062173307
100
AcDbArc
 50
162.412042639
 51
197.587957361
  0
ARC
  5
227
100
AcDbEntity
  8
AUGSL1
  6
SOLID
 62
        4
100
AcDbCircle
 10
-645.685679331
 20
-2436.396845818
 30
0.0
 40
5.367226705
100
AcDbArc
 50
145.615745828
 51
214.384254172
  0
LINE
  5
228
100
AcDbEntity
  8
AUGSL1
  6
SOLID
 62
        4
100
AcDbLine
 10
-639.190728187
 20
-2433.365756989
 30
0.0
 11
-650.115083695
 21
-2433.365756989
 31
0.0
  0
LINE
  5
229
100
AcDbEntity
  8
AUGSL1
  6
SOLID
 62
        7
100
AcDbLine
 10
-234.052935812
 20
-2231.490112305
 30
0.0
 11
-100.052935812
 21
-2231.490112305
 31
0.0
  0
LINE
  5
22A
100
AcDbEntity
  8
AUGSL1
  6
SOLID
 62
        7
100
AcDbLine
 10
-265.052920553
 20
-2350.490112305
 30
0.0
 11
-238.052935812
 21
-2350.490112305
 31
0.0
  0
LINE
  5
22B
100
AcDbEntity
  8
AUGSL1
  6
SOLID
 62
        7
100
AcDbLine
 10
-663.052964051
 20
-1714.732730806
 30
0.0
 11
-663.052964051
 21
-1736.490090119
 31
0.0
  0
LINE
  5
22C
100
AcDbEntity
  8
AUGSL1
  6
SOLID
 62
        7
100
AcDbLine
 10
-658.052964051
 20
-1714.732730806
 30
0.0
 11
-658.052964051
 21
-1736.490090119
 31
0.0
  0
LINE
  5
22D
100
AcDbEntity
  8
AUGSL1
  6
SOLID
 62
        4
100
AcDbLine
 10
-586.052965555
 20
-2434.849310867
 30
0.0
 11
-316.052920553
 21
-2434.849310867
 31
0.0
  0
LINE
  5
22E
100
AcDbEntity
  8
AUGSL1
  6
SOLID
 62
        7
100
AcDbLine
 10
-668.053088409
 20
-2195.490112305
 30
0.0
 11
-668.053088409
 21
-2311.830579995
 31
0.0
  0
LINE
  5
22F
100
AcDbEntity
  8
AUGSL1
  6
SOLID
 62
        7
100
AcDbLine
 10
-99.052935812
 20
-2403.490112305
 30
0.0
 11
-100.052935812
 21
-2402.490112305
 31
0.0
  0
LINE
  5
230
100
AcDbEntity
  8
AUGSL1
  6
SOLID
 62
        7
100
AcDbLine
 10
-99.052935812
 20
-2415.490112305
 30
0.0
 11
-100.052935812
 21
-2416.490112305
 31
0.0
  0
LINE
  5
231
100
AcDbEntity
  8
AUGSL1
  6
SOLID
 62
        7
100
AcDbLine
 10
-99.052935812
 20
-2244.490112305
 30
0.0
 11
-100.052935812
 21
-2245.490112305
 31
0.0
  0
LINE
  5
232
100
AcDbEntity
  8
AUGSL1
  6
SOLID
 62
        7
100
AcDbLine
 10
-99.052935812
 20
-2232.490112305
 30
0.0
 11
-100.052935812
 21
-2231.490112305
 31
0.0
  0
LINE
  5
233
100
AcDbEntity
  8
AUGSL1
  6
SOLID
 62
        7
100
AcDbLine
 10
-232.052935812
 20
-2335.490112305
 30
0.0
 11
-232.052935812
 21
-2245.490112305
 31
0.0
  0
LINE
  5
234
100
AcDbEntity
  8
AUGSL1
  6
SOLID
 62
        7
100
AcDbLine
 10
-316.052945154
 20
-2203.490081787
 30
0.0
 11
-312.052945154
 21
-2203.490081787
 31
0.0
  0
LINE
  5
235
100
AcDbEntity
  8
AUGSL1
  6
CENTER
 62
        2
100
AcDbLine
 10
-214.052627605
 20
-2402.490112305
 30
0.0
 11
-214.052627605
 21
-2335.490112305
 31
0.0
  0
LINE
  5
236
100
AcDbEntity
  8
AUGSL1
  6
CENTER
 62
        2
100
AcDbLine
 10
-200.052627605
 20
-2402.490112305
 30
0.0
 11
-200.052627605
 21
-2335.490112305
 31
0.0
  0
LINE
  5
237
100
AcDbEntity
  8
AUGSL1
  6
CENTER
 62
        2
100
AcDbLine
 10
-186.052627605
 20
-2402.490112305
 30
0.0
 11
-186.052627605
 21
-2335.490112305
 31
0.0
  0
LINE
  5
238
100
AcDbEntity
  8
AUGSL1
  6
CENTER
 62
        2
100
AcDbLine
 10
-172.052627605
 20
-2402.490112305
 30
0.0
 11
-172.052627605
 21
-2335.490112305
 31
0.0
  0
LINE
  5
239
100
AcDbEntity
  8
AUGSL1
  6
CENTER
 62
        2
100
AcDbLine
 10
-116.052627605
 20
-2402.490112305
 30
0.0
 11
-116.052627605
 21
-2335.490112305
 31
0.0
  0
LINE
  5
23A
100
AcDbEntity
  8
AUGSL1
  6
CENTER
 62
        2
100
AcDbLine
 10
-130.052627605
 20
-2402.490112305
 30
0.0
 11
-130.052627605
 21
-2335.490112305
 31
0.0
  0
LINE
  5
23B
100
AcDbEntity
  8
AUGSL1
  6
CENTER
 62
        2
100
AcDbLine
 10
-144.052627605
 20
-2402.490112305
 30
0.0
 11
-144.052627605
 21
-2335.490112305
 31
0.0
  0
LINE
  5
23C
100
AcDbEntity
  8
AUGSL1
  6
CENTER
 62
        2
100
AcDbLine
 10
-158.052627605
 20
-2402.490112305
 30
0.0
 11
-158.052627605
 21
-2335.490112305
 31
0.0
  0
LINE
  5
23D
100
AcDbEntity
  8
AUGSL1
  6
CENTER
 62
        2
100
AcDbLine
 10
-116.052627605
 20
-2245.490112305
 30
0.0
 11
-116.052627605
 21
-2335.490112305
 31
0.0
  0
LINE
  5
23E
100
AcDbEntity
  8
AUGSL1
  6
SOLID
 62
        1
100
AcDbLine
 10
-299.558449141
 20
-1738.770693137
 30
0.0
 11
-299.558449141
 21
-1743.090136691
 31
0.0
  0
LINE
  5
23F
100
AcDbEntity
  8
AUGSL1
  6
SOLID
 62
        1
100
AcDbLine
 10
-299.558449141
 20
-1743.090136691
 30
0.0
 11
-284.547341696
 21
-1743.090136691
 31
0.0
  0
LINE
  5
240
100
AcDbEntity
  8
AUGSL1
  6
SOLID
 62
        1
100
AcDbLine
 10
-284.547341696
 20
-1743.090136691
 30
0.0
 11
-284.547341696
 21
-1738.770693137
 31
0.0
  0
ARC
  5
241
100
AcDbEntity
  8
AUGSL1
  6
SOLID
 62
        1
100
AcDbCircle
 10
-286.423730127
 20
-1741.512706035
 30
0.0
 40
3.322569529
100
AcDbArc
 50
55.615750846
 51
124.384249154
  0
LINE
  5
242
100
AcDbEntity
  8
AUGSL1
  6
SOLID
 62
        1
100
AcDbLine
 10
-288.300118557
 20
-1738.770693137
 30
0.0
 11
-288.300118557
 21
-1743.090136691
 31
0.0
  0
ARC
  5
243
100
AcDbEntity
  8
AUGSL1
  6
SOLID
 62
        1
100
AcDbCircle
 10
-292.052895419
 20
-1750.609579675
 30
0.0
 40
12.419443168
100
AcDbArc
 50
72.412045324
 51
107.587954676
  0
LINE
  5
244
100
AcDbEntity
  8
AUGSL1
  6
SOLID
 62
        1
100
AcDbLine
 10
-295.80567228
 20
-1738.770693137
 30
0.0
 11
-295.80567228
 21
-1743.090136691
 31
0.0
  0
ARC
  5
245
100
AcDbEntity
  8
AUGSL1
  6
SOLID
 62
        1
100
AcDbCircle
 10
-297.68206071
 20
-1741.512706035
 30
0.0
 40
3.322569529
100
AcDbArc
 50
55.615750846
 51
124.384249154
  0
LINE
  5
246
100
AcDbEntity
  8
AUGSL1
  6
SOLID
 62
        1
100
AcDbLine
 10
-297.68206071
 20
-1738.190136506
 30
0.0
 11
-286.423730127
 21
-1738.190136506
 31
0.0
  0
LINE
  5
247
100
AcDbEntity
  8
AUGSL1
  6
SOLID
 62
        1
100
AcDbLine
 10
-297.867895476
 20
-1743.090136691
 30
0.0
 11
-297.867895476
 21
-1743.490136697
 31
0.0
  0
LINE
  5
248
100
AcDbEntity
  8
AUGSL1
  6
SOLID
 62
        1
100
AcDbLine
 10
-297.867895476
 20
-1743.490136697
 30
0.0
 11
-286.237895361
 21
-1743.490136697
 31
0.0
  0
LINE
  5
249
100
AcDbEntity
  8
AUGSL1
  6
SOLID
 62
        1
100
AcDbLine
 10
-286.237895361
 20
-1743.490136697
 30
0.0
 11
-286.237895361
 21
-1743.090136691
 31
0.0
  0
LINE
  5
24A
100
AcDbEntity
  8
AUGSL1
  6
CENTER
 62
        2
100
AcDbLine
 10
-130.052627605
 20
-2245.490112305
 30
0.0
 11
-130.052627605
 21
-2335.490112305
 31
0.0
  0
LINE
  5
24B
100
AcDbEntity
  8
AUGSL1
  6
SOLID
 62
        4
100
AcDbLine
 10
-458.052964051
 20
-2278.130913742
 30
0.0
 11
-316.052920553
 21
-2278.130913742
 31
0.0
  0
LINE
  5
24C
100
AcDbEntity
  8
AUGSL1
  6
SOLID
 62
        4
100
AcDbLine
 10
-458.052964051
 20
-2264.130913742
 30
0.0
 11
-316.052920553
 21
-2264.130913742
 31
0.0
  0
LINE
  5
24D
100
AcDbEntity
  8
AUGSL1
  6
SOLID
 62
        4
100
AcDbLine
 10
-458.052964051
 20
-2266.849310867
 30
0.0
 11
-316.052920553
 21
-2266.849310867
 31
0.0
  0
LINE
  5
24E
100
AcDbEntity
  8
AUGSL1
  6
SOLID
 62
        7
100
AcDbLine
 10
-469.052964051
 20
-2272.990120229
 30
0.0
 11
-469.052964051
 21
-2262.490112305
 31
0.0
  0
LINE
  5
24F
100
AcDbEntity
  8
AUGSL1
  6
SOLID
 62
        4
100
AcDbLine
 10
-586.052965555
 20
-2456.868800304
 30
0.0
 11
-316.052920553
 21
-2456.868800304
 31
0.0
  0
LINE
  5
250
100
AcDbEntity
  8
AUGSL1
  6
SOLID
 62
        7
100
AcDbLine
 10
-265.052920553
 20
-2365.490112305
 30
0.0
 11
-265.052920553
 21
-2305.490112305
 31
0.0
  0
LINE
  5
251
100
AcDbEntity
  8
AUGSL1
  6
SOLID
 62
        7
100
AcDbLine
 10
-303.052920553
 20
-2322.490112305
 30
0.0
 11
-280.126078463
 21
-2317.713744438
 31
0.0
  0
LINE
  5
252
100
AcDbEntity
  8
AUGSL1
  6
SOLID
 62
        7
100
AcDbLine
 10
165.684492903
 20
-1736.490090119
 30
0.0
 11
139.684492903
 21
-1736.490090119
 31
0.0
  0
LINE
  5
253
100
AcDbEntity
  8
AUGSL1
  6
SOLID
 62
        4
100
AcDbLine
 10
-586.052965555
 20
-2252.849310867
 30
0.0
 11
-316.052920553
 21
-2252.849310867
 31
0.0
  0
LINE
  5
254
100
AcDbEntity
  8
AUGSL1
  6
SOLID
 62
        4
100
AcDbLine
 10
-586.052965555
 20
-2250.130913742
 30
0.0
 11
-316.052920553
 21
-2250.130913742
 31
0.0
  0
LINE
  5
255
100
AcDbEntity
  8
AUGSL1
  6
SOLID
 62
        4
100
AcDbLine
 10
-586.052965555
 20
-2238.849310867
 30
0.0
 11
-316.052920553
 21
-2238.849310867
 31
0.0
  0
LINE
  5
256
100
AcDbEntity
  8
AUGSL1
  6
SOLID
 62
        4
100
AcDbLine
 10
-586.052965555
 20
-2236.130913742
 30
0.0
 11
-316.052920553
 21
-2236.130913742
 31
0.0
  0
LINE
  5
257
100
AcDbEntity
  8
AUGSL1
  6
SOLID
 62
        4
100
AcDbLine
 10
-586.052965555
 20
-2459.577521803
 30
0.0
 11
-316.052920553
 21
-2459.577521803
 31
0.0
  0
LINE
  5
258
100
AcDbEntity
  8
AUGSL1
  6
SOLID
 62
        7
100
AcDbLine
 10
-638.252905846
 20
-2452.490112305
 30
0.0
 11
-288.052935812
 21
-2452.490112305
 31
0.0
  0
LINE
  5
259
100
AcDbEntity
  8
AUGSL1
  6
SOLID
 62
        4
100
AcDbLine
 10
-586.052965555
 20
-2214.111424305
 30
0.0
 11
-316.052920553
 21
-2214.111424305
 31
0.0
  0
LINE
  5
25A
100
AcDbEntity
  8
AUGSL1
  6
SOLID
 62
        7
100
AcDbLine
 10
170.460860769
 20
-1713.563248029
 30
0.0
 11
173.770622615
 21
-1703.490090119
 31
0.0
  0
ARC
  5
25B
100
AcDbEntity
  8
AUGSL1
  6
SOLID
 62
        7
100
AcDbCircle
 10
-276.052920553
 20
-1735.247496752
 30
0.0
 40
3.0
100
AcDbArc
 50
315.0
 51
0.0
  0
ARC
  5
25C
100
AcDbEntity
  8
AUGSL1
  6
SOLID
 62
        7
100
AcDbCircle
 10
-276.052920553
 20
-1735.247496752
 30
0.0
 40
8.0
100
AcDbArc
 50
315.0
 51
0.0
  0
LINE
  5
25D
100
AcDbEntity
  8
AUGSL1
  6
SOLID
 62
        4
100
AcDbLine
 10
-260.252936363
 20
-1766.396845818
 30
0.0
 11
-260.252936363
 21
-1784.583378792
 31
0.0
  0
LINE
  5
25E
100
AcDbEntity
  8
AUGSL1
  6
SOLID
 62
        4
100
AcDbLine
 10
-272.115114212
 20
-1769.427934647
 30
0.0
 11
-261.190758705
 21
-1769.427934647
 31
0.0
  0
LINE
  5
25F
100
AcDbEntity
  8
AUGSL1
  6
SOLID
 62
        4
100
AcDbLine
 10
-273.052936554
 20
-1784.583378792
 30
0.0
 11
-273.052936554
 21
-1766.396845818
 31
0.0
  0
LINE
  5
260
100
AcDbEntity
  8
AUGSL1
  6
SOLID
 62
        4
100
AcDbLine
 10
-272.115114212
 20
-1781.552289963
 30
0.0
 11
-261.190758705
 21
-1781.552289963
 31
0.0
  0
ARC
  5
261
100
AcDbEntity
  8
AUGSL1
  6
SOLID
 62
        4
100
AcDbCircle
 10
-265.620163068
 20
-1784.583378792
 30
0.0
 40
5.367226705
100
AcDbArc
 50
325.615745828
 51
34.384254172
  0
ARC
  5
262
100
AcDbEntity
  8
AUGSL1
  6
SOLID
 62
        4
100
AcDbCircle
 10
-280.31510967
 20
-1775.490112305
 30
0.0
 40
20.062173307
100
AcDbArc
 50
342.412042639
 51
17.587957361
  0
ARC
  5
263
100
AcDbEntity
  8
AUGSL1
  6
SOLID
 62
        4
100
AcDbCircle
 10
-265.620163068
 20
-1766.396845818
 30
0.0
 40
5.367226705
100
AcDbArc
 50
325.615745828
 51
34.384254172
  0
LINE
  5
264
100
AcDbEntity
  8
AUGSL1
  6
SOLID
 62
        4
100
AcDbLine
 10
-272.115114212
 20
-1763.365756989
 30
0.0
 11
-261.190758705
 21
-1763.365756989
 31
0.0
  0
ARC
  5
265
100
AcDbEntity
  8
AUGSL1
  6
SOLID
 62
        4
100
AcDbCircle
 10
-267.685709849
 20
-1766.396845818
 30
0.0
 40
5.367226705
100
AcDbArc
 50
145.615745828
 51
214.384254172
  0
ARC
  5
266
100
AcDbEntity
  8
AUGSL1
  6
SOLID
 62
        4
100
AcDbCircle
 10
-252.990763247
 20
-1775.490112305
 30
0.0
 40
20.062173307
100
AcDbArc
 50
162.412042639
 51
197.587957361
  0
ARC
  5
267
100
AcDbEntity
  8
AUGSL1
  6
SOLID
 62
        4
100
AcDbCircle
 10
-267.685709849
 20
-1784.583378792
 30
0.0
 40
5.367226705
100
AcDbArc
 50
145.615745828
 51
214.384254172
  0
LINE
  5
268
100
AcDbEntity
  8
AUGSL1
  6
SOLID
 62
        4
100
AcDbLine
 10
-261.190758705
 20
-1787.614467621
 30
0.0
 11
-272.115114212
 21
-1787.614467621
 31
0.0
  0
ARC
  5
269
100
AcDbEntity
  8
AUGSL1
  6
SOLID
 62
        7
100
AcDbCircle
 10
-281.29556124
 20
-1740.490137439
 30
0.0
 40
8.0
100
AcDbArc
 50
270.0
 51
315.0
  0
ARC
  5
26A
100
AcDbEntity
  8
AUGSL1
  6
SOLID
 62
        7
100
AcDbCircle
 10
-281.29556124
 20
-1740.490137439
 30
0.0
 40
3.0
100
AcDbArc
 50
270.0
 51
315.0
  0
LINE
  5
26B
100
AcDbEntity
  8
AUGSL1
  6
CENTER
 62
        2
100
AcDbLine
 10
-292.052920553
 20
-1756.636710659
 30
0.0
 11
-292.052920553
 21
-1739.50363199
 31
0.0
  0
LINE
  5
26C
100
AcDbEntity
  8
AUGSL1
  6
SOLID
 62
        7
100
AcDbLine
 10
-281.29556124
 20
-1743.490137439
 30
0.0
 11
-303.052920553
 21
-1743.490137439
 31
0.0
  0
LINE
  5
26D
100
AcDbEntity
  8
AUGSL1
  6
SOLID
 62
        7
100
AcDbLine
 10
-658.052964051
 20
-1736.490090119
 30
0.0
 11
-663.052964051
 21
-1736.490090119
 31
0.0
  0
LINE
  5
26E
100
AcDbEntity
  8
AUGSL1
  6
SOLID
 62
        7
100
AcDbLine
 10
-303.052920553
 20
-2348.490112305
 30
0.0
 11
-280.126078463
 21
-2353.266480171
 31
0.0
  0
LINE
  5
26F
100
AcDbEntity
  8
AUGSL1
  6
SOLID
 62
        7
100
AcDbLine
 10
-280.126078463
 20
-2317.713744438
 30
0.0
 11
-270.052920553
 21
-2314.403982593
 31
0.0
  0
LINE
  5
270
100
AcDbEntity
  8
AUGSL1
  6
SOLID
 62
        3
100
AcDbLine
 10
-280.052920553
 20
-2353.027862125
 30
0.0
 11
-280.052920553
 21
-2318.078387925
 31
0.0
  0
LINE
  5
271
100
AcDbEntity
  8
AUGSL1
  6
SOLID
 62
        7
100
AcDbLine
 10
-265.052920553
 20
-2305.490112305
 30
0.0
 11
-270.052920553
 21
-2305.490112305
 31
0.0
  0
LINE
  5
272
100
AcDbEntity
  8
AUGSL1
  6
SOLID
 62
        7
100
AcDbLine
 10
-265.052920553
 20
-2365.490112305
 30
0.0
 11
-270.052920553
 21
-2365.490112305
 31
0.0
  0
LINE
  5
273
100
AcDbEntity
  8
AUGSL1
  6
SOLID
 62
        7
100
AcDbLine
 10
-671.295604738
 20
-1706.490090119
 30
0.0
 11
-726.052964051
 21
-1706.490090119
 31
0.0
  0
LINE
  5
274
100
AcDbEntity
  8
AUGSL1
  6
CENTER
 62
        2
100
AcDbLine
 10
168.932158587
 20
-1725.490090119
 30
0.0
 11
137.727737233
 21
-1725.490090119
 31
0.0
  0
LINE
  5
275
100
AcDbEntity
  8
AUGSL1
  6
SOLID
 62
        7
100
AcDbLine
 10
182.684492903
 20
-1703.490090119
 30
0.0
 11
122.684492903
 21
-1703.490090119
 31
0.0
  0
LINE
  5
276
100
AcDbEntity
  8
AUGSL1
  6
SOLID
 62
        7
100
AcDbLine
 10
182.684492903
 20
-1698.490090119
 30
0.0
 11
122.684492903
 21
-1698.490090119
 31
0.0
  0
LINE
  5
277
100
AcDbEntity
  8
AUGSL1
  6
SOLID
 62
        7
100
AcDbLine
 10
-281.29556124
 20
-1748.490137439
 30
0.0
 11
-303.052920553
 21
-1748.490137439
 31
0.0
  0
LINE
  5
278
100
AcDbEntity
  8
AUGSL1
  6
SOLID
 62
        7
100
AcDbLine
 10
139.684492903
 20
-1736.490090119
 30
0.0
 11
134.908125037
 21
-1713.563248029
 31
0.0
  0
LINE
  5
279
100
AcDbEntity
  8
AUGSL1
  6
SOLID
 62
        7
100
AcDbLine
 10
165.684492903
 20
-1736.490090119
 30
0.0
 11
170.460860769
 21
-1713.563248029
 31
0.0
  0
LINE
  5
27A
100
AcDbEntity
  8
AUGSL1
  6
SOLID
 62
        7
100
AcDbLine
 10
-303.052920553
 20
-1748.490137439
 30
0.0
 11
-303.052920553
 21
-1743.490137439
 31
0.0
  0
LINE
  5
27B
100
AcDbEntity
  8
AUGSL1
  6
SOLID
 62
        7
100
AcDbLine
 10
-273.052920553
 20
-1735.247496752
 30
0.0
 11
-273.052920553
 21
-1680.490137439
 31
0.0
  0
LINE
  5
27C
100
AcDbEntity
  8
AUGSL1
  6
SOLID
 62
        7
100
AcDbLine
 10
134.908125037
 20
-1713.563248029
 30
0.0
 11
131.598363192
 21
-1703.490090119
 31
0.0
  0
LINE
  5
27D
100
AcDbEntity
  8
AUGSL1
  6
SOLID
 62
        7
100
AcDbLine
 10
-253.052935812
 20
-1782.490112305
 30
0.0
 11
-252.052935812
 21
-1781.490112305
 31
0.0
  0
LINE
  5
27E
100
AcDbEntity
  8
AUGSL1
  6
SOLID
 62
        7
100
AcDbLine
 10
-253.052935812
 20
-1768.490112305
 30
0.0
 11
-252.052935812
 21
-1769.490112305
 31
0.0
  0
LINE
  5
27F
100
AcDbEntity
  8
AUGSL1
  6
SOLID
 62
        7
100
AcDbLine
 10
-252.052935812
 20
-1781.490112305
 30
0.0
 11
-252.052935812
 21
-1769.490112305
 31
0.0
  0
LINE
  5
280
100
AcDbEntity
  8
AUGSL1
  6
SOLID
 62
        3
100
AcDbLine
 10
-257.052935812
 20
-1781.290112257
 30
0.0
 11
-252.052935812
 21
-1781.290112257
 31
0.0
  0
LINE
  5
281
100
AcDbEntity
  8
AUGSL1
  6
SOLID
 62
        3
100
AcDbLine
 10
-257.052935812
 20
-1769.690112352
 30
0.0
 11
-252.052935812
 21
-1769.690112352
 31
0.0
  0
LINE
  5
282
100
AcDbEntity
  8
AUGSL1
  6
SOLID
 62
        3
100
AcDbLine
 10
-253.052935812
 20
-1782.490112305
 30
0.0
 11
-253.052935812
 21
-1768.490112305
 31
0.0
  0
ARC
  5
283
100
AcDbEntity
  8
AUGSL1
  6
SOLID
 62
        7
100
AcDbCircle
 10
-259.052935812
 20
-1783.990112305
 30
0.0
 40
2.0
100
AcDbArc
 50
270.0
 51
0.0
  0
LINE
  5
284
100
AcDbEntity
  8
AUGSL1
  6
SOLID
 62
        7
100
AcDbLine
 10
-268.052920553
 20
-1735.247496752
 30
0.0
 11
-268.052920553
 21
-1680.490137439
 31
0.0
  0
LINE
  5
285
100
AcDbEntity
  8
AUGSL1
  6
SOLID
 62
        3
100
AcDbLine
 10
170.222242724
 20
-1713.490090119
 30
0.0
 11
135.272768523
 21
-1713.490090119
 31
0.0
  0
ARC
  5
286
100
AcDbEntity
  8
AUGSL1
  6
SOLID
 62
        7
100
AcDbCircle
 10
-259.052935812
 20
-1766.990112305
 30
0.0
 40
2.0
100
AcDbArc
 50
0.0
 51
90.0
  0
CIRCLE
  5
287
100
AcDbEntity
  8
AUGSL1
  6
SOLID
 62
        7
100
AcDbCircle
 10
152.684492903
 20
-1885.490034586
 30
0.0
 40
32.5
  0
LINE
  5
288
100
AcDbEntity
  8
AUGSL1
  6
SOLID
 62
        7
100
AcDbLine
 10
-260.440566238
 20
-1785.990112305
 30
0.0
 11
-259.052935812
 21
-1785.990112305
 31
0.0
  0
LINE
  5
289
100
AcDbEntity
  8
AUGSL1
  6
SOLID
 62
        7
100
AcDbLine
 10
-260.440566238
 20
-1764.990112305
 30
0.0
 11
-259.052935812
 21
-1764.990112305
 31
0.0
  0
LINE
  5
28A
100
AcDbEntity
  8
AUGSL1
  6
SOLID
 62
        7
100
AcDbLine
 10
-257.052935812
 20
-1783.990112305
 30
0.0
 11
-257.052935812
 21
-1766.990112305
 31
0.0
  0
LINE
  5
28B
100
AcDbEntity
  8
AUGSL1
  6
SOLID
 62
        7
100
AcDbLine
 10
-257.052935812
 20
-1782.490112305
 30
0.0
 11
-253.052935812
 21
-1782.490112305
 31
0.0
  0
LINE
  5
28C
100
AcDbEntity
  8
AUGSL1
  6
SOLID
 62
        7
100
AcDbLine
 10
-257.052935812
 20
-1768.490112305
 30
0.0
 11
-253.052935812
 21
-1768.490112305
 31
0.0
  0
LINE
  5
28D
100
AcDbEntity
  8
AUGSL1
  6
SOLID
 62
        7
100
AcDbLine
 10
-281.29556124
 20
-2472.49008717
 30
0.0
 11
-303.052920553
 21
-2472.49008717
 31
0.0
  0
LINE
  5
28E
100
AcDbEntity
  8
AUGSL1
  6
SOLID
 62
        7
100
AcDbLine
 10
-275.638706991
 20
-1746.146991689
 30
0.0
 11
-270.396066304
 21
-1740.904351002
 31
0.0
  0
LINE
  5
28F
100
AcDbEntity
  8
AUGSL1
  6
SOLID
 62
        7
100
AcDbLine
 10
-273.052935812
 20
-2355.59051975
 30
0.0
 11
-273.052935812
 21
-2470.49008717
 31
0.0
  0
ARC
  5
290
100
AcDbEntity
  8
AUGSL1
  6
SOLID
 62
        7
100
AcDbCircle
 10
-275.052935812
 20
-2470.49008717
 30
0.0
 40
2.0
100
AcDbArc
 50
270.0
 51
0.0
  0
LINE
  5
291
100
AcDbEntity
  8
AUGSL1
  6
SOLID
 62
        7
100
AcDbLine
 10
-286.052935812
 20
-2472.49008717
 30
0.0
 11
-275.052935812
 21
-2472.49008717
 31
0.0
  0
ARC
  5
292
100
AcDbEntity
  8
AUGSL1
  6
SOLID
 62
        7
100
AcDbCircle
 10
-286.052935812
 20
-2470.49008717
 30
0.0
 40
2.0
100
AcDbArc
 50
180.0
 51
270.0
  0
LINE
  5
293
100
AcDbEntity
  8
AUGSL1
  6
SOLID
 62
        7
100
AcDbLine
 10
-279.174240897
 20
-1742.611457783
 30
0.0
 11
-273.931600209
 21
-1737.368817096
 31
0.0
  0
LINE
  5
294
100
AcDbEntity
  8
AUGSL1
  6
CENTER
 62
        7
100
AcDbLine
 10
-644.652920458
 20
-1775.490112305
 30
0.0
 11
-652.972920629
 21
-1775.490112305
 31
0.0
  0
LINE
  5
295
100
AcDbEntity
  8
AUGSL1
  6
CENTER
 62
        7
100
AcDbLine
 10
-644.652920458
 20
-1775.490112305
 30
0.0
 11
-636.332920286
 21
-1775.490112305
 31
0.0
  0
LINE
  5
296
100
AcDbEntity
  8
AUGSL1
  6
SOLID
 62
        7
100
AcDbLine
 10
-268.052920553
 20
-1680.490137439
 30
0.0
 11
-273.052920553
 21
-1680.490137439
 31
0.0
  0
LINE
  5
297
100
AcDbEntity
  8
AUGSL1
  6
SOLID
 62
        7
100
AcDbLine
 10
122.684492903
 20
-1698.490090119
 30
0.0
 11
122.684492903
 21
-1703.490090119
 31
0.0
  0
LINE
  5
298
100
AcDbEntity
  8
AUGSL1
  6
SOLID
 62
        7
100
AcDbLine
 10
182.684492903
 20
-1698.490090119
 30
0.0
 11
182.684492903
 21
-1703.490090119
 31
0.0
  0
LINE
  5
299
100
AcDbEntity
  8
AUGSL1
  6
SOLID
 62
        7
100
AcDbLine
 10
-288.052935812
 20
-2351.615071461
 30
0.0
 11
-288.052935812
 21
-2470.49008717
 31
0.0
  0
LINE
  5
29A
100
AcDbEntity
  8
AUGSL1
  6
SOLID
 62
        7
100
AcDbLine
 10
-312.052920553
 20
-2472.49008717
 30
0.0
 11
-240.052935812
 21
-2472.49008717
 31
0.0
  0
LINE
  5
29B
100
AcDbEntity
  8
AUGSL1
  6
SOLID
 62
        7
100
AcDbLine
 10
-238.052935812
 20
-2470.49008717
 30
0.0
 11
-238.052935812
 21
-2335.490112305
 31
0.0
  0
LINE
  5
29C
100
AcDbEntity
  8
AUGSL1
  6
SOLID
 62
        4
100
AcDbLine
 10
-586.052965555
 20
-2211.402702807
 30
0.0
 11
-316.052920553
 21
-2211.402702807
 31
0.0
  0
LINE
  5
29D
100
AcDbEntity
  8
AUGSL1
  6
SOLID
 62
        4
100
AcDbLine
 10
-586.052965555
 20
-2203.119991356
 30
0.0
 11
-316.052920553
 21
-2203.119991356
 31
0.0
  0
LINE
  5
29E
100
AcDbEntity
  8
AUGSL1
  6
SOLID
 62
        4
100
AcDbLine
 10
-638.252905846
 20
-1766.396845818
 30
0.0
 11
-638.252905846
 21
-1784.583378792
 31
0.0
  0
LINE
  5
29F
100
AcDbEntity
  8
AUGSL1
  6
SOLID
 62
        4
100
AcDbLine
 10
-650.115083695
 20
-1769.427934647
 30
0.0
 11
-639.190728187
 21
-1769.427934647
 31
0.0
  0
LINE
  5
2A0
100
AcDbEntity
  8
AUGSL1
  6
SOLID
 62
        4
100
AcDbLine
 10
-651.052906036
 20
-1784.583378792
 30
0.0
 11
-651.052906036
 21
-1766.396845818
 31
0.0
  0
LINE
  5
2A1
100
AcDbEntity
  8
AUGSL1
  6
SOLID
 62
        4
100
AcDbLine
 10
-650.115083695
 20
-1781.552289963
 30
0.0
 11
-639.190728187
 21
-1781.552289963
 31
0.0
  0
ARC
  5
2A2
100
AcDbEntity
  8
AUGSL1
  6
SOLID
 62
        4
100
AcDbCircle
 10
-643.620132551
 20
-1784.583378792
 30
0.0
 40
5.367226705
100
AcDbArc
 50
325.615745828
 51
34.384254172
  0
ARC
  5
2A3
100
AcDbEntity
  8
AUGSL1
  6
SOLID
 62
        4
100
AcDbCircle
 10
-658.315079153
 20
-1775.490112305
 30
0.0
 40
20.062173307
100
AcDbArc
 50
342.412042639
 51
17.587957361
  0
ARC
  5
2A4
100
AcDbEntity
  8
AUGSL1
  6
SOLID
 62
        4
100
AcDbCircle
 10
-643.620132551
 20
-1766.396845818
 30
0.0
 40
5.367226705
100
AcDbArc
 50
325.615745828
 51
34.384254172
  0
LINE
  5
2A5
100
AcDbEntity
  8
AUGSL1
  6
SOLID
 62
        4
100
AcDbLine
 10
-650.115083695
 20
-1763.365756989
 30
0.0
 11
-639.190728187
 21
-1763.365756989
 31
0.0
  0
ARC
  5
2A6
100
AcDbEntity
  8
AUGSL1
  6
SOLID
 62
        4
100
AcDbCircle
 10
-645.685679331
 20
-1766.396845818
 30
0.0
 40
5.367226705
100
AcDbArc
 50
145.615745828
 51
214.384254172
  0
ARC
  5
2A7
100
AcDbEntity
  8
AUGSL1
  6
SOLID
 62
        4
100
AcDbCircle
 10
-630.990732729
 20
-1775.490112305
 30
0.0
 40
20.062173307
100
AcDbArc
 50
162.412042639
 51
197.587957361
  0
ARC
  5
2A8
100
AcDbEntity
  8
AUGSL1
  6
SOLID
 62
        4
100
AcDbCircle
 10
-645.685679331
 20
-1784.583378792
 30
0.0
 40
5.367226705
100
AcDbArc
 50
145.615745828
 51
214.384254172
  0
LINE
  5
2A9
100
AcDbEntity
  8
AUGSL1
  6
SOLID
 62
        4
100
AcDbLine
 10
-639.190728187
 20
-1787.614467621
 30
0.0
 11
-650.115083695
 21
-1787.614467621
 31
0.0
  0
ARC
  5
2AA
100
AcDbEntity
  8
AUGSL1
  6
SOLID
 62
        7
100
AcDbCircle
 10
-263.052935812
 20
-1900.490112305
 30
0.0
 40
10.0
100
AcDbArc
 50
125.235881258
 51
180.0
  0
LINE
  5
2AB
100
AcDbEntity
  8
AUGSL1
  6
CENTER
 62
        2
100
AcDbLine
 10
-144.052627605
 20
-2245.490112305
 30
0.0
 11
-144.052627605
 21
-2335.490112305
 31
0.0
  0
ARC
  5
2AC
100
AcDbEntity
  8
AUGSL1
  6
SOLID
 62
        7
100
AcDbCircle
 10
-298.052935812
 20
-1900.490112305
 30
0.0
 40
10.0
100
AcDbArc
 50
0.0
 51
63.661444203
  0
LINE
  5
2AD
100
AcDbEntity
  8
AUGSL1
  6
SOLID
 62
        4
100
AcDbLine
 10
-260.252936363
 20
-2004.583378792
 30
0.0
 11
-260.252936363
 21
-1986.396845818
 31
0.0
  0
LINE
  5
2AE
100
AcDbEntity
  8
AUGSL1
  6
SOLID
 62
        4
100
AcDbLine
 10
-272.115114212
 20
-2001.552289963
 30
0.0
 11
-261.190758705
 21
-2001.552289963
 31
0.0
  0
LINE
  5
2AF
100
AcDbEntity
  8
AUGSL1
  6
SOLID
 62
        4
100
AcDbLine
 10
-273.052936554
 20
-1986.396845818
 30
0.0
 11
-273.052936554
 21
-2004.583378792
 31
0.0
  0
LINE
  5
2B0
100
AcDbEntity
  8
AUGSL1
  6
SOLID
 62
        4
100
AcDbLine
 10
-272.115114212
 20
-1989.427934647
 30
0.0
 11
-261.190758705
 21
-1989.427934647
 31
0.0
  0
ARC
  5
2B1
100
AcDbEntity
  8
AUGSL1
  6
SOLID
 62
        4
100
AcDbCircle
 10
-265.620163068
 20
-1986.396845818
 30
0.0
 40
5.367226705
100
AcDbArc
 50
325.615745828
 51
34.384254172
  0
ARC
  5
2B2
100
AcDbEntity
  8
AUGSL1
  6
SOLID
 62
        4
100
AcDbCircle
 10
-280.31510967
 20
-1995.490112305
 30
0.0
 40
20.062173307
100
AcDbArc
 50
342.412042639
 51
17.587957361
  0
ARC
  5
2B3
100
AcDbEntity
  8
AUGSL1
  6
SOLID
 62
        4
100
AcDbCircle
 10
-265.620163068
 20
-2004.583378792
 30
0.0
 40
5.367226705
100
AcDbArc
 50
325.615745828
 51
34.384254172
  0
LINE
  5
2B4
100
AcDbEntity
  8
AUGSL1
  6
SOLID
 62
        4
100
AcDbLine
 10
-272.115114212
 20
-2007.614467621
 30
0.0
 11
-261.190758705
 21
-2007.614467621
 31
0.0
  0
ARC
  5
2B5
100
AcDbEntity
  8
AUGSL1
  6
SOLID
 62
        4
100
AcDbCircle
 10
-267.685709849
 20
-2004.583378792
 30
0.0
 40
5.367226705
100
AcDbArc
 50
145.615745828
 51
214.384254172
  0
ARC
  5
2B6
100
AcDbEntity
  8
AUGSL1
  6
SOLID
 62
        4
100
AcDbCircle
 10
-252.990763247
 20
-1995.490112305
 30
0.0
 40
20.062173307
100
AcDbArc
 50
162.412042639
 51
197.587957361
  0
ARC
  5
2B7
100
AcDbEntity
  8
AUGSL1
  6
SOLID
 62
        4
100
AcDbCircle
 10
-267.685709849
 20
-1986.396845818
 30
0.0
 40
5.367226705
100
AcDbArc
 50
145.615745828
 51
214.384254172
  0
LINE
  5
2B8
100
AcDbEntity
  8
AUGSL1
  6
SOLID
 62
        4
100
AcDbLine
 10
-261.190758705
 20
-1983.365756989
 30
0.0
 11
-272.115114212
 21
-1983.365756989
 31
0.0
  0
LINE
  5
2B9
100
AcDbEntity
  8
AUGSL1
  6
SOLID
 62
        7
100
AcDbLine
 10
-253.052935812
 20
-1988.490112305
 30
0.0
 11
-252.052935812
 21
-1989.490112305
 31
0.0
  0
ARC
  5
2BA
100
AcDbEntity
  8
AUGSL1
  6
SOLID
 62
        7
100
AcDbCircle
 10
-263.052935812
 20
-1870.490112305
 30
0.0
 40
10.0
100
AcDbArc
 50
180.0
 51
234.685305238
  0
LINE
  5
2BB
100
AcDbEntity
  8
AUGSL1
  6
SOLID
 62
        7
100
AcDbLine
 10
-253.052935812
 20
-2002.490112305
 30
0.0
 11
-252.052935812
 21
-2001.490112305
 31
0.0
  0
LINE
  5
2BC
100
AcDbEntity
  8
AUGSL1
  6
SOLID
 62
        7
100
AcDbLine
 10
-252.052935812
 20
-1989.490112305
 30
0.0
 11
-252.052935812
 21
-2001.490112305
 31
0.0
  0
ARC
  5
2BD
100
AcDbEntity
  8
AUGSL1
  6
SOLID
 62
        7
100
AcDbCircle
 10
-298.052935812
 20
-1870.490112305
 30
0.0
 40
10.0
100
AcDbArc
 50
302.093034625
 51
0.0
  0
LINE
  5
2BE
100
AcDbEntity
  8
AUGSL1
  6
SOLID
 62
        3
100
AcDbLine
 10
-257.052935812
 20
-1989.690112352
 30
0.0
 11
-252.052935812
 21
-1989.690112352
 31
0.0
  0
LINE
  5
2BF
100
AcDbEntity
  8
AUGSL1
  6
SOLID
 62
        7
100
AcDbLine
 10
-638.252905846
 20
-1782.490112305
 30
0.0
 11
-586.052965555
 21
-1782.490112305
 31
0.0
  0
LINE
  5
2C0
100
AcDbEntity
  8
AUGSL1
  6
SOLID
 62
        7
100
AcDbLine
 10
-586.052965555
 20
-1772.890116414
 30
0.0
 11
-316.052920553
 21
-1772.890116414
 31
0.0
  0
LINE
  5
2C1
100
AcDbEntity
  8
AUGSL1
  6
SOLID
 62
        7
100
AcDbLine
 10
-312.052920553
 20
-1748.490137439
 30
0.0
 11
-312.052920553
 21
-1768.490112305
 31
0.0
  0
LINE
  5
2C2
100
AcDbEntity
  8
AUGSL1
  6
SOLID
 62
        7
100
AcDbLine
 10
-316.052920553
 20
-1782.490112305
 30
0.0
 11
-288.052935812
 21
-1782.490112305
 31
0.0
  0
LINE
  5
2C3
100
AcDbEntity
  8
AUGSL1
  6
SOLID
 62
        7
100
AcDbLine
 10
-638.252905846
 20
-1768.490112305
 30
0.0
 11
-288.052935812
 21
-1768.490112305
 31
0.0
  0
LINE
  5
2C4
100
AcDbEntity
  8
AUGSL1
  6
SOLID
 62
        7
100
AcDbLine
 10
-273.052935812
 20
-1870.490112305
 30
0.0
 11
-273.052935812
 21
-1750.490137439
 31
0.0
  0
ARC
  5
2C5
100
AcDbEntity
  8
AUGSL1
  6
SOLID
 62
        7
100
AcDbCircle
 10
-275.052935812
 20
-1750.490137439
 30
0.0
 40
2.0
100
AcDbArc
 50
360.0
 51
90.0
  0
LINE
  5
2C6
100
AcDbEntity
  8
AUGSL1
  6
SOLID
 62
        7
100
AcDbLine
 10
-286.052935812
 20
-1748.490137439
 30
0.0
 11
-275.052935812
 21
-1748.490137439
 31
0.0
  0
ARC
  5
2C7
100
AcDbEntity
  8
AUGSL1
  6
SOLID
 62
        7
100
AcDbCircle
 10
-286.052935812
 20
-1750.490137439
 30
0.0
 40
2.0
100
AcDbArc
 50
90.0
 51
180.0
  0
LINE
  5
2C8
100
AcDbEntity
  8
AUGSL1
  6
SOLID
 62
        7
100
AcDbLine
 10
-288.052935812
 20
-1870.490112305
 30
0.0
 11
-288.052935812
 21
-1750.490137439
 31
0.0
  0
LINE
  5
2C9
100
AcDbEntity
  8
AUGSL1
  6
CENTER
 62
        2
100
AcDbLine
 10
-310.615671927
 20
-1775.490112305
 30
0.0
 11
-244.956576323
 21
-1775.490112305
 31
0.0
  0
LINE
  5
2CA
100
AcDbEntity
  8
AUGSL1
  6
SOLID
 62
        1
100
AcDbLine
 10
159.184490204
 20
-1721.737335443
 30
0.0
 11
152.68449004
 21
-1717.984558532
 31
0.0
  0
LINE
  5
2CB
100
AcDbEntity
  8
AUGSL1
  6
SOLID
 62
        1
100
AcDbLine
 10
152.684490204
 20
-1717.984558582
 30
0.0
 11
146.18449004
 21
-1721.737335494
 31
0.0
  0
LINE
  5
2CC
100
AcDbEntity
  8
AUGSL1
  6
SOLID
 62
        3
100
AcDbLine
 10
-257.052935812
 20
-2001.290112257
 30
0.0
 11
-252.052935812
 21
-2001.290112257
 31
0.0
  0
DIMENSION
  5
2DC
100
AcDbEntity
  8
AUGSL1
  6
SOLID
 62
        3
100
AcDbDimension
  2
*D1
 10
-790.391723633
 20
-2065.490234375
 30
0.0
 11
-795.891723633
 21
-1988.413452148
 31
0.0
 71
        5
 72
        1
 41
1.0
 42
0.0
  3
2
100
AcDbAlignedDimension
 13
-775.528503418
 23
-1885.490112305
 33
0.0
 14
-663.052856445
 24
-2065.490234375
 34
0.0
 50
90.0
100
AcDbRotatedDimension
  0
LINE
  5
2DD
100
AcDbEntity
  8
AUGSL1
  6
SOLID
 62
        3
100
AcDbLine
 10
-253.052935812
 20
-1988.490112305
 30
0.0
 11
-253.052935812
 21
-2002.490112305
 31
0.0
  0
LINE
  5
2DE
100
AcDbEntity
  8
AUGSL1
  6
SOLID
 62
        7
100
AcDbLine
 10
-586.052940954
 20
-2017.490142822
 30
0.0
 11
-590.052920553
 21
-2017.490142822
 31
0.0
  0
LINE
  5
2DF
100
AcDbEntity
  8
AUGSL1
  6
SOLID
 62
        7
100
AcDbLine
 10
-238.052935812
 20
-1990.490140131
 30
0.0
 11
-238.052935812
 21
-2065.490140131
 31
0.0
  0
LINE
  5
2E0
100
AcDbEntity
  8
AUGSL1
  6
SOLID
 62
        7
100
AcDbLine
 10
-312.052920553
 20
-1782.490112305
 30
0.0
 11
-312.052920553
 21
-1885.490112305
 31
0.0
  0
LINE
  5
2E1
100
AcDbEntity
  8
AUGSL1
  6
SOLID
 62
        7
100
AcDbLine
 10
-316.052945154
 20
-2017.490142822
 30
0.0
 11
-312.052945154
 21
-2017.490142822
 31
0.0
  0
LINE
  5
2E2
100
AcDbEntity
  8
AUGSL1
  6
SOLID
 62
        7
100
AcDbLine
 10
-451.052943054
 20
-2052.490142822
 30
0.0
 11
-316.052951677
 21
-2052.490142822
 31
0.0
  0
LINE
  5
2E3
100
AcDbEntity
  8
AUGSL1
  6
SOLID
 62
        7
100
AcDbLine
 10
-586.052965555
 20
-1772.890116414
 30
0.0
 11
-586.052965555
 21
-1885.490112305
 31
0.0
  0
LINE
  5
2E4
100
AcDbEntity
  8
AUGSL1
  6
SOLID
 62
        7
100
AcDbLine
 10
-458.052964051
 20
-1620.490259088
 30
0.0
 11
-658.052964051
 21
-1620.490259088
 31
0.0
  0
ARC
  5
2E5
100
AcDbEntity
  8
AUGSL1
  6
SOLID
 62
        7
100
AcDbCircle
 10
-259.052935812
 20
-1986.990112305
 30
0.0
 40
2.0
100
AcDbArc
 50
0.0
 51
90.0
  0
LINE
  5
2E6
100
AcDbEntity
  8
AUGSL1
  6
SOLID
 62
        7
100
AcDbLine
 10
-316.052920553
 20
-1772.890116414
 30
0.0
 11
-316.052920553
 21
-1885.490112305
 31
0.0
  0
LINE
  5
2E7
100
AcDbEntity
  8
AUGSL1
  6
SOLID
 62
        7
100
AcDbLine
 10
-233.052935812
 20
-1780.490140131
 30
0.0
 11
-234.052935812
 21
-1780.490140131
 31
0.0
  0
LINE
  5
2E8
100
AcDbEntity
  8
AUGSL1
  6
SOLID
 62
        7
100
AcDbLine
 10
-312.052945899
 20
-2021.490115333
 30
0.0
 11
-312.052945154
 21
-2017.490115333
 31
0.0
  0
LINE
  5
2E9
100
AcDbEntity
  8
AUGSL1
  6
SOLID
 62
        7
100
AcDbLine
 10
-273.052935812
 20
-1900.490112305
 30
0.0
 11
-273.052935812
 21
-2043.490140131
 31
0.0
  0
ARC
  5
2EA
100
AcDbEntity
  8
AUGSL1
  6
SOLID
 62
        7
100
AcDbCircle
 10
-275.052935812
 20
-2043.490140131
 30
0.0
 40
2.0
100
AcDbArc
 50
270.0
 51
0.0
  0
LINE
  5
2EB
100
AcDbEntity
  8
AUGSL1
  6
SOLID
 62
        7
100
AcDbLine
 10
-286.052935812
 20
-2045.490140131
 30
0.0
 11
-275.052935812
 21
-2045.490140131
 31
0.0
  0
ARC
  5
2EC
100
AcDbEntity
  8
AUGSL1
  6
SOLID
 62
        7
100
AcDbCircle
 10
-286.052935812
 20
-2043.490140131
 30
0.0
 40
2.0
100
AcDbArc
 50
180.0
 51
270.0
  0
LINE
  5
2ED
100
AcDbEntity
  8
AUGSL1
  6
SOLID
 62
        7
100
AcDbLine
 10
-288.052935812
 20
-1900.490112305
 30
0.0
 11
-288.052935812
 21
-2065.490140131
 31
0.0
  0
ARC
  5
2EE
100
AcDbEntity
  8
AUGSL1
  6
SOLID
 62
        7
100
AcDbCircle
 10
-291.052935812
 20
-2025.490137439
 30
0.0
 40
3.0
100
AcDbArc
 50
0.0
 51
90.0
  0
LINE
  5
2EF
100
AcDbEntity
  8
AUGSL1
  6
SOLID
 62
        7
100
AcDbLine
 10
-268.052935812
 20
-2022.490142822
 30
0.0
 11
-248.052935812
 21
-2022.490142822
 31
0.0
  0
LINE
  5
2F0
100
AcDbEntity
  8
AUGSL1
  6
SOLID
 62
        7
100
AcDbLine
 10
-243.296868244
 20
-2034.150394169
 30
0.0
 11
-271.105536405
 21
-2034.150394169
 31
0.0
  0
LINE
  5
2F1
100
AcDbEntity
  8
AUGSL1
  6
SOLID
 62
        7
100
AcDbLine
 10
-312.052920553
 20
-1748.490137439
 30
0.0
 11
-240.052935812
 21
-1748.490137439
 31
0.0
  0
ARC
  5
2F2
100
AcDbEntity
  8
AUGSL1
  6
SOLID
 62
        7
100
AcDbCircle
 10
-268.052935812
 20
-2027.490142822
 30
0.0
 40
5.0
100
AcDbArc
 50
90.0
 51
180.0
  0
LINE
  5
2F3
100
AcDbEntity
  8
AUGSL1
  6
SOLID
 62
        7
100
AcDbLine
 10
-312.052946085
 20
-2022.490137439
 30
0.0
 11
-291.052935812
 21
-2022.490137439
 31
0.0
  0
LINE
  5
2F4
100
AcDbEntity
  8
AUGSL1
  6
SOLID
 62
        7
100
AcDbLine
 10
-238.052935812
 20
-2065.490140131
 30
0.0
 11
-288.052935812
 21
-2065.490140131
 31
0.0
  0
LINE
  5
2F6
100
AcDbEntity
  8
AUGSL1
  6
L_DASH
 62
        7
100
AcDbLine
 10
-239.052935812
 20
-2025.490140131
 30
0.0
 11
-272.052935812
 21
-2025.490140131
 31
0.0
  0
LINE
  5
2F7
100
AcDbEntity
  8
AUGSL1
  6
L_DASH
 62
        7
100
AcDbLine
 10
-254.552935812
 20
-2025.490140131
 30
0.0
 11
-254.552935812
 21
-2065.490140131
 31
0.0
  0
LINE
  5
2F8
100
AcDbEntity
  8
AUGSL1
  6
L_DASH
 62
        7
100
AcDbLine
 10
-267.552935812
 20
-2025.490140131
 30
0.0
 11
-267.552935812
 21
-2065.490140131
 31
0.0
  0
LINE
  5
2F9
100
AcDbEntity
  8
AUGSL1
  6
L_DASH
 62
        7
100
AcDbLine
 10
-253.052935812
 20
-2025.490140131
 30
0.0
 11
-253.052935812
 21
-2065.490140131
 31
0.0
  0
LINE
  5
2FA
100
AcDbEntity
  8
AUGSL1
  6
L_DASH
 62
        7
100
AcDbLine
 10
-269.052935812
 20
-2025.490140131
 30
0.0
 11
-269.052935812
 21
-2065.490140131
 31
0.0
  0
LINE
  5
2FB
100
AcDbEntity
  8
AUGSL1
  6
SOLID
 62
        7
100
AcDbLine
 10
-232.052935812
 20
-1804.490112305
 30
0.0
 11
-232.052935812
 21
-1781.490140131
 31
0.0
  0
ARC
  5
2FC
100
AcDbEntity
  8
AUGSL1
  6
SOLID
 62
        7
100
AcDbCircle
 10
-233.052935812
 20
-1781.490140131
 30
0.0
 40
1.0
100
AcDbArc
 50
0.0
 51
90.0
  0
LINE
  5
2FD
100
AcDbEntity
  8
AUGSL1
  6
SOLID
 62
        7
100
AcDbLine
 10
-238.052935812
 20
-1750.490137439
 30
0.0
 11
-238.052935812
 21
-1885.490112305
 31
0.0
  0
ARC
  5
2FE
100
AcDbEntity
  8
AUGSL1
  6
SOLID
 62
        7
100
AcDbCircle
 10
-248.052935812
 20
-2012.490142822
 30
0.0
 40
10.0
100
AcDbArc
 50
270.0
 51
0.0
  0
LINE
  5
2FF
100
AcDbEntity
  8
AUGSL1
  6
SOLID
 62
        7
100
AcDbLine
 10
-233.052935812
 20
-1990.490140131
 30
0.0
 11
-238.052935812
 21
-1990.490140131
 31
0.0
  0
LINE
  5
300
100
AcDbEntity
  8
AUGSL1
  6
SOLID
 62
        7
100
AcDbLine
 10
-458.052964051
 20
-1705.490259088
 30
0.0
 11
-458.052964051
 21
-1620.490259088
 31
0.0
  0
LINE
  5
301
100
AcDbEntity
  8
AUGSL1
  6
SOLID
 62
        7
100
AcDbLine
 10
-232.052935812
 20
-1966.490112305
 30
0.0
 11
-232.052935812
 21
-1989.490140131
 31
0.0
  0
ARC
  5
302
100
AcDbEntity
  8
AUGSL1
  6
SOLID
 62
        7
100
AcDbCircle
 10
-233.052935812
 20
-1989.490140131
 30
0.0
 40
1.0
100
AcDbArc
 50
270.0
 51
0.0
  0
LINE
  5
303
100
AcDbEntity
  8
AUGSL1
  6
SOLID
 62
        7
100
AcDbLine
 10
-4.815507097
 20
-1739.490034586
 30
0.0
 11
-4.815507097
 21
-2019.490034586
 31
0.0
  0
DIMENSION
  5
313
100
AcDbEntity
  8
AUGSL1
  6
SOLID
 62
        3
100
AcDbDimension
  2
*D2
 10
-769.453063965
 20
-1593.802856445
 30
0.0
 11
-450.176177979
 21
-1588.302856445
 31
0.0
 71
        5
 72
        1
 41
1.0
 42
0.0
  1
  665   
  3
3
100
AcDbAlignedDimension
 13
-105.052627563
 23
-1763.490112305
 33
0.0
 14
-769.453063965
 24
-1829.490112305
 34
0.0
100
AcDbRotatedDimension
  0
ARC
  5
314
100
AcDbEntity
  8
AUGSL1
  6
SOLID
 62
        7
100
AcDbCircle
 10
-259.052935812
 20
-2003.990112305
 30
0.0
 40
2.0
100
AcDbArc
 50
270.0
 51
0.0
  0
LINE
  5
315
100
AcDbEntity
  8
AUGSL1
  6
SOLID
 62
        7
100
AcDbLine
 10
-260.440566238
 20
-1984.990112305
 30
0.0
 11
-259.052935812
 21
-1984.990112305
 31
0.0
  0
ARC
  5
316
100
AcDbEntity
  8
AUGSL1
  6
SOLID
 62
        7
100
AcDbCircle
 10
-240.052935812
 20
-1750.490137439
 30
0.0
 40
2.0
100
AcDbArc
 50
0.0
 51
90.0
  0
LINE
  5
317
100
AcDbEntity
  8
AUGSL1
  6
SOLID
 62
        7
100
AcDbLine
 10
115.184492903
 20
-1927.08029787
 30
0.0
 11
115.184492903
 21
-2019.490034586
 31
0.0
  0
LINE
  5
318
100
AcDbEntity
  8
AUGSL1
  6
SOLID
 62
        7
100
AcDbLine
 10
-668.052920553
 20
-2025.490140131
 30
0.0
 11
-651.052920553
 21
-2025.490140131
 31
0.0
  0
ARC
  5
319
100
AcDbEntity
  8
AUGSL1
  6
SOLID
 62
        7
100
AcDbCircle
 10
-651.052905294
 20
-2024.490142822
 30
0.0
 40
2.0
100
AcDbArc
 50
90.0
 51
180.0
  0
ARC
  5
31A
100
AcDbEntity
  8
AUGSL1
  6
SOLID
 62
        7
100
AcDbCircle
 10
-665.052905294
 20
-2027.490140131
 30
0.0
 40
2.0
100
AcDbArc
 50
0.0
 51
90.0
  0
LINE
  5
31B
100
AcDbEntity
  8
AUGSL1
  6
SOLID
 62
        7
100
AcDbLine
 10
-590.052920553
 20
-2022.490142822
 30
0.0
 11
-651.052905294
 21
-2022.490142822
 31
0.0
  0
LINE
  5
31C
100
AcDbEntity
  8
AUGSL1
  6
SOLID
 62
        7
100
AcDbLine
 10
-613.052905294
 20
-2027.490140131
 30
0.0
 11
-613.052905294
 21
-2065.490140131
 31
0.0
  0
LINE
  5
31D
100
AcDbEntity
  8
AUGSL1
  6
SOLID
 62
        7
100
AcDbLine
 10
-609.052920553
 20
-2022.490137439
 30
0.0
 11
-610.052905294
 21
-2022.490137439
 31
0.0
  0
LINE
  5
31E
100
AcDbEntity
  8
AUGSL1
  6
SOLID
 62
        7
100
AcDbLine
 10
-633.052905294
 20
-2025.490140131
 30
0.0
 11
-615.052905294
 21
-2025.490140131
 31
0.0
  0
LINE
  5
31F
100
AcDbEntity
  8
AUGSL1
  6
L_DASH
 62
        7
100
AcDbLine
 10
-649.052905294
 20
-2034.150394169
 30
0.0
 11
-649.052905294
 21
-2065.490140131
 31
0.0
  0
LINE
  5
320
100
AcDbEntity
  8
AUGSL1
  6
L_DASH
 62
        7
100
AcDbLine
 10
-647.552905294
 20
-2034.150394169
 30
0.0
 11
-647.552905294
 21
-2065.490140131
 31
0.0
  0
LINE
  5
321
100
AcDbEntity
  8
AUGSL1
  6
L_DASH
 62
        7
100
AcDbLine
 10
-633.052905294
 20
-2034.150394169
 30
0.0
 11
-633.052905294
 21
-2065.490140131
 31
0.0
  0
LINE
  5
322
100
AcDbEntity
  8
AUGSL1
  6
SOLID
 62
        7
100
AcDbLine
 10
-663.052905294
 20
-2065.490140131
 30
0.0
 11
-613.052905294
 21
-2065.490140131
 31
0.0
  0
LINE
  5
323
100
AcDbEntity
  8
AUGSL1
  6
L_DASH
 62
        7
100
AcDbLine
 10
-634.552905294
 20
-2034.150394169
 30
0.0
 11
-634.552905294
 21
-2065.490140131
 31
0.0
  0
LINE
  5
324
100
AcDbEntity
  8
AUGSL1
  6
SOLID
 62
        7
100
AcDbLine
 10
-225.052627605
 20
-1818.490112305
 30
0.0
 11
-225.052627605
 21
-1885.490112305
 31
0.0
  0
LINE
  5
325
100
AcDbEntity
  8
AUGSL1
  6
SOLID
 62
        7
100
AcDbLine
 10
-663.052905294
 20
-2043.490140131
 30
0.0
 11
-663.052905294
 21
-2065.490140131
 31
0.0
  0
ARC
  5
326
100
AcDbEntity
  8
AUGSL1
  6
SOLID
 62
        7
100
AcDbCircle
 10
-613.052920553
 20
-1743.490137439
 30
0.0
 40
5.0
100
AcDbArc
 50
180.0
 51
270.0
  0
LINE
  5
327
100
AcDbEntity
  8
AUGSL1
  6
SOLID
 62
        7
100
AcDbLine
 10
-609.052920553
 20
-1748.490137439
 30
0.0
 11
-613.052920553
 21
-1748.490137439
 31
0.0
  0
LINE
  5
328
100
AcDbEntity
  8
AUGSL1
  6
SOLID
 62
        7
100
AcDbLine
 10
-663.052905294
 20
-2027.490140131
 30
0.0
 11
-663.052905294
 21
-2043.490140131
 31
0.0
  0
LINE
  5
329
100
AcDbEntity
  8
AUGSL1
  6
SOLID
 62
        7
100
AcDbLine
 10
-618.052920553
 20
-1707.490195663
 30
0.0
 11
-618.052920553
 21
-1743.490137439
 31
0.0
  0
LINE
  5
32A
100
AcDbEntity
  8
AUGSL1
  6
SOLID
 62
        7
100
AcDbLine
 10
-668.052920553
 20
-1885.490167957
 30
0.0
 11
-668.052920553
 21
-1745.490140131
 31
0.0
  0
LINE
  5
32B
100
AcDbEntity
  8
AUGSL1
  6
SOLID
 62
        7
100
AcDbLine
 10
-586.052965555
 20
-1753.490200864
 30
0.0
 11
-590.052920553
 21
-1753.490200864
 31
0.0
  0
ARC
  5
32C
100
AcDbEntity
  8
AUGSL1
  6
SOLID
 62
        7
100
AcDbCircle
 10
-613.052995915
 20
-1743.490200864
 30
0.0
 40
5.0
100
AcDbArc
 50
180.0
 51
270.0
  0
LINE
  5
32D
100
AcDbEntity
  8
AUGSL1
  6
SOLID
 62
        7
100
AcDbLine
 10
-590.052920553
 20
-1748.490200864
 30
0.0
 11
-613.052995915
 21
-1748.490200864
 31
0.0
  0
ARC
  5
32E
100
AcDbEntity
  8
AUGSL1
  6
SOLID
 62
        7
100
AcDbCircle
 10
-620.052995915
 20
-1707.490259088
 30
0.0
 40
2.0
100
AcDbArc
 50
0.0
 51
90.0
  0
LINE
  5
32F
100
AcDbEntity
  8
AUGSL1
  6
SOLID
 62
        7
100
AcDbLine
 10
-618.052995915
 20
-1707.490259088
 30
0.0
 11
-618.052995915
 21
-1743.490200864
 31
0.0
  0
ARC
  5
330
100
AcDbEntity
  8
AUGSL1
  6
SOLID
 62
        7
100
AcDbCircle
 10
-656.052964051
 20
-1707.490259088
 30
0.0
 40
2.0
100
AcDbArc
 50
90.0
 51
180.0
  0
LINE
  5
331
100
AcDbEntity
  8
AUGSL1
  6
SOLID
 62
        7
100
AcDbLine
 10
-653.052905294
 20
-2024.490142822
 30
0.0
 11
-653.052905294
 21
-2043.490140131
 31
0.0
  0
ARC
  5
332
100
AcDbEntity
  8
AUGSL1
  6
SOLID
 62
        7
100
AcDbCircle
 10
-661.052905294
 20
-2043.490140131
 30
0.0
 40
2.0
100
AcDbArc
 50
180.0
 51
270.0
  0
LINE
  5
333
100
AcDbEntity
  8
AUGSL1
  6
SOLID
 62
        7
100
AcDbLine
 10
-655.052905294
 20
-2045.490140131
 30
0.0
 11
-661.052905294
 21
-2045.490140131
 31
0.0
  0
ARC
  5
334
100
AcDbEntity
  8
AUGSL1
  6
SOLID
 62
        7
100
AcDbCircle
 10
-655.052905294
 20
-2043.490140131
 30
0.0
 40
2.0
100
AcDbArc
 50
270.0
 51
0.0
  0
LINE
  5
335
100
AcDbEntity
  8
AUGSL1
  6
SOLID
 62
        7
100
AcDbLine
 10
-260.440566238
 20
-2005.990112305
 30
0.0
 11
-259.052935812
 21
-2005.990112305
 31
0.0
  0
LINE
  5
336
100
AcDbEntity
  8
AUGSL1
  6
SOLID
 62
        7
100
AcDbLine
 10
-590.052920553
 20
-1768.490112305
 30
0.0
 11
-590.052920553
 21
-1748.490200864
 31
0.0
  0
LINE
  5
337
100
AcDbEntity
  8
AUGSL1
  6
SOLID
 62
        7
100
AcDbLine
 10
-651.052920553
 20
-1745.490140131
 30
0.0
 11
-668.052920553
 21
-1745.490140131
 31
0.0
  0
LINE
  5
338
100
AcDbEntity
  8
AUGSL1
  6
SOLID
 62
        7
100
AcDbLine
 10
-668.052920553
 20
-1885.490112305
 30
0.0
 11
-668.052920553
 21
-2025.490140131
 31
0.0
  0
LINE
  5
339
100
AcDbEntity
  8
AUGSL1
  6
SOLID
 62
        7
100
AcDbLine
 10
-651.052905294
 20
-2034.150394169
 30
0.0
 11
-635.052905294
 21
-2034.150394169
 31
0.0
  0
LINE
  5
33A
100
AcDbEntity
  8
AUGSL1
  6
SOLID
 62
        7
100
AcDbLine
 10
-633.052905294
 20
-2022.490142822
 30
0.0
 11
-633.052905294
 21
-2032.150394169
 31
0.0
  0
ARC
  5
33B
100
AcDbEntity
  8
AUGSL1
  6
SOLID
 62
        7
100
AcDbCircle
 10
-635.052905294
 20
-2032.150394169
 30
0.0
 40
2.0
100
AcDbArc
 50
270.0
 51
0.0
  0
ARC
  5
33C
100
AcDbEntity
  8
AUGSL1
  6
SOLID
 62
        7
100
AcDbCircle
 10
-651.052905294
 20
-2036.150394169
 30
0.0
 40
2.0
100
AcDbArc
 50
90.0
 51
180.0
  0
ARC
  5
33D
100
AcDbEntity
  8
AUGSL1
  6
SOLID
 62
        7
100
AcDbCircle
 10
-615.052905294
 20
-2027.490140131
 30
0.0
 40
2.0
100
AcDbArc
 50
0.0
 51
90.0
  0
LINE
  5
33E
100
AcDbEntity
  8
AUGSL1
  6
SOLID
 62
        7
100
AcDbLine
 10
-658.052964051
 20
-1745.490140131
 30
0.0
 11
-658.052964051
 21
-1620.490259088
 31
0.0
  0
LINE
  5
33F
100
AcDbEntity
  8
AUGSL1
  6
SOLID
 62
        7
100
AcDbLine
 10
-458.052964051
 20
-1705.490259088
 30
0.0
 11
-658.052964051
 21
-1705.490259088
 31
0.0
  0
LINE
  5
340
100
AcDbEntity
  8
AUGSL1
  6
SOLID
 62
        7
100
AcDbLine
 10
-668.053088409
 20
-2010.490112305
 30
0.0
 11
-668.053088409
 21
-1934.490112305
 31
0.0
  0
LINE
  5
341
100
AcDbEntity
  8
AUGSL1
  6
SOLID
 62
        7
100
AcDbLine
 10
-764.453089934
 20
-2019.490112305
 30
0.0
 11
-764.453089934
 21
-1885.490112305
 31
0.0
  0
LINE
  5
342
100
AcDbEntity
  8
AUGSL1
  6
SOLID
 62
        7
100
AcDbLine
 10
-686.053088409
 20
-2019.490112305
 30
0.0
 11
-764.453089934
 21
-2019.490112305
 31
0.0
  0
LINE
  5
343
100
AcDbEntity
  8
AUGSL1
  6
SOLID
 62
        7
100
AcDbLine
 10
-769.453089934
 20
-1941.490112305
 30
0.0
 11
-769.453089934
 21
-1885.490112305
 31
0.0
  0
LINE
  5
344
100
AcDbEntity
  8
AUGSL1
  6
SOLID
 62
        7
100
AcDbLine
 10
-764.453089934
 20
-1941.490112305
 30
0.0
 11
-769.453089934
 21
-1941.490112305
 31
0.0
  0
LINE
  5
345
100
AcDbEntity
  8
AUGSL1
  6
SOLID
 62
        7
100
AcDbLine
 10
-686.053088409
 20
-2019.490112305
 30
0.0
 11
-686.053088409
 21
-1885.490112305
 31
0.0
  0
LINE
  5
346
100
AcDbEntity
  8
AUGSL1
  6
SOLID
 62
        7
100
AcDbLine
 10
-668.053088409
 20
-2010.490112305
 30
0.0
 11
-686.053088409
 21
-2010.490112305
 31
0.0
  0
LINE
  5
347
100
AcDbEntity
  8
AUGSL1
  6
SOLID
 62
        7
100
AcDbLine
 10
-668.053088409
 20
-1760.490112305
 30
0.0
 11
-668.053088409
 21
-1836.490112305
 31
0.0
  0
LINE
  5
348
100
AcDbEntity
  8
AUGSL1
  6
SOLID
 62
        7
100
AcDbLine
 10
-764.453089934
 20
-1751.490112305
 30
0.0
 11
-764.453089934
 21
-1885.490112305
 31
0.0
  0
LINE
  5
349
100
AcDbEntity
  8
AUGSL1
  6
SOLID
 62
        7
100
AcDbLine
 10
-686.053088409
 20
-1751.490112305
 30
0.0
 11
-764.453089934
 21
-1751.490112305
 31
0.0
  0
LINE
  5
34A
100
AcDbEntity
  8
AUGSL1
  6
SOLID
 62
        7
100
AcDbLine
 10
-769.453089934
 20
-1829.490112305
 30
0.0
 11
-769.453089934
 21
-1885.490112305
 31
0.0
  0
LINE
  5
34B
100
AcDbEntity
  8
AUGSL1
  6
SOLID
 62
        7
100
AcDbLine
 10
-764.453089934
 20
-1829.490112305
 30
0.0
 11
-769.453089934
 21
-1829.490112305
 31
0.0
  0
LINE
  5
34C
100
AcDbEntity
  8
AUGSL1
  6
SOLID
 62
        7
100
AcDbLine
 10
-686.053088409
 20
-1751.490112305
 30
0.0
 11
-686.053088409
 21
-1885.490112305
 31
0.0
  0
LINE
  5
34D
100
AcDbEntity
  8
AUGSL1
  6
SOLID
 62
        7
100
AcDbLine
 10
-668.053088409
 20
-1760.490112305
 30
0.0
 11
-686.053088409
 21
-1760.490112305
 31
0.0
  0
LINE
  5
34E
100
AcDbEntity
  8
AUGSL1
  6
CENTER
 62
        2
100
AcDbLine
 10
-776.002482406
 20
-1885.490112305
 30
0.0
 11
-95.124933827
 21
-1885.490112305
 31
0.0
  0
LINE
  5
34F
100
AcDbEntity
  8
AUGSL1
  6
SOLID
 62
        7
100
AcDbLine
 10
-231.718617916
 20
-1782.490112305
 30
0.0
 11
-232.118618011
 21
-1782.490112305
 31
0.0
  0
LINE
  5
350
100
AcDbEntity
  8
AUGSL1
  6
SOLID
 62
        7
100
AcDbLine
 10
-231.718617916
 20
-1798.490112305
 30
0.0
 11
-231.718617916
 21
-1782.490112305
 31
0.0
  0
LINE
  5
351
100
AcDbEntity
  8
AUGSL1
  6
SOLID
 62
        7
100
AcDbLine
 10
-232.118618011
 20
-1798.490112305
 30
0.0
 11
-231.718617916
 21
-1798.490112305
 31
0.0
  0
LINE
  5
352
100
AcDbEntity
  8
AUGSL1
  6
SOLID
 62
        7
100
AcDbLine
 10
-105.052627605
 20
-2007.490107008
 30
0.0
 11
-225.052627605
 21
-2007.490107008
 31
0.0
  0
LINE
  5
353
100
AcDbEntity
  8
AUGSL1
  6
SOLID
 62
        7
100
AcDbLine
 10
-105.052627605
 20
-1763.490107008
 30
0.0
 11
-225.052627605
 21
-1763.490107008
 31
0.0
  0
LINE
  5
354
100
AcDbEntity
  8
AUGSL1
  6
SOLID
 62
        7
100
AcDbLine
 10
-225.052627605
 20
-1966.490112305
 30
0.0
 11
-225.052627605
 21
-2007.490107008
 31
0.0
  0
LINE
  5
355
100
AcDbEntity
  8
AUGSL1
  6
SOLID
 62
        7
100
AcDbLine
 10
-105.052627605
 20
-1966.490112305
 30
0.0
 11
-105.052627605
 21
-2007.490107008
 31
0.0
  0
LINE
  5
356
100
AcDbEntity
  8
AUGSL1
  6
SOLID
 62
        1
100
AcDbLine
 10
-770.138612747
 20
-1775.727594376
 30
0.0
 11
-764.853144079
 21
-1775.727594376
 31
0.0
  0
LINE
  5
357
100
AcDbEntity
  8
AUGSL1
  6
SOLID
 62
        1
100
AcDbLine
 10
-764.853144079
 20
-1775.727594376
 30
0.0
 11
-764.853144079
 21
-1757.252386093
 31
0.0
  0
LINE
  5
358
100
AcDbEntity
  8
AUGSL1
  6
SOLID
 62
        1
100
AcDbLine
 10
-764.853144079
 20
-1757.252386093
 30
0.0
 11
-770.138612747
 21
-1757.252386093
 31
0.0
  0
ARC
  5
359
100
AcDbEntity
  8
AUGSL1
  6
SOLID
 62
        1
100
AcDbCircle
 10
-766.763829048
 20
-1759.561787128
 30
0.0
 40
4.089315121
100
AcDbArc
 50
145.615740999
 51
214.384259001
  0
LINE
  5
35A
100
AcDbEntity
  8
AUGSL1
  6
SOLID
 62
        1
100
AcDbLine
 10
-770.138612747
 20
-1761.871188164
 30
0.0
 11
-764.853144079
 21
-1761.871188164
 31
0.0
  0
ARC
  5
35B
100
AcDbEntity
  8
AUGSL1
  6
SOLID
 62
        1
100
AcDbCircle
 10
-755.567680816
 20
-1766.489990234
 30
0.0
 40
15.285463353
100
AcDbArc
 50
162.412040055
 51
197.587959945
  0
LINE
  5
35C
100
AcDbEntity
  8
AUGSL1
  6
SOLID
 62
        1
100
AcDbLine
 10
-770.138612747
 20
-1771.108792305
 30
0.0
 11
-764.853144079
 21
-1771.108792305
 31
0.0
  0
ARC
  5
35D
100
AcDbEntity
  8
AUGSL1
  6
SOLID
 62
        1
100
AcDbCircle
 10
-766.763829048
 20
-1773.41819334
 30
0.0
 40
4.089315121
100
AcDbArc
 50
145.615740999
 51
214.384259001
  0
LINE
  5
35E
100
AcDbEntity
  8
AUGSL1
  6
SOLID
 62
        1
100
AcDbLine
 10
-770.853144169
 20
-1773.41819334
 30
0.0
 11
-770.853144169
 21
-1759.561787128
 31
0.0
  0
LINE
  5
35F
100
AcDbEntity
  8
AUGSL1
  6
SOLID
 62
        1
100
AcDbLine
 10
-764.853144079
 20
-1773.804990292
 30
0.0
 11
-764.453144073
 21
-1773.804990292
 31
0.0
  0
LINE
  5
360
100
AcDbEntity
  8
AUGSL1
  6
SOLID
 62
        1
100
AcDbLine
 10
-764.453144073
 20
-1773.804990292
 30
0.0
 11
-764.453144073
 21
-1759.174990177
 31
0.0
  0
LINE
  5
361
100
AcDbEntity
  8
AUGSL1
  6
SOLID
 62
        1
100
AcDbLine
 10
-764.453144073
 20
-1759.174990177
 30
0.0
 11
-764.853144079
 21
-1759.174990177
 31
0.0
  0
LINE
  5
362
100
AcDbEntity
  8
AUGSL1
  6
CENTER
 62
        7
100
AcDbLine
 10
-764.45312739
 20
-1766.489983338
 30
0.0
 11
-764.45312739
 21
-1818.239983338
 31
0.0
  0
LINE
  5
363
100
AcDbEntity
  8
AUGSL1
  6
CENTER
 62
        7
100
AcDbLine
 10
-764.45312739
 20
-1766.489983338
 30
0.0
 11
-764.45312739
 21
-1753.339983243
 31
0.0
  0
LINE
  5
364
100
AcDbEntity
  8
AUGSL1
  6
SOLID
 62
        1
100
AcDbLine
 10
-770.138612747
 20
-1995.252630234
 30
0.0
 11
-764.853144079
 21
-1995.252630234
 31
0.0
  0
LINE
  5
365
100
AcDbEntity
  8
AUGSL1
  6
SOLID
 62
        1
100
AcDbLine
 10
-770.138612747
 20
-1999.871432304
 30
0.0
 11
-764.853144079
 21
-1999.871432304
 31
0.0
  0
ARC
  5
366
100
AcDbEntity
  8
AUGSL1
  6
SOLID
 62
        1
100
AcDbCircle
 10
-766.763829048
 20
-1997.562031269
 30
0.0
 40
4.089315121
100
AcDbArc
 50
145.615740999
 51
214.384259001
  0
LINE
  5
367
100
AcDbEntity
  8
AUGSL1
  6
SOLID
 62
        1
100
AcDbLine
 10
-764.853144079
 20
-2013.727838516
 30
0.0
 11
-770.138612747
 21
-2013.727838516
 31
0.0
  0
ARC
  5
368
100
AcDbEntity
  8
AUGSL1
  6
SOLID
 62
        1
100
AcDbCircle
 10
-766.763829048
 20
-2011.418437481
 30
0.0
 40
4.089315121
100
AcDbArc
 50
145.615740999
 51
214.384259001
  0
LINE
  5
369
100
AcDbEntity
  8
AUGSL1
  6
SOLID
 62
        1
100
AcDbLine
 10
-770.138612747
 20
-2009.109036446
 30
0.0
 11
-764.853144079
 21
-2009.109036446
 31
0.0
  0
ARC
  5
36A
100
AcDbEntity
  8
AUGSL1
  6
SOLID
 62
        1
100
AcDbCircle
 10
-755.567680816
 20
-2004.490234375
 30
0.0
 40
15.285463353
100
AcDbArc
 50
162.412040055
 51
197.587959945
  0
LINE
  5
36B
100
AcDbEntity
  8
AUGSL1
  6
SOLID
 62
        1
100
AcDbLine
 10
-770.853144169
 20
-1997.562031269
 30
0.0
 11
-770.853144169
 21
-2011.418437481
 31
0.0
  0
DIMENSION
  5
37B
100
AcDbEntity
  8
AUGSL1
  6
SOLID
 62
        3
100
AcDbDimension
  2
*D3
 10
-641.05291748
 20
-2121.829589844
 30
0.0
 11
-463.976226807
 21
-2116.329589844
 31
0.0
 71
        5
 72
        1
 41
1.0
 42
0.0
  3
4
100
AcDbAlignedDimension
 13
-261.05291748
 23
-2065.490234375
 33
0.0
 14
-641.05291748
 24
-2072.359863281
 34
0.0
100
AcDbRotatedDimension
  0
LINE
  5
37C
100
AcDbEntity
  8
AUGSL1
  6
SOLID
 62
        7
100
AcDbLine
 10
-257.052935812
 20
-1986.990112305
 30
0.0
 11
-257.052935812
 21
-2003.990112305
 31
0.0
  0
LINE
  5
37D
100
AcDbEntity
  8
AUGSL1
  6
SOLID
 62
        7
100
AcDbLine
 10
-257.052935812
 20
-1988.490112305
 30
0.0
 11
-253.052935812
 21
-1988.490112305
 31
0.0
  0
DIMENSION
  5
38D
100
AcDbEntity
  8
AUGSL1
  6
SOLID
 62
        3
100
AcDbDimension
  2
*D4
 10
-261.05291748
 20
-2121.729492188
 30
0.0
 11
-221.576934814
 21
-2116.229492188
 31
0.0
 71
        5
 72
        1
 41
1.0
 42
0.0
  3
5
100
AcDbAlignedDimension
 13
-165.052627563
 23
-1906.009887695
 33
0.0
 14
-261.05291748
 24
-2065.490234375
 34
0.0
100
AcDbRotatedDimension
  0
LINE
  5
38E
100
AcDbEntity
  8
AUGSL1
  6
SOLID
 62
        7
100
AcDbLine
 10
-257.052935812
 20
-2002.490112305
 30
0.0
 11
-253.052935812
 21
-2002.490112305
 31
0.0
  0
LINE
  5
38F
100
AcDbEntity
  8
AUGSL1
  6
CENTER
 62
        2
100
AcDbLine
 10
-310.615671927
 20
-1995.490112305
 30
0.0
 11
-244.956576323
 21
-1995.490112305
 31
0.0
  0
DIMENSION
  5
39F
100
AcDbEntity
  8
AUGSL1
  6
SOLID
 62
        3
100
AcDbDimension
  2
*D5
 10
-811.834777832
 20
-2065.490234375
 30
0.0
 11
-817.334777832
 21
-1855.913452148
 31
0.0
 71
        5
 72
        1
 41
1.0
 42
0.0
  3
6
100
AcDbAlignedDimension
 13
-658.05291748
 23
-1620.490234375
 33
0.0
 14
-663.052856445
 24
-2065.490234375
 34
0.0
 50
90.0
100
AcDbRotatedDimension
  0
LINE
  5
3A0
100
AcDbEntity
  8
AUGSL1
  6
SOLID
 62
        7
100
AcDbLine
 10
-312.052920553
 20
-2022.49008717
 30
0.0
 11
-312.052920553
 21
-2002.490112305
 31
0.0
  0
LINE
  5
3A1
100
AcDbEntity
  8
AUGSL1
  6
SOLID
 62
        7
100
AcDbLine
 10
-316.052920553
 20
-1988.490112305
 30
0.0
 11
-288.052935812
 21
-1988.490112305
 31
0.0
  0
DIMENSION
  5
3B1
100
AcDbEntity
  8
AUGSL1
  6
SOLID
 62
        3
100
AcDbDimension
  2
*D6
 10
-165.052627563
 20
-2121.629882813
 30
0.0
 11
-143.118164063
 21
-2116.129882813
 31
0.0
 71
        5
 72
        1
 41
1.0
 42
0.0
  3
7
100
AcDbAlignedDimension
 13
-105.052627563
 23
-2007.490112305
 33
0.0
 14
-165.052627563
 24
-1906.009887695
 34
0.0
100
AcDbRotatedDimension
  0
LINE
  5
3B2
100
AcDbEntity
  8
AUGSL1
  6
SOLID
 62
        7
100
AcDbLine
 10
-312.052920553
 20
-1988.490112305
 30
0.0
 11
-312.052920553
 21
-1885.490112305
 31
0.0
  0
LINE
  5
3B3
100
AcDbEntity
  8
AUGSL1
  6
SOLID
 62
        7
100
AcDbLine
 10
-316.052920553
 20
-1998.090108195
 30
0.0
 11
-316.052920553
 21
-1885.490112305
 31
0.0
  0
DIMENSION
  5
3C4
100
AcDbEntity
  8
AUGSL1
  6
SOLID
 62
        3
100
AcDbDimension
  2
*D7
 10
-77.654960632
 20
-2007.490112305
 30
0.0
 11
-83.154960632
 21
-1942.133911133
 31
0.0
 71
        5
 72
        1
 41
1.0
 42
0.0
  1
 %%c 210/240/320   
  3
8
100
AcDbAlignedDimension
 13
-105.052627563
 23
-1763.490112305
 33
0.0
 14
-105.052627563
 24
-2007.490112305
 34
0.0
 50
90.0
100
AcDbRotatedDimension
  0
LINE
  5
3C5
100
AcDbEntity
  8
AUGSL1
  6
SOLID
 62
        7
100
AcDbLine
 10
-316.052920553
 20
-2052.49008717
 30
0.0
 11
-316.052920553
 21
-2002.490112305
 31
0.0
  0
LINE
  5
3C6
100
AcDbEntity
  8
AUGSL1
  6
CENTER
 62
        2
100
AcDbLine
 10
-668.052920553
 20
-1995.490112305
 30
0.0
 11
-590.564185462
 21
-1995.490112305
 31
0.0
  0
LINE
  5
3C7
100
AcDbEntity
  8
AUGSL1
  6
SOLID
 62
        1
100
AcDbLine
 10
146.184490204
 20
-1721.737335443
 30
0.0
 11
146.184490204
 21
-1729.242889166
 31
0.0
  0
LINE
  5
3C8
100
AcDbEntity
  8
AUGSL1
  6
SOLID
 62
        1
100
AcDbLine
 10
146.184490204
 20
-1729.242889166
 30
0.0
 11
152.684490368
 21
-1732.995666078
 31
0.0
  0
LINE
  5
3C9
100
AcDbEntity
  8
AUGSL1
  6
SOLID
 62
        1
100
AcDbLine
 10
152.684490204
 20
-1732.995666027
 30
0.0
 11
159.184490368
 21
-1729.242889115
 31
0.0
  0
LINE
  5
3CA
100
AcDbEntity
  8
AUGSL1
  6
SOLID
 62
        7
100
AcDbLine
 10
-4.815507097
 20
-2019.490034586
 30
0.0
 11
115.184492903
 21
-2019.490034586
 31
0.0
  0
LINE
  5
3CB
100
AcDbEntity
  8
AUGSL1
  6
SOLID
 62
        7
100
AcDbLine
 10
-4.815507097
 20
-1751.490034586
 30
0.0
 11
115.184492903
 21
-1751.490034586
 31
0.0
  0
LINE
  5
3CC
100
AcDbEntity
  8
AUGSL1
  6
SOLID
 62
        7
100
AcDbLine
 10
-4.815507097
 20
-1739.490034586
 30
0.0
 11
115.184492903
 21
-1739.490034586
 31
0.0
  0
ARC
  5
3CD
100
AcDbEntity
  8
AUGSL1
  6
SOLID
 62
        7
100
AcDbCircle
 10
152.684492903
 20
-1885.490034586
 30
0.0
 40
127.0
100
AcDbArc
 50
90.0
 51
107.174063718
  0
ARC
  5
3CE
100
AcDbEntity
  8
AUGSL1
  6
SOLID
 62
        7
100
AcDbCircle
 10
76.184492903
 20
-2004.490034586
 30
0.0
 40
5.0
100
AcDbArc
 50
40.0
 51
340.0
  0
ARC
  5
3CF
100
AcDbEntity
  8
AUGSL1
  6
SOLID
 62
        7
100
AcDbCircle
 10
152.684492903
 20
-1885.490034586
 30
0.0
 40
100.0
100
AcDbArc
 50
90.0
 51
112.024312837
  0
LINE
  5
3D0
100
AcDbEntity
  8
AUGSL1
  6
CENTER
 62
        2
100
AcDbLine
 10
201.184492903
 20
-1881.213364824
 30
0.0
 11
201.184492903
 21
-1890.344431761
 31
0.0
  0
CIRCLE
  5
3D1
100
AcDbEntity
  8
AUGSL1
  6
SOLID
 62
        7
100
AcDbCircle
 10
76.184492903
 20
-2004.490034586
 30
0.0
 40
4.199999809
  0
LINE
  5
3D2
100
AcDbEntity
  8
AUGSL1
  6
CENTER
 62
        2
100
AcDbLine
 10
76.184492903
 20
-1990.46861374
 30
0.0
 11
76.184492903
 21
-2019.812012872
 31
0.0
  0
LINE
  5
3D3
100
AcDbEntity
  8
AUGSL1
  6
CENTER
 62
        2
100
AcDbLine
 10
89.499257064
 20
-2004.490034586
 30
0.0
 11
67.198273723
 21
-2004.490034586
 31
0.0
  0
ARC
  5
3D4
100
AcDbEntity
  8
AUGSL1
  6
SOLID
 62
        7
100
AcDbCircle
 10
34.184492903
 20
-2004.490034586
 30
0.0
 40
5.0
100
AcDbArc
 50
40.0
 51
340.0
  0
CIRCLE
  5
3D5
100
AcDbEntity
  8
AUGSL1
  6
SOLID
 62
        7
100
AcDbCircle
 10
34.184492903
 20
-2004.490034586
 30
0.0
 40
4.199999809
  0
LINE
  5
3D6
100
AcDbEntity
  8
AUGSL1
  6
CENTER
 62
        2
100
AcDbLine
 10
34.184492903
 20
-1990.46861374
 30
0.0
 11
34.184492903
 21
-2019.812012872
 31
0.0
  0
LINE
  5
3D7
100
AcDbEntity
  8
AUGSL1
  6
CENTER
 62
        2
100
AcDbLine
 10
47.499257064
 20
-2004.490034586
 30
0.0
 11
21.627360731
 21
-2004.490034586
 31
0.0
  0
LINE
  5
3D8
100
AcDbEntity
  8
AUGSL1
  6
CENTER
 62
        2
100
AcDbLine
 10
104.184492903
 20
-1883.097553239
 30
0.0
 11
104.184492903
 21
-1891.648869895
 31
0.0
  0
ARC
  5
3D9
100
AcDbEntity
  8
AUGSL1
  6
SOLID
 62
        7
100
AcDbCircle
 10
152.684492903
 20
-1885.490034586
 30
0.0
 40
100.0
100
AcDbArc
 50
247.975687163
 51
270.0
  0
ARC
  5
3DA
100
AcDbEntity
  8
AUGSL1
  6
SOLID
 62
        7
100
AcDbCircle
 10
152.684492903
 20
-1885.490034586
 30
0.0
 40
127.0
100
AcDbArc
 50
252.825936282
 51
270.0
  0
LINE
  5
3DB
100
AcDbEntity
  8
AUGSL1
  6
SOLID
 62
        7
100
AcDbLine
 10
190.184492903
 20
-1745.490034586
 30
0.0
 11
152.684492903
 21
-1745.490034586
 31
0.0
  0
ARC
  5
3DC
100
AcDbEntity
  8
AUGSL1
  6
SOLID
 62
        7
100
AcDbCircle
 10
271.184492903
 20
-1766.490034586
 30
0.0
 40
5.0
100
AcDbArc
 50
220.0
 51
160.0
  0
CIRCLE
  5
3DD
100
AcDbEntity
  8
AUGSL1
  6
SOLID
 62
        7
100
AcDbCircle
 10
271.184492903
 20
-1766.490034586
 30
0.0
 40
4.199999809
  0
LINE
  5
3DE
100
AcDbEntity
  8
AUGSL1
  6
CENTER
 62
        2
100
AcDbLine
 10
271.184492903
 20
-1780.511455432
 30
0.0
 11
271.184492903
 21
-1751.1680563
 31
0.0
  0
LINE
  5
3DF
100
AcDbEntity
  8
AUGSL1
  6
CENTER
 62
        2
100
AcDbLine
 10
257.869728742
 20
-1766.490034586
 30
0.0
 11
283.741625076
 21
-1766.490034586
 31
0.0
  0
LINE
  5
3E0
100
AcDbEntity
  8
AUGSL1
  6
SOLID
 62
        7
100
AcDbLine
 10
310.184492903
 20
-1739.490034586
 30
0.0
 11
310.184492903
 21
-2019.490034586
 31
0.0
  0
LINE
  5
3E1
100
AcDbEntity
  8
AUGSL1
  6
SOLID
 62
        7
100
AcDbLine
 10
310.184492903
 20
-1751.490034586
 30
0.0
 11
190.184492903
 21
-1751.490034586
 31
0.0
  0
LINE
  5
3E2
100
AcDbEntity
  8
AUGSL1
  6
SOLID
 62
        7
100
AcDbLine
 10
310.184492903
 20
-1739.490034586
 30
0.0
 11
190.184492903
 21
-1739.490034586
 31
0.0
  0
ARC
  5
3E3
100
AcDbEntity
  8
AUGSL1
  6
SOLID
 62
        7
100
AcDbCircle
 10
229.184492903
 20
-1766.490034586
 30
0.0
 40
5.0
100
AcDbArc
 50
220.0
 51
160.0
  0
CIRCLE
  5
3E4
100
AcDbEntity
  8
AUGSL1
  6
SOLID
 62
        7
100
AcDbCircle
 10
229.184492903
 20
-1766.490034586
 30
0.0
 40
4.199999809
  0
LINE
  5
3E5
100
AcDbEntity
  8
AUGSL1
  6
CENTER
 62
        2
100
AcDbLine
 10
229.184492903
 20
-1780.511455432
 30
0.0
 11
229.184492903
 21
-1751.1680563
 31
0.0
  0
LINE
  5
3E6
100
AcDbEntity
  8
AUGSL1
  6
CENTER
 62
        7
100
AcDbLine
 10
215.869728742
 20
-1766.490034586
 30
0.0
 11
238.170712083
 21
-1766.490034586
 31
0.0
  0
LINE
  5
3E7
100
AcDbEntity
  8
AUGSL1
  6
SOLID
 62
        7
100
AcDbLine
 10
190.184492903
 20
-1927.08029787
 30
0.0
 11
190.184492903
 21
-2019.490034586
 31
0.0
  0
ARC
  5
3E8
100
AcDbEntity
  8
AUGSL1
  6
SOLID
 62
        7
100
AcDbCircle
 10
152.684492903
 20
-1885.490034586
 30
0.0
 40
127.0
100
AcDbArc
 50
72.825936282
 51
90.0
  0
LINE
  5
3E9
100
AcDbEntity
  8
AUGSL1
  6
SOLID
 62
        7
100
AcDbLine
 10
190.184492903
 20
-1739.490034586
 30
0.0
 11
190.184492903
 21
-1843.899771302
 31
0.0
  0
ARC
  5
3EA
100
AcDbEntity
  8
AUGSL1
  6
SOLID
 62
        7
100
AcDbCircle
 10
152.684492903
 20
-1885.490034586
 30
0.0
 40
100.0
100
AcDbArc
 50
67.975687163
 51
90.0
  0
LINE
  5
3EB
100
AcDbEntity
  8
AUGSL1
  6
SOLID
 62
        7
100
AcDbLine
 10
115.184492903
 20
-1739.490034586
 30
0.0
 11
115.184492903
 21
-1843.899771302
 31
0.0
  0
ARC
  5
3EC
100
AcDbEntity
  8
AUGSL1
  6
SOLID
 62
        7
100
AcDbCircle
 10
152.684492903
 20
-1885.490034586
 30
0.0
 40
100.0
100
AcDbArc
 50
270.0
 51
292.024312837
  0
ARC
  5
3ED
100
AcDbEntity
  8
AUGSL1
  6
SOLID
 62
        7
100
AcDbCircle
 10
152.684492903
 20
-1885.490034586
 30
0.0
 40
127.0
100
AcDbArc
 50
270.0
 51
287.174063718
  0
ARC
  5
3EE
100
AcDbEntity
  8
AUGSL1
  6
SOLID
 62
        7
100
AcDbCircle
 10
229.184492903
 20
-2004.490034586
 30
0.0
 40
5.0
100
AcDbArc
 50
200.0
 51
140.0
  0
CIRCLE
  5
3EF
100
AcDbEntity
  8
AUGSL1
  6
SOLID
 62
        7
100
AcDbCircle
 10
229.184492903
 20
-2004.490034586
 30
0.0
 40
4.199999809
  0
LINE
  5
3F0
100
AcDbEntity
  8
AUGSL1
  6
CENTER
 62
        2
100
AcDbLine
 10
229.184492903
 20
-1990.46861374
 30
0.0
 11
229.184492903
 21
-2019.812012872
 31
0.0
  0
ARC
  5
3F1
100
AcDbEntity
  8
AUGSL1
  6
SOLID
 62
        7
100
AcDbCircle
 10
271.184492903
 20
-2004.490034586
 30
0.0
 40
5.0
100
AcDbArc
 50
200.0
 51
140.0
  0
CIRCLE
  5
3F2
100
AcDbEntity
  8
AUGSL1
  6
SOLID
 62
        7
100
AcDbCircle
 10
271.184492903
 20
-2004.490034586
 30
0.0
 40
4.199999809
  0
LINE
  5
3F3
100
AcDbEntity
  8
AUGSL1
  6
CENTER
 62
        2
100
AcDbLine
 10
271.184492903
 20
-1990.46861374
 30
0.0
 11
271.184492903
 21
-2019.812012872
 31
0.0
  0
LINE
  5
3F4
100
AcDbEntity
  8
AUGSL1
  6
CENTER
 62
        2
100
AcDbLine
 10
-158.052627605
 20
-2245.490112305
 30
0.0
 11
-158.052627605
 21
-2335.490112305
 31
0.0
  0
LINE
  5
3F5
100
AcDbEntity
  8
AUGSL1
  6
CENTER
 62
        2
100
AcDbLine
 10
-214.052627605
 20
-2245.490112305
 30
0.0
 11
-214.052627605
 21
-2335.490112305
 31
0.0
  0
LINE
  5
3F6
100
AcDbEntity
  8
AUGSL1
  6
SOLID
 62
        7
100
AcDbLine
 10
-105.052627605
 20
-1818.490112305
 30
0.0
 11
-105.052627605
 21
-1952.490112305
 31
0.0
  0
LINE
  5
3F7
100
AcDbEntity
  8
AUGSL1
  6
CENTER
 62
        2
100
AcDbLine
 10
-116.052627605
 20
-2020.211488795
 30
0.0
 11
-116.052627605
 21
-1966.490112305
 31
0.0
  0
LINE
  5
3F8
100
AcDbEntity
  8
AUGSL1
  6
CENTER
 62
        2
100
AcDbLine
 10
215.869728742
 20
-2004.490034586
 30
0.0
 11
238.170712083
 21
-2004.490034586
 31
0.0
  0
LINE
  5
3F9
100
AcDbEntity
  8
AUGSL1
  6
CENTER
 62
        2
100
AcDbLine
 10
-130.052627605
 20
-2020.211488795
 30
0.0
 11
-130.052627605
 21
-1966.490112305
 31
0.0
  0
LINE
  5
3FA
100
AcDbEntity
  8
AUGSL1
  6
CENTER
 62
        2
100
AcDbLine
 10
-144.052627605
 20
-2020.211488795
 30
0.0
 11
-144.052627605
 21
-1966.490112305
 31
0.0
  0
LINE
  5
3FB
100
AcDbEntity
  8
AUGSL1
  6
CENTER
 62
        2
100
AcDbLine
 10
-158.052627605
 20
-2020.211488795
 30
0.0
 11
-158.052627605
 21
-1966.490112305
 31
0.0
  0
LINE
  5
3FC
100
AcDbEntity
  8
AUGSL1
  6
CENTER
 62
        2
100
AcDbLine
 10
-172.052627605
 20
-2020.211488795
 30
0.0
 11
-172.052627605
 21
-1966.490112305
 31
0.0
  0
LINE
  5
3FD
100
AcDbEntity
  8
AUGSL1
  6
CENTER
 62
        2
100
AcDbLine
 10
-186.052627605
 20
-2020.211488795
 30
0.0
 11
-186.052627605
 21
-1966.490112305
 31
0.0
  0
LINE
  5
3FE
100
AcDbEntity
  8
AUGSL1
  6
CENTER
 62
        2
100
AcDbLine
 10
-200.052627605
 20
-2020.211488795
 30
0.0
 11
-200.052627605
 21
-1966.490112305
 31
0.0
  0
LINE
  5
3FF
100
AcDbEntity
  8
AUGSL1
  6
CENTER
 62
        2
100
AcDbLine
 10
257.869728742
 20
-2004.490034586
 30
0.0
 11
283.741625076
 21
-2004.490034586
 31
0.0
  0
LINE
  5
400
100
AcDbEntity
  8
AUGSL1
  6
CENTER
 62
        2
100
AcDbLine
 10
-214.052627605
 20
-2020.211488795
 30
0.0
 11
-214.052627605
 21
-1966.490112305
 31
0.0
  0
LINE
  5
401
100
AcDbEntity
  8
AUGSL1
  6
SOLID
 62
        7
100
AcDbLine
 10
-225.052627605
 20
-1885.490112305
 30
0.0
 11
-225.052627605
 21
-1952.490112305
 31
0.0
  0
LINE
  5
402
100
AcDbEntity
  8
AUGSL1
  6
CENTER
 62
        2
100
AcDbLine
 10
-116.052627605
 20
-1750.768735814
 30
0.0
 11
-116.052627605
 21
-1804.490112305
 31
0.0
  0
LINE
  5
403
100
AcDbEntity
  8
AUGSL1
  6
CENTER
 62
        2
100
AcDbLine
 10
-130.052627605
 20
-1750.768735814
 30
0.0
 11
-130.052627605
 21
-1804.490112305
 31
0.0
  0
LINE
  5
404
100
AcDbEntity
  8
AUGSL1
  6
CENTER
 62
        2
100
AcDbLine
 10
-144.052627605
 20
-1750.768735814
 30
0.0
 11
-144.052627605
 21
-1804.490112305
 31
0.0
  0
LINE
  5
405
100
AcDbEntity
  8
AUGSL1
  6
SOLID
 62
        7
100
AcDbLine
 10
310.184492903
 20
-2019.490034586
 30
0.0
 11
190.184492903
 21
-2019.490034586
 31
0.0
  0
LINE
  5
406
100
AcDbEntity
  8
AUGSL1
  6
SOLID
 62
        7
100
AcDbLine
 10
292.684492903
 20
-2020.490034586
 30
0.0
 11
292.684492903
 21
-2019.490034586
 31
0.0
  0
DIMENSION
  5
416
100
AcDbEntity
  8
AUGSL1
  6
SOLID
 62
        3
100
AcDbDimension
  2
*D8
 10
-4.815505981
 20
-2143.529785156
 30
0.0
 11
139.761184692
 21
-2138.029785156
 31
0.0
 71
        5
 72
        1
 41
1.0
 42
0.0
  1
  320   
  3
9
100
AcDbAlignedDimension
 13
310.184509277
 23
-2019.489990234
 33
0.0
 14
-4.815505981
 24
-2019.489990234
 34
0.0
100
AcDbRotatedDimension
  0
LINE
  5
417
100
AcDbEntity
  8
AUGSL1
  6
SOLID
 62
        7
100
AcDbLine
 10
-590.052920553
 20
-2002.490112305
 30
0.0
 11
-590.052920553
 21
-2022.490023745
 31
0.0
  0
LINE
  5
418
100
AcDbEntity
  8
AUGSL1
  6
SOLID
 62
        7
100
AcDbLine
 10
-586.052965555
 20
-2052.49008717
 30
0.0
 11
-586.052965555
 21
-2002.490112305
 31
0.0
  0
LINE
  5
419
100
AcDbEntity
  8
AUGSL1
  6
CENTER
 62
        2
100
AcDbLine
 10
-158.052627605
 20
-1750.768735814
 30
0.0
 11
-158.052627605
 21
-1804.490112305
 31
0.0
  0
LINE
  5
41A
100
AcDbEntity
  8
AUGSL1
  6
SOLID
 62
        7
100
AcDbLine
 10
-105.052627605
 20
-1763.490107008
 30
0.0
 11
-105.052627605
 21
-1804.490112305
 31
0.0
  0
LINE
  5
41B
100
AcDbEntity
  8
AUGSL1
  6
CENTER
 62
        2
100
AcDbLine
 10
-172.052627605
 20
-1750.768735814
 30
0.0
 11
-172.052627605
 21
-1804.490112305
 31
0.0
  0
LINE
  5
41C
100
AcDbEntity
  8
AUGSL1
  6
CENTER
 62
        2
100
AcDbLine
 10
-186.052627605
 20
-1750.768735814
 30
0.0
 11
-186.052627605
 21
-1804.490112305
 31
0.0
  0
LINE
  5
41D
100
AcDbEntity
  8
AUGSL1
  6
CENTER
 62
        2
100
AcDbLine
 10
-200.052627605
 20
-1750.768735814
 30
0.0
 11
-200.052627605
 21
-1804.490112305
 31
0.0
  0
LINE
  5
41E
100
AcDbEntity
  8
AUGSL1
  6
CENTER
 62
        2
100
AcDbLine
 10
-214.052627605
 20
-1750.768735814
 30
0.0
 11
-214.052627605
 21
-1804.490112305
 31
0.0
  0
LINE
  5
41F
100
AcDbEntity
  8
AUGSL1
  6
SOLID
 62
        7
100
AcDbLine
 10
-225.052627605
 20
-1763.490107008
 30
0.0
 11
-225.052627605
 21
-1804.490112305
 31
0.0
  0
LINE
  5
420
100
AcDbEntity
  8
AUGSL1
  6
SOLID
 62
        7
100
AcDbLine
 10
-232.052935812
 20
-1885.490112305
 30
0.0
 11
-232.052935812
 21
-1952.490112305
 31
0.0
  0
LINE
  5
421
100
AcDbEntity
  8
AUGSL1
  6
SOLID
 62
        7
100
AcDbLine
 10
-238.052935812
 20
-1944.490089398
 30
0.0
 11
-234.052935812
 21
-1944.490089398
 31
0.0
  0
LINE
  5
422
100
AcDbEntity
  8
AUGSL1
  6
CENTER
 62
        2
100
AcDbLine
 10
-242.005388445
 20
-1991.990110683
 30
0.0
 11
-227.974181598
 21
-1991.990110683
 31
0.0
  0
DIMENSION
  5
432
100
AcDbEntity
  8
AUGSL1
  6
SOLID
 62
        3
100
AcDbDimension
  2
*D9
 10
-48.010864258
 20
-2065.489990234
 30
0.0
 11
-53.510864258
 21
-1915.871948242
 31
0.0
 71
        5
 72
        1
 41
1.0
 42
0.0
  3
10
100
AcDbAlignedDimension
 13
-4.815505981
 23
-1739.489990234
 33
0.0
 14
22.684494019
 24
-2065.489990234
 34
0.0
 50
90.0
100
AcDbRotatedDimension
  0
LINE
  5
433
100
AcDbEntity
  8
AUGSL1
  6
SOLID
 62
        7
100
AcDbLine
 10
-586.052965555
 20
-1998.090108195
 30
0.0
 11
-586.052965555
 21
-1885.490112305
 31
0.0
  0
LINE
  5
434
100
AcDbEntity
  8
AUGSL1
  6
SOLID
 62
        7
100
AcDbLine
 10
-590.052920553
 20
-1885.490112305
 30
0.0
 11
-590.052920553
 21
-1988.490112305
 31
0.0
  0
LINE
  5
435
100
AcDbEntity
  8
AUGSL1
  6
SOLID
 62
        7
100
AcDbLine
 10
-234.052935812
 20
-1944.490089398
 30
0.0
 11
-234.052935812
 21
-2009.490106906
 31
0.0
  0
LINE
  5
436
100
AcDbEntity
  8
AUGSL1
  6
SOLID
 62
        7
100
AcDbLine
 10
-586.052965555
 20
-2052.538170186
 30
0.0
 11
-316.052920553
 21
-2052.538170186
 31
0.0
  0
LINE
  5
437
100
AcDbEntity
  8
AUGSL1
  6
SOLID
 62
        4
100
AcDbLine
 10
-586.052965555
 20
-2051.838170176
 30
0.0
 11
-316.052920553
 21
-2051.838170176
 31
0.0
  0
LINE
  5
438
100
AcDbEntity
  8
AUGSL1
  6
SOLID
 62
        7
100
AcDbLine
 10
-238.052935812
 20
-2009.490106906
 30
0.0
 11
-234.052935812
 21
-2009.490106906
 31
0.0
  0
LINE
  5
439
100
AcDbEntity
  8
AUGSL1
  6
CENTER
 62
        2
100
AcDbLine
 10
-258.258781969
 20
-1959.490112305
 30
0.0
 11
-87.251764169
 21
-1959.490112305
 31
0.0
  0
DIMENSION
  5
449
100
AcDbEntity
  8
AUGSL1
  6
SOLID
 62
        3
100
AcDbDimension
  2
*D10
 10
-21.4323349
 20
-2019.489990234
 30
0.0
 11
-26.9323349
 21
-1892.413330078
 31
0.0
 71
        5
 72
        1
 41
1.0
 42
0.0
  3
11
100
AcDbAlignedDimension
 13
-4.815505981
 23
-1739.489990234
 33
0.0
 14
-4.815505981
 24
-2019.489990234
 34
0.0
 50
90.0
100
AcDbRotatedDimension
  0
LINE
  5
44A
100
AcDbEntity
  8
AUGSL1
  6
SOLID
 62
        7
100
AcDbLine
 10
-638.252905846
 20
-2002.490112305
 30
0.0
 11
-288.052935812
 21
-2002.490112305
 31
0.0
  0
LINE
  5
44B
100
AcDbEntity
  8
AUGSL1
  6
SOLID
 62
        7
100
AcDbLine
 10
-638.252905846
 20
-1988.490112305
 30
0.0
 11
-586.052965555
 21
-1988.490112305
 31
0.0
  0
LINE
  5
44C
100
AcDbEntity
  8
AUGSL1
  6
SOLID
 62
        7
100
AcDbLine
 10
-238.052935812
 20
-1826.490135211
 30
0.0
 11
-234.052935812
 21
-1826.490135211
 31
0.0
  0
LINE
  5
44D
100
AcDbEntity
  8
AUGSL1
  6
SOLID
 62
        7
100
AcDbLine
 10
-238.052935812
 20
-1761.490117704
 30
0.0
 11
-234.052935812
 21
-1761.490117704
 31
0.0
  0
DIMENSION
  5
45D
100
AcDbEntity
  8
AUGSL1
  6
SOLID
 62
        3
100
AcDbDimension
  2
*D11
 10
-21.4323349
 20
-2065.489990234
 30
0.0
 11
-26.9323349
 21
-2051.014160156
 31
0.0
 71
        5
 72
        1
 41
1.0
 42
0.0
  3
12
100
AcDbAlignedDimension
 13
-4.815505981
 23
-2019.489990234
 33
0.0
 14
22.684494019
 24
-2065.489990234
 34
0.0
 50
90.0
100
AcDbRotatedDimension
  0
LINE
  5
45E
100
AcDbEntity
  8
AUGSL1
  6
CENTER
 62
        2
100
AcDbLine
 10
-668.052920553
 20
-1775.490112305
 30
0.0
 11
-590.564185462
 21
-1775.490112305
 31
0.0
  0
LINE
  5
45F
100
AcDbEntity
  8
AUGSL1
  6
SOLID
 62
        7
100
AcDbLine
 10
-586.052965555
 20
-1718.490137439
 30
0.0
 11
-586.052965555
 21
-1768.490112305
 31
0.0
  0
LINE
  5
460
100
AcDbEntity
  8
AUGSL1
  6
SOLID
 62
        4
100
AcDbLine
 10
-586.052965555
 20
-2049.838170176
 30
0.0
 11
-316.052920553
 21
-2049.838170176
 31
0.0
  0
LINE
  5
461
100
AcDbEntity
  8
AUGSL1
  6
SOLID
 62
        4
100
AcDbLine
 10
-586.052965555
 20
-2046.910945569
 30
0.0
 11
-316.052920553
 21
-2046.910945569
 31
0.0
  0
LINE
  5
462
100
AcDbEntity
  8
AUGSL1
  6
SOLID
 62
        1
100
AcDbLine
 10
159.184490204
 20
-1729.242889166
 30
0.0
 11
159.184490204
 21
-1721.737335443
 31
0.0
  0
LINE
  5
463
100
AcDbEntity
  8
AUGSL1
  6
SOLID
 62
        7
100
AcDbLine
 10
-590.052920553
 20
-1885.490112305
 30
0.0
 11
-590.052920553
 21
-1782.490112305
 31
0.0
  0
LINE
  5
464
100
AcDbEntity
  8
AUGSL1
  6
SOLID
 62
        7
100
AcDbLine
 10
-316.052920553
 20
-2198.490112305
 30
0.0
 11
-316.052920553
 21
-2218.490112305
 31
0.0
  0
LINE
  5
465
100
AcDbEntity
  8
AUGSL1
  6
SOLID
 62
        7
100
AcDbLine
 10
-234.052935812
 20
-1826.490135211
 30
0.0
 11
-234.052935812
 21
-1761.490117704
 31
0.0
  0
LINE
  5
466
100
AcDbEntity
  8
AUGSL1
  6
CENTER
 62
        2
100
AcDbLine
 10
-258.258781969
 20
-1811.490112305
 30
0.0
 11
-87.251764169
 21
-1811.490112305
 31
0.0
  0
LINE
  5
467
100
AcDbEntity
  8
AUGSL1
  6
CENTER
 62
        2
100
AcDbLine
 10
-242.005388445
 20
-1778.990113926
 30
0.0
 11
-227.974181598
 21
-1778.990113926
 31
0.0
  0
LINE
  5
468
100
AcDbEntity
  8
AUGSL1
  6
SOLID
 62
        7
100
AcDbLine
 10
-99.052935812
 20
-1953.490112305
 30
0.0
 11
-99.052935812
 21
-1965.490112305
 31
0.0
  0
LINE
  5
469
100
AcDbEntity
  8
AUGSL1
  6
SOLID
 62
        7
100
AcDbLine
 10
-234.052935812
 20
-1952.490112305
 30
0.0
 11
-100.052935812
 21
-1952.490112305
 31
0.0
  0
LINE
  5
46A
100
AcDbEntity
  8
AUGSL1
  6
SOLID
 62
        7
100
AcDbLine
 10
-234.052935812
 20
-1966.490112305
 30
0.0
 11
-100.052935812
 21
-1966.490112305
 31
0.0
  0
LINE
  5
46B
100
AcDbEntity
  8
AUGSL1
  6
SOLID
 62
        7
100
AcDbLine
 10
-99.052935812
 20
-1817.490112305
 30
0.0
 11
-99.052935812
 21
-1805.490112305
 31
0.0
  0
LINE
  5
46C
100
AcDbEntity
  8
AUGSL1
  6
SOLID
 62
        4
100
AcDbLine
 10
-586.052965555
 20
-2198.490112305
 30
0.0
 11
-316.052920553
 21
-2198.490112305
 31
0.0
  0
LINE
  5
46D
100
AcDbEntity
  8
AUGSL1
  6
CENTER
 62
        2
100
AcDbLine
 10
-200.052627605
 20
-2245.490112305
 30
0.0
 11
-200.052627605
 21
-2335.490112305
 31
0.0
  0
LINE
  5
46E
100
AcDbEntity
  8
AUGSL1
  6
CENTER
 62
        2
100
AcDbLine
 10
-186.052627605
 20
-2245.490112305
 30
0.0
 11
-186.052627605
 21
-2335.490112305
 31
0.0
  0
LINE
  5
46F
100
AcDbEntity
  8
AUGSL1
  6
CENTER
 62
        2
100
AcDbLine
 10
-172.052627605
 20
-2245.490112305
 30
0.0
 11
-172.052627605
 21
-2335.490112305
 31
0.0
  0
LINE
  5
470
100
AcDbEntity
  8
AUGSL1
  6
SOLID
 62
        7
100
AcDbLine
 10
-586.052965555
 20
-2467.490023745
 30
0.0
 11
-590.052920553
 21
-2467.490023745
 31
0.0
  0
LINE
  5
471
100
AcDbEntity
  8
AUGSL1
  6
SOLID
 62
        7
100
AcDbLine
 10
-234.052935812
 20
-1818.490112305
 30
0.0
 11
-100.052935812
 21
-1818.490112305
 31
0.0
  0
ARC
  5
472
100
AcDbEntity
  8
AUGSL1
  6
SOLID
 62
        7
100
AcDbCircle
 10
-240.052935812
 20
-2470.49008717
 30
0.0
 40
2.0
100
AcDbArc
 50
270.0
 51
0.0
  0
LINE
  5
473
100
AcDbEntity
  8
AUGSL1
  6
SOLID
 62
        7
100
AcDbLine
 10
-764.453089934
 20
-2372.990112305
 30
0.0
 11
-686.053088409
 21
-2372.990112305
 31
0.0
  0
LINE
  5
474
100
AcDbEntity
  8
AUGSL1
  6
SOLID
 62
        7
100
AcDbLine
 10
-764.453089934
 20
-2297.990112305
 30
0.0
 11
-686.053088409
 21
-2297.990112305
 31
0.0
  0
CIRCLE
  5
475
100
AcDbEntity
  8
AUGSL1
  6
SOLID
 62
        1
100
AcDbCircle
 10
152.684490204
 20
-1725.490112305
 30
0.0
 40
6.5
  0
LINE
  5
476
100
AcDbEntity
  8
AUGSL1
  6
SOLID
 62
        7
100
AcDbLine
 10
-671.295604738
 20
-1701.490090119
 30
0.0
 11
-726.052964051
 21
-1701.490090119
 31
0.0
  0
CIRCLE
  5
477
100
AcDbEntity
  8
AUGSL1
  6
SOLID
 62
        7
100
AcDbCircle
 10
152.684492903
 20
-1885.490034586
 30
0.0
 40
56.0
  0
LINE
  5
478
100
AcDbEntity
  8
AUGSL1
  6
CENTER
 62
        2
100
AcDbLine
 10
-458.052964051
 20
-1647.490130129
 30
0.0
 11
-473.519459408
 21
-1647.490130129
 31
0.0
  0
LINE
  5
479
100
AcDbEntity
  8
AUGSL1
  6
CENTER
 62
        2
100
AcDbLine
 10
-458.052964051
 20
-1680.490130129
 30
0.0
 11
-474.387947193
 21
-1680.490130129
 31
0.0
  0
DIMENSION
  5
489
100
AcDbEntity
  8
AUGSL1
  6
SOLID
 62
        3
100
AcDbDimension
  2
*D12
 10
-288.05291748
 20
-2096.262207031
 30
0.0
 11
-282.76159668
 21
-2090.762207031
 31
0.0
 71
        5
 72
        1
 41
1.0
 42
0.0
  3
13
100
AcDbAlignedDimension
 13
-238.052932739
 23
-2065.490234375
 33
0.0
 14
-288.05291748
 24
-2065.490234375
 34
0.0
100
AcDbRotatedDimension
  0
LINE
  5
48A
100
AcDbEntity
  8
AUGSL1
  6
CENTER
 62
        7
100
AcDbLine
 10
-644.652920458
 20
-1995.490112305
 30
0.0
 11
-652.972920629
 21
-1995.490112305
 31
0.0
  0
LINE
  5
48B
100
AcDbEntity
  8
AUGSL1
  6
CENTER
 62
        7
100
AcDbLine
 10
-644.652920458
 20
-1995.490112305
 30
0.0
 11
-636.332920286
 21
-1995.490112305
 31
0.0
  0
LINE
  5
48C
100
AcDbEntity
  8
AUGSL1
  6
SOLID
 62
        4
100
AcDbLine
 10
-638.252905846
 20
-2004.583378792
 30
0.0
 11
-638.252905846
 21
-1986.396845818
 31
0.0
  0
LINE
  5
48D
100
AcDbEntity
  8
AUGSL1
  6
SOLID
 62
        4
100
AcDbLine
 10
-650.115083695
 20
-2001.552289963
 30
0.0
 11
-639.190728187
 21
-2001.552289963
 31
0.0
  0
LINE
  5
48E
100
AcDbEntity
  8
AUGSL1
  6
SOLID
 62
        4
100
AcDbLine
 10
-651.052906036
 20
-1986.396845818
 30
0.0
 11
-651.052906036
 21
-2004.583378792
 31
0.0
  0
LINE
  5
48F
100
AcDbEntity
  8
AUGSL1
  6
SOLID
 62
        4
100
AcDbLine
 10
-650.115083695
 20
-1989.427934647
 30
0.0
 11
-639.190728187
 21
-1989.427934647
 31
0.0
  0
ARC
  5
490
100
AcDbEntity
  8
AUGSL1
  6
SOLID
 62
        4
100
AcDbCircle
 10
-643.620132551
 20
-1986.396845818
 30
0.0
 40
5.367226705
100
AcDbArc
 50
325.615745828
 51
34.384254172
  0
ARC
  5
491
100
AcDbEntity
  8
AUGSL1
  6
SOLID
 62
        4
100
AcDbCircle
 10
-658.315079153
 20
-1995.490112305
 30
0.0
 40
20.062173307
100
AcDbArc
 50
342.412042639
 51
17.587957361
  0
ARC
  5
492
100
AcDbEntity
  8
AUGSL1
  6
SOLID
 62
        4
100
AcDbCircle
 10
-643.620132551
 20
-2004.583378792
 30
0.0
 40
5.367226705
100
AcDbArc
 50
325.615745828
 51
34.384254172
  0
LINE
  5
493
100
AcDbEntity
  8
AUGSL1
  6
SOLID
 62
        4
100
AcDbLine
 10
-650.115083695
 20
-2007.614467621
 30
0.0
 11
-639.190728187
 21
-2007.614467621
 31
0.0
  0
ARC
  5
494
100
AcDbEntity
  8
AUGSL1
  6
SOLID
 62
        4
100
AcDbCircle
 10
-645.685679331
 20
-2004.583378792
 30
0.0
 40
5.367226705
100
AcDbArc
 50
145.615745828
 51
214.384254172
  0
ARC
  5
495
100
AcDbEntity
  8
AUGSL1
  6
SOLID
 62
        4
100
AcDbCircle
 10
-630.990732729
 20
-1995.490112305
 30
0.0
 40
20.062173307
100
AcDbArc
 50
162.412042639
 51
197.587957361
  0
ARC
  5
496
100
AcDbEntity
  8
AUGSL1
  6
SOLID
 62
        4
100
AcDbCircle
 10
-645.685679331
 20
-1986.396845818
 30
0.0
 40
5.367226705
100
AcDbArc
 50
145.615745828
 51
214.384254172
  0
LINE
  5
497
100
AcDbEntity
  8
AUGSL1
  6
SOLID
 62
        4
100
AcDbLine
 10
-639.190728187
 20
-1983.365756989
 30
0.0
 11
-650.115083695
 21
-1983.365756989
 31
0.0
  0
LINE
  5
498
100
AcDbEntity
  8
AUGSL1
  6
SOLID
 62
        7
100
AcDbLine
 10
-234.052935812
 20
-1804.490112305
 30
0.0
 11
-100.052935812
 21
-1804.490112305
 31
0.0
  0
LINE
  5
499
100
AcDbEntity
  8
AUGSL1
  6
SOLID
 62
        7
100
AcDbLine
 10
-452.052964051
 20
-1680.490130129
 30
0.0
 11
-458.052964051
 21
-1680.490130129
 31
0.0
  0
DIMENSION
  5
4A9
100
AcDbEntity
  8
AUGSL1
  6
SOLID
 62
        3
100
AcDbDimension
  2
*D13
 10
-663.052856445
 20
-2096.262207031
 30
0.0
 11
-635.885620117
 21
-2090.762207031
 31
0.0
 71
        5
 72
        1
 41
1.0
 42
0.0
  3
14
100
AcDbAlignedDimension
 13
-613.05291748
 23
-2065.490234375
 33
0.0
 14
-663.052856445
 24
-2065.490234375
 34
0.0
100
AcDbRotatedDimension
  0
LINE
  5
4AA
100
AcDbEntity
  8
AUGSL1
  6
SOLID
 62
        7
100
AcDbLine
 10
-586.052965555
 20
-1998.090108195
 30
0.0
 11
-316.052920553
 21
-1998.090108195
 31
0.0
  0
LINE
  5
4AB
100
AcDbEntity
  8
AUGSL1
  6
SOLID
 62
        7
100
AcDbLine
 10
-651.052920553
 20
-1885.490112305
 30
0.0
 11
-651.052920553
 21
-2025.490140131
 31
0.0
  0
LINE
  5
4AC
100
AcDbEntity
  8
AUGSL1
  6
CENTER
 62
        2
100
AcDbLine
 10
-449.052964051
 20
-1680.490130129
 30
0.0
 11
-452.052964051
 21
-1680.490130129
 31
0.0
  0
LINE
  5
4AD
100
AcDbEntity
  8
AUGSL1
  6
SOLID
 62
        7
100
AcDbLine
 10
-434.052964051
 20
-1680.490130129
 30
0.0
 11
-449.052964051
 21
-1680.490130129
 31
0.0
  0
LINE
  5
4AE
100
AcDbEntity
  8
AUGSL1
  6
CENTER
 62
        2
100
AcDbLine
 10
152.684492903
 20
-1692.0383284
 30
0.0
 11
152.684492903
 21
-2058.482538925
 31
0.0
  0
DIMENSION
  5
4BE
100
AcDbEntity
  8
AUGSL1
  6
SOLID
 62
        3
100
AcDbDimension
  2
*D14
 10
230.956588745
 20
-2065.490234375
 30
0.0
 11
229.106582642
 21
-2048.203125
 31
0.0
 71
        5
 72
        1
 41
1.0
 42
0.0
  3
15
100
AcDbAlignedDimension
 13
273.687072754
 23
-2025.490112305
 33
0.0
 14
282.684143066
 24
-2065.490234375
 34
0.0
 50
90.0
100
AcDbRotatedDimension
  0
DIMENSION
  5
4CE
100
AcDbEntity
  8
AUGSL1
  6
SOLID
 62
        3
100
AcDbDimension
  2
*D15
 10
82.684127808
 20
-2077.529785156
 30
0.0
 11
139.760818481
 21
-2072.029785156
 31
0.0
 71
        5
 72
        1
 41
1.0
 42
0.0
  3
16
100
AcDbAlignedDimension
 13
222.684127808
 23
-2065.490234375
 33
0.0
 14
82.684127808
 24
-2065.490234375
 34
0.0
100
AcDbRotatedDimension
  0
DIMENSION
  5
4DE
100
AcDbEntity
  8
AUGSL1
  6
SOLID
 62
        3
100
AcDbDimension
  2
*D16
 10
52.684127808
 20
-2099.529785156
 30
0.0
 11
139.760818481
 21
-2094.029785156
 31
0.0
 71
        5
 72
        1
 41
1.0
 42
0.0
  3
17
100
AcDbAlignedDimension
 13
252.684127808
 23
-2077.541503906
 33
0.0
 14
52.684127808
 24
-2077.541503906
 34
0.0
100
AcDbRotatedDimension
  0
DIMENSION
  5
4EE
100
AcDbEntity
  8
AUGSL1
  6
SOLID
 62
        3
100
AcDbDimension
  2
*D17
 10
22.684127808
 20
-2121.529785156
 30
0.0
 11
139.760818481
 21
-2116.029785156
 31
0.0
 71
        5
 72
        1
 41
1.0
 42
0.0
  3
18
100
AcDbAlignedDimension
 13
282.684143066
 23
-2065.490234375
 33
0.0
 14
22.684127808
 24
-2065.490234375
 34
0.0
100
AcDbRotatedDimension
  0
LINE
  5
4EF
100
AcDbEntity
  8
AUGSL1
  6
L_DASH
 62
        3
100
AcDbLine
 10
60.684492903
 20
-2025.490034586
 30
0.0
 11
60.684492903
 21
-2065.490034586
 31
0.0
  0
LINE
  5
4F0
100
AcDbEntity
  8
AUGSL1
  6
L_DASH
 62
        3
100
AcDbLine
 10
59.184492903
 20
-2025.490034586
 30
0.0
 11
59.184492903
 21
-2065.490034586
 31
0.0
  0
LINE
  5
4F1
100
AcDbEntity
  8
AUGSL1
  6
L_DASH
 62
        3
100
AcDbLine
 10
44.684492903
 20
-2025.490034586
 30
0.0
 11
44.684492903
 21
-2065.490034586
 31
0.0
  0
LINE
  5
4F2
100
AcDbEntity
  8
AUGSL1
  6
SOLID
 62
        7
100
AcDbLine
 10
92.684492903
 20
-2045.490034586
 30
0.0
 11
152.684492903
 21
-2045.490034586
 31
0.0
  0
LINE
  5
4F3
100
AcDbEntity
  8
AUGSL1
  6
CENTER
 62
        2
100
AcDbLine
 10
52.684492903
 20
-2021.902067331
 30
0.0
 11
52.684492903
 21
-2077.54134115
 31
0.0
  0
LINE
  5
4F4
100
AcDbEntity
  8
AUGSL1
  6
SOLID
 62
        7
100
AcDbLine
 10
22.684492903
 20
-2065.490034586
 30
0.0
 11
82.684492903
 21
-2065.490034586
 31
0.0
  0
LINE
  5
4F5
100
AcDbEntity
  8
AUGSL1
  6
SOLID
 62
        7
100
AcDbLine
 10
82.684492903
 20
-2055.490034586
 30
0.0
 11
82.684492903
 21
-2065.490034586
 31
0.0
  0
ARC
  5
4F6
100
AcDbEntity
  8
AUGSL1
  6
SOLID
 62
        7
100
AcDbCircle
 10
92.684492903
 20
-2055.490034586
 30
0.0
 40
10.0
100
AcDbArc
 50
90.0
 51
180.0
  0
LINE
  5
4F7
100
AcDbEntity
  8
AUGSL1
  6
SOLID
 62
        7
100
AcDbLine
 10
22.684492903
 20
-2030.490034586
 30
0.0
 11
22.684492903
 21
-2065.490034586
 31
0.0
  0
LINE
  5
4F8
100
AcDbEntity
  8
AUGSL1
  6
L_DASH
 62
        3
100
AcDbLine
 10
46.184492903
 20
-2025.490034586
 30
0.0
 11
46.184492903
 21
-2065.490034586
 31
0.0
  0
LINE
  5
4F9
100
AcDbEntity
  8
AUGSL1
  6
SOLID
 62
        7
100
AcDbLine
 10
65.745182674
 20
-2025.490034586
 30
0.0
 11
31.681773433
 21
-2025.490034586
 31
0.0
  0
LINE
  5
4FA
100
AcDbEntity
  8
AUGSL1
  6
CENTER
 62
        7
100
AcDbLine
 10
52.684492903
 20
-2021.902067331
 30
0.0
 11
52.684492903
 21
-2077.54134115
 31
0.0
  0
LINE
  5
4FB
100
AcDbEntity
  8
AUGSL1
  6
SOLID
 62
        7
100
AcDbLine
 10
-705.053088409
 20
-2370.490112305
 30
0.0
 11
-705.053088409
 21
-2364.108249238
 31
0.0
  0
LINE
  5
4FC
100
AcDbEntity
  8
AUGSL1
  6
SOLID
 62
        7
100
AcDbLine
 10
227.684492903
 20
-1705.490090119
 30
0.0
 11
173.11347778
 21
-1705.490090119
 31
0.0
  0
ARC
  5
4FD
100
AcDbEntity
  8
AUGSL1
  6
SOLID
 62
        7
100
AcDbCircle
 10
215.684492903
 20
-1707.490090119
 30
0.0
 40
2.0
100
AcDbArc
 50
0.0
 51
90.0
  0
LINE
  5
4FE
100
AcDbEntity
  8
AUGSL1
  6
SOLID
 62
        7
100
AcDbLine
 10
217.684492903
 20
-1707.490090119
 30
0.0
 11
217.684492903
 21
-1739.490034586
 31
0.0
  0
LINE
  5
4FF
100
AcDbEntity
  8
AUGSL1
  6
CENTER
 62
        2
100
AcDbLine
 10
222.610598939
 20
-1885.490034586
 30
0.0
 11
73.652008671
 21
-1885.490034586
 31
0.0
  0
LINE
  5
500
100
AcDbEntity
  8
AUGSL1
  6
SOLID
 62
        7
100
AcDbLine
 10
77.684492903
 20
-1705.490090119
 30
0.0
 11
132.255508026
 21
-1705.490090119
 31
0.0
  0
ARC
  5
501
100
AcDbEntity
  8
AUGSL1
  6
SOLID
 62
        7
100
AcDbCircle
 10
89.684492903
 20
-1707.490090119
 30
0.0
 40
2.0
100
AcDbArc
 50
90.0
 51
180.0
  0
LINE
  5
502
100
AcDbEntity
  8
AUGSL1
  6
SOLID
 62
        7
100
AcDbLine
 10
222.684492903
 20
-2055.490034586
 30
0.0
 11
222.684492903
 21
-2065.490034586
 31
0.0
  0
LINE
  5
503
100
AcDbEntity
  8
AUGSL1
  6
SOLID
 62
        7
100
AcDbLine
 10
282.684492903
 20
-2065.490034586
 30
0.0
 11
222.684492903
 21
-2065.490034586
 31
0.0
  0
LINE
  5
504
100
AcDbEntity
  8
AUGSL1
  6
SOLID
 62
        7
100
AcDbLine
 10
87.684492903
 20
-1707.490090119
 30
0.0
 11
87.684492903
 21
-1739.490034586
 31
0.0
  0
ARC
  5
505
100
AcDbEntity
  8
AUGSL1
  6
SOLID
 62
        7
100
AcDbCircle
 10
17.684492903
 20
-2020.490034586
 30
0.0
 40
5.0
100
AcDbArc
 50
180.0
 51
270.0
  0
LINE
  5
506
100
AcDbEntity
  8
AUGSL1
  6
SOLID
 62
        7
100
AcDbLine
 10
282.684492903
 20
-2030.490034586
 30
0.0
 11
282.684492903
 21
-2065.490034586
 31
0.0
  0
ARC
  5
507
100
AcDbEntity
  8
AUGSL1
  6
SOLID
 62
        7
100
AcDbCircle
 10
287.684492903
 20
-2030.490034586
 30
0.0
 40
5.0
100
AcDbArc
 50
90.0
 51
180.0
  0
LINE
  5
508
100
AcDbEntity
  8
AUGSL1
  6
L_DASH
 62
        3
100
AcDbLine
 10
244.684492903
 20
-2025.490034586
 30
0.0
 11
244.684492903
 21
-2065.490034586
 31
0.0
  0
LINE
  5
509
100
AcDbEntity
  8
AUGSL1
  6
L_DASH
 62
        3
100
AcDbLine
 10
246.184492903
 20
-2025.490034586
 30
0.0
 11
246.184492903
 21
-2065.490034586
 31
0.0
  0
LINE
  5
50A
100
AcDbEntity
  8
AUGSL1
  6
L_DASH
 62
        3
100
AcDbLine
 10
260.684492903
 20
-2025.490034586
 30
0.0
 11
260.684492903
 21
-2065.490034586
 31
0.0
  0
LINE
  5
50B
100
AcDbEntity
  8
AUGSL1
  6
SOLID
 62
        7
100
AcDbLine
 10
115.184492903
 20
-1745.490034586
 30
0.0
 11
152.684492903
 21
-1745.490034586
 31
0.0
  0
LINE
  5
50C
100
AcDbEntity
  8
AUGSL1
  6
SOLID
 62
        7
100
AcDbLine
 10
12.684492903
 20
-2020.490034586
 30
0.0
 11
12.684492903
 21
-2019.490034586
 31
0.0
  0
LINE
  5
50D
100
AcDbEntity
  8
AUGSL1
  6
SOLID
 62
        7
100
AcDbLine
 10
212.684492903
 20
-2045.490034586
 30
0.0
 11
152.684492903
 21
-2045.490034586
 31
0.0
  0
LINE
  5
50E
100
AcDbEntity
  8
AUGSL1
  6
SOLID
 62
        7
100
AcDbLine
 10
152.684492903
 20
-2025.490034586
 30
0.0
 11
17.684492903
 21
-2025.490034586
 31
0.0
  0
LINE
  5
50F
100
AcDbEntity
  8
AUGSL1
  6
CENTER
 62
        7
100
AcDbLine
 10
252.684492903
 20
-2021.902067331
 30
0.0
 11
252.684492903
 21
-2077.54134115
 31
0.0
  0
ARC
  5
510
100
AcDbEntity
  8
AUGSL1
  6
SOLID
 62
        7
100
AcDbCircle
 10
212.684492903
 20
-2055.490034586
 30
0.0
 40
10.0
100
AcDbArc
 50
0.0
 51
90.0
  0
LINE
  5
511
100
AcDbEntity
  8
AUGSL1
  6
L_DASH
 62
        3
100
AcDbLine
 10
259.184492903
 20
-2025.490034586
 30
0.0
 11
259.184492903
 21
-2065.490034586
 31
0.0
  0
LINE
  5
512
100
AcDbEntity
  8
AUGSL1
  6
SOLID
 62
        7
100
AcDbLine
 10
239.623803132
 20
-2025.490034586
 30
0.0
 11
273.687212373
 21
-2025.490034586
 31
0.0
  0
ARC
  5
513
100
AcDbEntity
  8
AUGSL1
  6
SOLID
 62
        7
100
AcDbCircle
 10
287.684492903
 20
-2020.490034586
 30
0.0
 40
5.0
100
AcDbArc
 50
270.0
 51
360.0
  0
LINE
  5
514
100
AcDbEntity
  8
AUGSL1
  6
SOLID
 62
        7
100
AcDbLine
 10
152.684492903
 20
-2025.490034586
 30
0.0
 11
287.684492903
 21
-2025.490034586
 31
0.0
  0
ARC
  5
515
100
AcDbEntity
  8
AUGSL1
  6
SOLID
 62
        7
100
AcDbCircle
 10
17.684492903
 20
-2030.490034586
 30
0.0
 40
5.0
100
AcDbArc
 50
0.0
 51
90.0
  0
ARC
  5
516
100
AcDbEntity
  8
AUGSL1
  6
SOLID
 62
        7
100
AcDbCircle
 10
76.184492903
 20
-1766.490034586
 30
0.0
 40
5.0
100
AcDbArc
 50
20.0
 51
320.0
  0
CIRCLE
  5
517
100
AcDbEntity
  8
AUGSL1
  6
SOLID
 62
        7
100
AcDbCircle
 10
76.184492903
 20
-1766.490034586
 30
0.0
 40
4.199999809
  0
LINE
  5
518
100
AcDbEntity
  8
AUGSL1
  6
CENTER
 62
        2
100
AcDbLine
 10
76.184492903
 20
-1780.511455432
 30
0.0
 11
76.184492903
 21
-1751.1680563
 31
0.0
  0
LINE
  5
519
100
AcDbEntity
  8
AUGSL1
  6
CENTER
 62
        2
100
AcDbLine
 10
-415.931311495
 20
-1680.490130129
 30
0.0
 11
-434.052964051
 21
-1680.490130129
 31
0.0
  0
LINE
  5
51A
100
AcDbEntity
  8
AUGSL1
  6
SOLID
 62
        7
100
AcDbLine
 10
-449.052964051
 20
-1696.990130129
 30
0.0
 11
-452.052964051
 21
-1696.990130129
 31
0.0
  0
LINE
  5
51B
100
AcDbEntity
  8
AUGSL1
  6
SOLID
 62
        7
100
AcDbLine
 10
-449.052964051
 20
-1663.990130129
 30
0.0
 11
-452.052964051
 21
-1663.990130129
 31
0.0
  0
ARC
  5
51C
100
AcDbEntity
  8
AUGSL1
  6
SOLID
 62
        7
100
AcDbCircle
 10
-431.052964051
 20
-1666.990130129
 30
0.0
 40
3.0
100
AcDbArc
 50
0.0
 51
90.0
  0
LINE
  5
51D
100
AcDbEntity
  8
AUGSL1
  6
SOLID
 62
        7
100
AcDbLine
 10
-99.052935812
 20
-1953.490112305
 30
0.0
 11
-100.052935812
 21
-1952.490112305
 31
0.0
  0
LINE
  5
51E
100
AcDbEntity
  8
AUGSL1
  6
SOLID
 62
        7
100
AcDbLine
 10
-99.052935812
 20
-1965.490112305
 30
0.0
 11
-100.052935812
 21
-1966.490112305
 31
0.0
  0
ARC
  5
51F
100
AcDbEntity
  8
AUGSL1
  6
SOLID
 62
        7
100
AcDbCircle
 10
-431.052964051
 20
-1693.990130129
 30
0.0
 40
3.0
100
AcDbArc
 50
270.0
 51
0.0
  0
LINE
  5
520
100
AcDbEntity
  8
AUGSL1
  6
SOLID
 62
        7
100
AcDbLine
 10
-99.052935812
 20
-1817.490112305
 30
0.0
 11
-100.052935812
 21
-1818.490112305
 31
0.0
  0
LINE
  5
521
100
AcDbEntity
  8
AUGSL1
  6
SOLID
 62
        7
100
AcDbLine
 10
-99.052935812
 20
-1805.490112305
 30
0.0
 11
-100.052935812
 21
-1804.490112305
 31
0.0
  0
LINE
  5
522
100
AcDbEntity
  8
AUGSL1
  6
SOLID
 62
        7
100
AcDbLine
 10
-431.052964051
 20
-1696.990130129
 30
0.0
 11
-434.052964051
 21
-1696.990130129
 31
0.0
  0
LINE
  5
523
100
AcDbEntity
  8
AUGSL1
  6
SOLID
 62
        7
100
AcDbLine
 10
-431.052964051
 20
-1663.990130129
 30
0.0
 11
-434.052964051
 21
-1663.990130129
 31
0.0
  0
LINE
  5
524
100
AcDbEntity
  8
AUGSL1
  6
CENTER
 62
        2
100
AcDbLine
 10
89.499257064
 20
-1766.490034586
 30
0.0
 11
67.198273723
 21
-1766.490034586
 31
0.0
  0
LINE
  5
525
100
AcDbEntity
  8
AUGSL1
  6
SOLID
 62
        7
100
AcDbLine
 10
-428.052964051
 20
-1693.990130129
 30
0.0
 11
-428.052964051
 21
-1666.990130129
 31
0.0
  0
ARC
  5
526
100
AcDbEntity
  8
AUGSL1
  6
SOLID
 62
        7
100
AcDbCircle
 10
34.184492903
 20
-1766.490034586
 30
0.0
 40
5.0
100
AcDbArc
 50
20.0
 51
320.0
  0
LINE
  5
527
100
AcDbEntity
  8
AUGSL1
  6
SOLID
 62
        7
100
AcDbLine
 10
-434.052964051
 20
-1698.490130129
 30
0.0
 11
-434.052964051
 21
-1662.490130129
 31
0.0
  0
LINE
  5
528
100
AcDbEntity
  8
AUGSL1
  6
SOLID
 62
        7
100
AcDbLine
 10
-434.052964051
 20
-1698.490130129
 30
0.0
 11
-449.052964051
 21
-1698.490130129
 31
0.0
  0
LINE
  5
529
100
AcDbEntity
  8
AUGSL1
  6
SOLID
 62
        7
100
AcDbLine
 10
-434.052964051
 20
-1662.490130129
 30
0.0
 11
-449.052964051
 21
-1662.490130129
 31
0.0
  0
LINE
  5
52A
100
AcDbEntity
  8
AUGSL1
  6
SOLID
 62
        7
100
AcDbLine
 10
-449.052964051
 20
-1698.490130129
 30
0.0
 11
-449.052964051
 21
-1662.490130129
 31
0.0
  0
LINE
  5
52B
100
AcDbEntity
  8
AUGSL1
  6
SOLID
 62
        7
100
AcDbLine
 10
-452.052964051
 20
-1698.490130129
 30
0.0
 11
-458.052964051
 21
-1698.490130129
 31
0.0
  0
LINE
  5
52C
100
AcDbEntity
  8
AUGSL1
  6
SOLID
 62
        7
100
AcDbLine
 10
-452.052964051
 20
-1662.490130129
 30
0.0
 11
-458.052964051
 21
-1662.490130129
 31
0.0
  0
LINE
  5
52D
100
AcDbEntity
  8
AUGSL1
  6
SOLID
 62
        7
100
AcDbLine
 10
-452.052964051
 20
-1698.490130129
 30
0.0
 11
-452.052964051
 21
-1662.490130129
 31
0.0
  0
LINE
  5
52E
100
AcDbEntity
  8
AUGSL1
  6
SOLID
 62
        7
100
AcDbLine
 10
-453.052964051
 20
-1647.490130129
 30
0.0
 11
-458.052964051
 21
-1647.490130129
 31
0.0
  0
LINE
  5
52F
100
AcDbEntity
  8
AUGSL1
  6
CENTER
 62
        2
100
AcDbLine
 10
-450.052964051
 20
-1647.490130129
 30
0.0
 11
-453.052964051
 21
-1647.490130129
 31
0.0
  0
LINE
  5
530
100
AcDbEntity
  8
AUGSL1
  6
SOLID
 62
        7
100
AcDbLine
 10
-437.052964051
 20
-1647.490130129
 30
0.0
 11
-450.052964051
 21
-1647.490130129
 31
0.0
  0
LINE
  5
531
100
AcDbEntity
  8
AUGSL1
  6
CENTER
 62
        2
100
AcDbLine
 10
-428.832386859
 20
-1647.490130129
 30
0.0
 11
-437.052964051
 21
-1647.490130129
 31
0.0
  0
ARC
  5
532
100
AcDbEntity
  8
AUGSL1
  6
SOLID
 62
        7
100
AcDbCircle
 10
-434.052964051
 20
-1655.490130129
 30
0.0
 40
3.0
100
AcDbArc
 50
270.0
 51
0.0
  0
LINE
  5
533
100
AcDbEntity
  8
AUGSL1
  6
SOLID
 62
        7
100
AcDbLine
 10
-232.052935812
 20
-1885.490112305
 30
0.0
 11
-232.052935812
 21
-1818.490112305
 31
0.0
  0
ARC
  5
534
100
AcDbEntity
  8
AUGSL1
  6
SOLID
 62
        7
100
AcDbCircle
 10
-434.052964051
 20
-1639.490130129
 30
0.0
 40
3.0
100
AcDbArc
 50
0.0
 51
90.0
  0
LINE
  5
535
100
AcDbEntity
  8
AUGSL1
  6
SOLID
 62
        7
100
AcDbLine
 10
-431.052964051
 20
-1655.490130129
 30
0.0
 11
-431.052964051
 21
-1639.490130129
 31
0.0
  0
LINE
  5
536
100
AcDbEntity
  8
AUGSL1
  6
SOLID
 62
        7
100
AcDbLine
 10
-434.052964051
 20
-1658.490130129
 30
0.0
 11
-437.052964051
 21
-1658.490130129
 31
0.0
  0
LINE
  5
537
100
AcDbEntity
  8
AUGSL1
  6
SOLID
 62
        7
100
AcDbLine
 10
-434.052964051
 20
-1636.490130129
 30
0.0
 11
-437.052964051
 21
-1636.490130129
 31
0.0
  0
LINE
  5
538
100
AcDbEntity
  8
AUGSL1
  6
SOLID
 62
        7
100
AcDbLine
 10
-437.052964051
 20
-1659.490130129
 30
0.0
 11
-450.052964051
 21
-1659.490130129
 31
0.0
  0
LINE
  5
539
100
AcDbEntity
  8
AUGSL1
  6
SOLID
 62
        7
100
AcDbLine
 10
-437.052964051
 20
-1635.490130129
 30
0.0
 11
-450.052964051
 21
-1635.490130129
 31
0.0
  0
LINE
  5
53A
100
AcDbEntity
  8
AUGSL1
  6
SOLID
 62
        7
100
AcDbLine
 10
-437.052964051
 20
-1659.490130129
 30
0.0
 11
-437.052964051
 21
-1635.490130129
 31
0.0
  0
LINE
  5
53B
100
AcDbEntity
  8
AUGSL1
  6
SOLID
 62
        7
100
AcDbLine
 10
-450.052964051
 20
-1659.490130129
 30
0.0
 11
-450.052964051
 21
-1635.490130129
 31
0.0
  0
LINE
  5
53C
100
AcDbEntity
  8
AUGSL1
  6
SOLID
 62
        7
100
AcDbLine
 10
-450.052964051
 20
-1657.490130129
 30
0.0
 11
-453.052964051
 21
-1657.490130129
 31
0.0
  0
LINE
  5
53D
100
AcDbEntity
  8
AUGSL1
  6
SOLID
 62
        7
100
AcDbLine
 10
-450.052964051
 20
-1637.490130129
 30
0.0
 11
-453.052964051
 21
-1637.490130129
 31
0.0
  0
LINE
  5
53E
100
AcDbEntity
  8
AUGSL1
  6
SOLID
 62
        7
100
AcDbLine
 10
-453.052964051
 20
-1659.490130129
 30
0.0
 11
-458.052964051
 21
-1659.490130129
 31
0.0
  0
LINE
  5
53F
100
AcDbEntity
  8
AUGSL1
  6
SOLID
 62
        7
100
AcDbLine
 10
-453.052964051
 20
-1635.490130129
 30
0.0
 11
-458.052964051
 21
-1635.490130129
 31
0.0
  0
LINE
  5
540
100
AcDbEntity
  8
AUGSL1
  6
SOLID
 62
        7
100
AcDbLine
 10
-453.052964051
 20
-1659.490130129
 30
0.0
 11
-453.052964051
 21
-1635.490130129
 31
0.0
  0
LINE
  5
541
100
AcDbEntity
  8
AUGSL1
  6
SOLID
 62
        7
100
AcDbLine
 10
-316.052945154
 20
-1753.490081787
 30
0.0
 11
-312.052945154
 21
-1753.490081787
 31
0.0
  0
LINE
  5
542
100
AcDbEntity
  8
AUGSL1
  6
CENTER
 62
        2
100
AcDbLine
 10
-214.052627605
 20
-1952.490112305
 30
0.0
 11
-214.052627605
 21
-1885.490112305
 31
0.0
  0
LINE
  5
543
100
AcDbEntity
  8
AUGSL1
  6
CENTER
 62
        2
100
AcDbLine
 10
-200.052627605
 20
-1952.490112305
 30
0.0
 11
-200.052627605
 21
-1885.490112305
 31
0.0
  0
LINE
  5
544
100
AcDbEntity
  8
AUGSL1
  6
CENTER
 62
        2
100
AcDbLine
 10
-186.052627605
 20
-1952.490112305
 30
0.0
 11
-186.052627605
 21
-1885.490112305
 31
0.0
  0
LINE
  5
545
100
AcDbEntity
  8
AUGSL1
  6
CENTER
 62
        2
100
AcDbLine
 10
-172.052627605
 20
-1952.490112305
 30
0.0
 11
-172.052627605
 21
-1885.490112305
 31
0.0
  0
LINE
  5
546
100
AcDbEntity
  8
AUGSL1
  6
CENTER
 62
        2
100
AcDbLine
 10
-116.052627605
 20
-1952.490112305
 30
0.0
 11
-116.052627605
 21
-1885.490112305
 31
0.0
  0
LINE
  5
547
100
AcDbEntity
  8
AUGSL1
  6
CENTER
 62
        2
100
AcDbLine
 10
-130.052627605
 20
-1952.490112305
 30
0.0
 11
-130.052627605
 21
-1885.490112305
 31
0.0
  0
LINE
  5
548
100
AcDbEntity
  8
AUGSL1
  6
CENTER
 62
        2
100
AcDbLine
 10
-144.052627605
 20
-1952.490112305
 30
0.0
 11
-144.052627605
 21
-1885.490112305
 31
0.0
  0
LINE
  5
549
100
AcDbEntity
  8
AUGSL1
  6
CENTER
 62
        2
100
AcDbLine
 10
-158.052627605
 20
-1952.490112305
 30
0.0
 11
-158.052627605
 21
-1885.490112305
 31
0.0
  0
LINE
  5
54A
100
AcDbEntity
  8
AUGSL1
  6
CENTER
 62
        2
100
AcDbLine
 10
-116.052627605
 20
-1818.490112305
 30
0.0
 11
-116.052627605
 21
-1885.490112305
 31
0.0
  0
LINE
  5
54B
100
AcDbEntity
  8
AUGSL1
  6
CENTER
 62
        2
100
AcDbLine
 10
-130.052627605
 20
-1818.490112305
 30
0.0
 11
-130.052627605
 21
-1885.490112305
 31
0.0
  0
LINE
  5
54C
100
AcDbEntity
  8
AUGSL1
  6
SOLID
 62
        4
100
AcDbLine
 10
-586.052965555
 20
-2042.586803696
 30
0.0
 11
-316.052920553
 21
-2042.586803696
 31
0.0
  0
LINE
  5
54D
100
AcDbEntity
  8
AUGSL1
  6
SOLID
 62
        4
100
AcDbLine
 10
-586.052965555
 20
-2036.891126548
 30
0.0
 11
-316.052920553
 21
-2036.891126548
 31
0.0
  0
LINE
  5
54E
100
AcDbEntity
  8
AUGSL1
  6
SOLID
 62
        4
100
AcDbLine
 10
-586.052965555
 20
-2029.609322733
 30
0.0
 11
-316.052920553
 21
-2029.609322733
 31
0.0
  0
LINE
  5
54F
100
AcDbEntity
  8
AUGSL1
  6
SOLID
 62
        4
100
AcDbLine
 10
-586.052965555
 20
-2020.211488795
 30
0.0
 11
-316.052920553
 21
-2020.211488795
 31
0.0
  0
LINE
  5
550
100
AcDbEntity
  8
AUGSL1
  6
SOLID
 62
        4
100
AcDbLine
 10
-586.052965555
 20
-1998.090108195
 30
0.0
 11
-316.052920553
 21
-1998.090108195
 31
0.0
  0
LINE
  5
551
100
AcDbEntity
  8
AUGSL1
  6
SOLID
 62
        4
100
AcDbLine
 10
-586.052965555
 20
-1960.490117688
 30
0.0
 11
-316.052920553
 21
-1960.490117688
 31
0.0
  0
LINE
  5
552
100
AcDbEntity
  8
AUGSL1
  6
SOLID
 62
        7
100
AcDbLine
 10
-586.052965555
 20
-1718.442054423
 30
0.0
 11
-316.052920553
 21
-1718.442054423
 31
0.0
  0
LINE
  5
553
100
AcDbEntity
  8
AUGSL1
  6
SOLID
 62
        4
100
AcDbLine
 10
-586.052965555
 20
-1719.142054433
 30
0.0
 11
-316.052920553
 21
-1719.142054433
 31
0.0
  0
LINE
  5
554
100
AcDbEntity
  8
AUGSL1
  6
SOLID
 62
        4
100
AcDbLine
 10
-586.052965555
 20
-1721.142054433
 30
0.0
 11
-316.052920553
 21
-1721.142054433
 31
0.0
  0
LINE
  5
555
100
AcDbEntity
  8
AUGSL1
  6
SOLID
 62
        4
100
AcDbLine
 10
-586.052965555
 20
-1724.069279041
 30
0.0
 11
-316.052920553
 21
-1724.069279041
 31
0.0
  0
LINE
  5
556
100
AcDbEntity
  8
AUGSL1
  6
SOLID
 62
        4
100
AcDbLine
 10
-586.052965555
 20
-1728.393420914
 30
0.0
 11
-316.052920553
 21
-1728.393420914
 31
0.0
  0
LINE
  5
557
100
AcDbEntity
  8
AUGSL1
  6
SOLID
 62
        4
100
AcDbLine
 10
-586.052965555
 20
-1734.089098062
 30
0.0
 11
-316.052920553
 21
-1734.089098062
 31
0.0
  0
LINE
  5
558
100
AcDbEntity
  8
AUGSL1
  6
SOLID
 62
        4
100
AcDbLine
 10
-586.052965555
 20
-1741.370901876
 30
0.0
 11
-316.052920553
 21
-1741.370901876
 31
0.0
  0
LINE
  5
559
100
AcDbEntity
  8
AUGSL1
  6
SOLID
 62
        4
100
AcDbLine
 10
-586.052965555
 20
-1750.768735814
 30
0.0
 11
-316.052920553
 21
-1750.768735814
 31
0.0
  0
LINE
  5
55A
100
AcDbEntity
  8
AUGSL1
  6
CENTER
 62
        2
100
AcDbLine
 10
-144.052627605
 20
-1818.490112305
 30
0.0
 11
-144.052627605
 21
-1885.490112305
 31
0.0
  0
LINE
  5
55B
100
AcDbEntity
  8
AUGSL1
  6
CENTER
 62
        2
100
AcDbLine
 10
-158.052627605
 20
-1818.490112305
 30
0.0
 11
-158.052627605
 21
-1885.490112305
 31
0.0
  0
LINE
  5
55C
100
AcDbEntity
  8
AUGSL1
  6
CENTER
 62
        2
100
AcDbLine
 10
-214.052627605
 20
-1818.490112305
 30
0.0
 11
-214.052627605
 21
-1885.490112305
 31
0.0
  0
LINE
  5
55D
100
AcDbEntity
  8
AUGSL1
  6
SOLID
 62
        7
100
AcDbLine
 10
-316.052920553
 20
-1718.490137439
 30
0.0
 11
-316.052920553
 21
-1768.490112305
 31
0.0
  0
LINE
  5
55E
100
AcDbEntity
  8
AUGSL1
  6
SOLID
 62
        4
100
AcDbLine
 10
-586.052965555
 20
-1810.490106922
 30
0.0
 11
-316.052920553
 21
-1810.490106922
 31
0.0
  0
LINE
  5
55F
100
AcDbEntity
  8
AUGSL1
  6
CENTER
 62
        2
100
AcDbLine
 10
-200.052627605
 20
-1818.490112305
 30
0.0
 11
-200.052627605
 21
-1885.490112305
 31
0.0
  0
LINE
  5
560
100
AcDbEntity
  8
AUGSL1
  6
CENTER
 62
        2
100
AcDbLine
 10
-186.052627605
 20
-1818.490112305
 30
0.0
 11
-186.052627605
 21
-1885.490112305
 31
0.0
  0
LINE
  5
561
100
AcDbEntity
  8
AUGSL1
  6
CENTER
 62
        2
100
AcDbLine
 10
-172.052627605
 20
-1818.490112305
 30
0.0
 11
-172.052627605
 21
-1885.490112305
 31
0.0
  0
CIRCLE
  5
562
100
AcDbEntity
  8
AUGSL1
  6
SOLID
 62
        7
100
AcDbCircle
 10
34.184492903
 20
-1766.490034586
 30
0.0
 40
4.199999809
  0
LINE
  5
563
100
AcDbEntity
  8
AUGSL1
  6
CENTER
 62
        2
100
AcDbLine
 10
34.184492903
 20
-1780.511455432
 30
0.0
 11
34.184492903
 21
-1751.1680563
 31
0.0
  0
LINE
  5
564
100
AcDbEntity
  8
AUGSL1
  6
CENTER
 62
        7
100
AcDbLine
 10
47.499257064
 20
-1766.490034586
 30
0.0
 11
21.627360731
 21
-1766.490034586
 31
0.0
  0
LINE
  5
565
100
AcDbEntity
  8
AUGSL1
  6
SOLID
 62
        7
100
AcDbLine
 10
-660.396109801
 20
-1709.075876556
 30
0.0
 11
-665.638750488
 21
-1703.833235869
 31
0.0
  0
LINE
  5
566
100
AcDbEntity
  8
AUGSL1
  6
SOLID
 62
        7
100
AcDbLine
 10
-663.931643707
 20
-1712.611410462
 30
0.0
 11
-669.174284394
 21
-1707.368769775
 31
0.0
  0
LINE
  5
567
100
AcDbEntity
  8
AUGSL1
  6
SOLID
 62
        7
100
AcDbLine
 10
-726.052964051
 20
-1701.490090119
 30
0.0
 11
-726.052964051
 21
-1706.490090119
 31
0.0
  0
LINE
  5
568
100
AcDbEntity
  8
AUGSL1
  6
SOLID
 62
        7
100
AcDbLine
 10
-586.052965555
 20
-2017.490023745
 30
0.0
 11
-590.052920553
 21
-2017.490023745
 31
0.0
  0
LINE
  5
569
100
AcDbEntity
  8
AUGSL1
  6
SOLID
 62
        7
100
AcDbLine
 10
-238.052935812
 20
-2020.49008717
 30
0.0
 11
-238.052935812
 21
-1885.490112305
 31
0.0
  0
MTEXT
  5
56A
100
AcDbEntity
  8
AUGSL1
  6
SOLID
 62
        3
100
AcDbMText
 10
44.71288681
 20
-2231.634765625
 30
0.0
 40
15.0
 41
0.0
 71
        1
 72
        5
  1
\f|b0|i0|c177|p0;G300 L1
 73
        2
 44
1.0
  0
DIMENSION
  5
57A
100
AcDbEntity
  8
AUGSL1
  6
SOLID
 62
        3
100
AcDbDimension
  2
*D18
 10
-225.052627563
 20
-1715.542236328
 30
0.0
 11
-177.97593689
 21
-1710.042236328
 31
0.0
 71
        5
 72
        1
 41
1.0
 42
0.0
  3
19
100
AcDbAlignedDimension
 13
-105.052627563
 23
-1763.490112305
 33
0.0
 14
-225.052627563
 24
-1763.490112305
 34
0.0
100
AcDbRotatedDimension
  0
LINE
  5
57B
100
AcDbEntity
  8
AUGSL1
  6
SOLID
 62
        7
100
AcDbLine
 10
-651.052920553
 20
-1885.490167957
 30
0.0
 11
-651.052920553
 21
-1745.490140131
 31
0.0
  0
LINE
  5
57C
100
AcDbEntity
  8
AUGSL1
  6
SOLID
 62
        7
100
AcDbLine
 10
-265.052920553
 20
-2320.490112305
 30
0.0
 11
-238.052935812
 21
-2320.490112305
 31
0.0
  0
ENDSEC
  0
SECTION
  2
OBJECTS
  0
DICTIONARY
  5
19
100
AcDbDictionary
280
        0
281
        1
  3
ACAD_GROUP
350
1A
  3
ACAD_MLINESTYLE
350
1B
  3
ACAD_LAYOUT
350
1E
  3
ACAD_PLOTSETTINGS
350
22
  3
ACAD_PLOTSTYLENAME
350
1F
  0
DICTIONARY
  5
1A
102
{ACAD_REACTORS
330
19
102
}
100
AcDbDictionary
280
        0
281
        1
  0
DICTIONARY
  5
1B
102
{ACAD_REACTORS
330
19
102
}
100
AcDbDictionary
280
        0
281
        1
  3
Standard
350
1C
  0
MLINESTYLE
  5
1C
102
{ACAD_REACTORS
330
1B
102
}
100
AcDbMlineStyle
  2
Standard
 70
        0
  3

 62
        0
 51
90.0
 52
90.0
 71
        2
 49
0.5
 62
      256
  6
BYLAYER
 49
-0.5
 62
      256
  6
BYLAYER
  0
ACDBDICTIONARYWDFLT
  5
1F
102
{ACAD_REACTORS
330
19
102
}
100
AcDbDictionary
281
        1
  3
Normal
350
1D
100
AcDbDictionaryWithDefault
340
1D
  0
ACDBPLACEHOLDER
  5
1D
102
{ACAD_REACTORS
330
1F
102
}
  0
LAYOUT
  5
20
102
{ACAD_REACTORS
330
1E
102
}
100
AcDbPlotSettings
  1

  2

  4

  6

 40
0.0
 41
0.0
 42
0.0
 43
0.0
 44
0.0
 45
0.0
 46
0.0
 47
0.0
 48
0.0
 49
0.0
140
0.0
141
0.0
142
1.0
143
1.0
 70
     1024
 72
        0
 73
        0
 74
        0
  7

 75
        0
147
1.0
148
0.0
149
0.0
100
AcDbLayout
  1
Model
 70
        0
 71
        0
 10
0.0
 20
0.0
 11
0.0
 21
0.0
 12
0.0
 22
0.0
 32
0.0
 14
0.0
 24
0.0
 34
0.0
 15
0.0
 25
0.0
 35
0.0
146
0.0
 13
0.0
 23
0.0
 33
0.0
 16
0.0
 26
0.0
 36
0.0
 17
0.0
 27
0.0
 37
0.0
 76
        0
330
A
331
0
345
0
346
0
  0
LAYOUT
  5
21
102
{ACAD_REACTORS
330
1E
102
}
100
AcDbPlotSettings
  1

  2

  4

  6

 40
0.0
 41
0.0
 42
0.0
 43
0.0
 44
0.0
 45
0.0
 46
0.0
 47
0.0
 48
0.0
 49
0.0
140
0.0
141
0.0
142
1.0
143
1.0
 70
        0
 72
        0
 73
        0
 74
        0
  7

 75
        0
147
1.0
148
0.0
149
0.0
100
AcDbLayout
  1
Layout1
 70
        0
 71
        0
 10
0.0
 20
0.0
 11
0.0
 21
0.0
 12
0.0
 22
0.0
 32
0.0
 14
0.0
 24
0.0
 34
0.0
 15
0.0
 25
0.0
 35
0.0
146
0.0
 13
0.0
 23
0.0
 33
0.0
 16
0.0
 26
0.0
 36
0.0
 17
0.0
 27
0.0
 37
0.0
 76
        0
330
B
331
0
345
0
346
0
  0
DICTIONARY
  5
1E
102
{ACAD_REACTORS
330
19
102
}
100
AcDbDictionary
280
        0
281
        1
  3
Layout1
350
21
  3
Model
350
20
  0
DICTIONARY
  5
22
102
{ACAD_REACTORS
330
19
102
}
100
AcDbDictionary
280
        0
281
        1
  0
ENDSEC
  0
EOF
