  0
SECTION
  2
HEADER
  9
$ACADVER
  1
AC1015
  9
$ACADMAINTVER
 70
        6
  9
$DWGCODEPAGE
  3
ANSI_1252
  9
$INSBASE
 10
0.0
 20
0.0
 30
0.0
  9
$EXTMIN
 10
1.000000000E+20
 20
1.000000000E+20
 30
1.000000000E+20
  9
$EXTMAX
 10
-1.000000000E+20
 20
-1.000000000E+20
 30
-1.000000000E+20
  9
$LIMMIN
 10
0.0
 20
0.0
  9
$LIMMAX
 10
0.0
 20
0.0
  9
$ORTHOMODE
 70
        0
  9
$REGENMODE
 70
        1
  9
$FILLMODE
 70
        1
  9
$QTEXTMODE
 70
        0
  9
$MIRRTEXT
 70
        1
  9
$LTSCALE
 40
1.0
  9
$ATTMODE
 70
        1
  9
$TEXTSIZE
 40
0.2
  9
$TRACEWID
 40
0.05
  9
$TEXTSTYLE
  7
Standard
  9
$CLAYER
  8
1
  9
$CELTYPE
  6
Continuous
  9
$CECOLOR
 62
      256
  9
$CELTSCALE
 40
1.0
  9
$DISPSILH
 70
        0
  9
$DIMSCALE
 40
1.0
  9
$DIMASZ
 40
11.0
  9
$DIMEXO
 40
4.0
  9
$DIMDLI
 40
0.38
  9
$DIMRND
 40
0.0
  9
$DIMDLE
 40
0.0
  9
$DIMEXE
 40
4.0
  9
$DIMTP
 40
0.0
  9
$DIMTM
 40
0.0
  9
$DIMTXT
 40
11.0
  9
$DIMCEN
 40
0.09
  9
$DIMTSZ
 40
0.0
  9
$DIMTOL
 70
        0
  9
$DIMLIM
 70
        0
  9
$DIMTIH
 70
        0
  9
$DIMTOH
 70
        0
  9
$DIMSE1
 70
        0
  9
$DIMSE2
 70
        0
  9
$DIMTAD
 70
        1
  9
$DIMZIN
 70
        0
  9
$DIMBLK
  1

  9
$DIMASO
 70
        1
  9
$DIMSHO
 70
        1
  9
$DIMPOST
  1

  9
$DIMAPOST
  1

  9
$DIMALT
 70
        0
  9
$DIMALTD
 70
        2
  9
$DIMALTF
 40
25.4
  9
$DIMLFAC
 40
1.0
  9
$DIMTOFL
 70
        1
  9
$DIMTVP
 40
0.0
  9
$DIMTIX
 70
        0
  9
$DIMSOXD
 70
        0
  9
$DIMSAH
 70
        0
  9
$DIMBLK1
  1

  9
$DIMBLK2
  1

  9
$DIMSTYLE
  2
Standard
  9
$DIMCLRD
 70
        7
  9
$DIMCLRE
 70
        7
  9
$DIMCLRT
 70
       50
  9
$DIMTFAC
 40
1.0
  9
$DIMGAP
 40
0.09
  9
$DIMJUST
 70
        0
  9
$DIMSD1
 70
        0
  9
$DIMSD2
 70
        0
  9
$DIMTOLJ
 70
        1
  9
$DIMTZIN
 70
        0
  9
$DIMALTZ
 70
        0
  9
$DIMALTTZ
 70
        0
  9
$DIMUPT
 70
        0
  9
$DIMDEC
 70
        0
  9
$DIMTDEC
 70
        4
  9
$DIMALTU
 70
        2
  9
$DIMALTTD
 70
        2
  9
$DIMTXSTY
  7
Standard
  9
$DIMAUNIT
 70
        0
  9
$DIMADEC
 70
        0
  9
$DIMALTRND
 40
0.0
  9
$DIMAZIN
 70
        0
  9
$DIMDSEP
 70
        0
  9
$DIMATFIT
 70
        1
  9
$DIMFRAC
 70
        0
  9
$DIMLDRBLK
  1

  9
$DIMLUNIT
 70
        2
  9
$DIMLWD
 70
        0
  9
$DIMLWE
 70
        0
  9
$DIMTMOVE
 70
        0
  9
$LUNITS
 70
        2
  9
$LUPREC
 70
        0
  9
$SKETCHINC
 40
0.1
  9
$FILLETRAD
 40
0.0
  9
$AUNITS
 70
        0
  9
$AUPREC
 70
        2
  9
$MENU
  1
acad
  9
$ELEVATION
 40
0.0
  9
$PELEVATION
 40
0.0
  9
$THICKNESS
 40
0.0
  9
$LIMCHECK
 70
        0
  9
$CHAMFERA
 40
0.0
  9
$CHAMFERB
 40
0.0
  9
$CHAMFERC
 40
0.0
  9
$CHAMFERD
 40
0.0
  9
$SKPOLY
 70
        0
  9
$TDCREATE
 40
0.000000000
  9
$TDUCREATE
 40
0.000000000
  9
$TDUPDATE
 40
0.000000000
  9
$TDUUPDATE
 40
0.000000000
  9
$TDINDWG
 40
0.0000000000
  9
$TDUSRTIMER
 40
0.0000000000
  9
$USRTIMER
 70
        1
  9
$ANGBASE
 50
0.0
  9
$ANGDIR
 70
        0
  9
$PDMODE
 70
        2
  9
$PDSIZE
 40
-1.0
  9
$PLINEWID
 40
0.0
  9
$SPLFRAME
 70
        0
  9
$SPLINETYPE
 70
        6
  9
$SPLINESEGS
 70
        8
  9
$HANDSEED
  5
2E4
  9
$SURFTAB1
 70
        6
  9
$SURFTAB2
 70
        6
  9
$SURFTYPE
 70
        6
  9
$SURFU
 70
        6
  9
$SURFV
 70
        6
  9
$UCSBASE
  2

  9
$UCSNAME
  2

  9
$UCSORG
 10
0.0
 20
0.0
 30
0.0
  9
$UCSXDIR
 10
1.0
 20
0.0
 30
0.0
  9
$UCSYDIR
 10
0.0
 20
1.0
 30
0.0
  9
$UCSORTHOREF
  2

  9
$UCSORTHOVIEW
 70
        0
  9
$UCSORGTOP
 10
0.0
 20
0.0
 30
0.0
  9
$UCSORGBOTTOM
 10
0.0
 20
0.0
 30
0.0
  9
$UCSORGLEFT
 10
0.0
 20
0.0
 30
0.0
  9
$UCSORGRIGHT
 10
0.0
 20
0.0
 30
0.0
  9
$UCSORGFRONT
 10
0.0
 20
0.0
 30
0.0
  9
$UCSORGBACK
 10
0.0
 20
0.0
 30
0.0
  9
$PUCSBASE
  2

  9
$PUCSNAME
  2

  9
$PUCSORG
 10
0.0
 20
0.0
 30
0.0
  9
$PUCSXDIR
 10
1.0
 20
0.0
 30
0.0
  9
$PUCSYDIR
 10
0.0
 20
1.0
 30
0.0
  9
$PUCSORTHOREF
  2

  9
$PUCSORTHOVIEW
 70
        0
  9
$PUCSORGTOP
 10
0.0
 20
0.0
 30
0.0
  9
$PUCSORGBOTTOM
 10
0.0
 20
0.0
 30
0.0
  9
$PUCSORGLEFT
 10
0.0
 20
0.0
 30
0.0
  9
$PUCSORGRIGHT
 10
0.0
 20
0.0
 30
0.0
  9
$PUCSORGFRONT
 10
0.0
 20
0.0
 30
0.0
  9
$PUCSORGBACK
 10
0.0
 20
0.0
 30
0.0
  9
$USERI1
 70
        0
  9
$USERI2
 70
        0
  9
$USERI3
 70
        0
  9
$USERI4
 70
        0
  9
$USERI5
 70
        0
  9
$USERR1
 40
0.0
  9
$USERR2
 40
0.0
  9
$USERR3
 40
0.0
  9
$USERR4
 40
0.0
  9
$USERR5
 40
0.0
  9
$WORLDVIEW
 70
        1
  9
$SHADEDGE
 70
        3
  9
$SHADEDIF
 70
       70
  9
$TILEMODE
 70
        1
  9
$MAXACTVP
 70
       16
  9
$PINSBASE
 10
0.0
 20
0.0
 30
0.0
  9
$PLIMCHECK
 70
        0
  9
$PEXTMIN
 10
1.000000000E+20
 20
1.000000000E+20
 30
1.000000000E+20
  9
$PEXTMAX
 10
-1.000000000E+20
 20
-1.000000000E+20
 30
-1.000000000E+20
  9
$PLIMMIN
 10
0.0
 20
0.0
  9
$PLIMMAX
 10
12.0
 20
9.0
  9
$UNITMODE
 70
        0
  9
$VISRETAIN
 70
        0
  9
$PLINEGEN
 70
        1
  9
$PSLTSCALE
 70
        0
  9
$TREEDEPTH
 70
     3020
  9
$CMLSTYLE
  2
Standard
  9
$CMLJUST
 70
        0
  9
$CMLSCALE
 40
1.0
  9
$PROXYGRAPHICS
 70
        0
  9
$MEASUREMENT
 70
        1
  9
$CELWEIGHT
370
        0
  9
$ENDCAPS
280
        0
  9
$JOINSTYLE
280
        0
  9
$LWDISPLAY
290
        0
  9
$INSUNITS
 70
        0
  9
$HYPERLINKBASE
  1

  9
$XEDIT
290
        1
  9
$CEPSNTYPE
380
        0
  9
$PSTYLEMODE
290
        1
  9
$FINGERPRINTGUID
  2

  9
$VERSIONGUID
  2

  9
$EXTNAMES
290
        1
  9
$PSVPSCALE
 40
0.0
  0
ENDSEC
  0
SECTION
  2
CLASSES
  0
CLASS
  1
LWPOLYLINE
  2
AcDbPolyline
  3
AutoCAD 2000
 90
    32768
280
        0
281
        1
  0
CLASS
  1
IMAGE
  2
AcDbRasterImage
  3
ISM
 90
    32895
280
        0
281
        1
  0
CLASS
  1
OLE2FRAME
  2
AcDbOle2Frame
  3
AutoCAD 2000
 90
    32768
280
        0
281
        1
  0
CLASS
  1
HATCH
  2
AcDbHatch
  3
AutoCAD 2000
 90
    32768
280
        0
281
        1
  0
CLASS
  1
DICTIONARYVAR
  2
AcDbDictionaryVar
  3
AutoCAD 2000
 90
    32768
280
        0
281
        0
  0
CLASS
  1
RASTERVARIABLES
  2
AcDbRasterVariables
  3
ISM
 90
    32768
280
        0
281
        0
  0
CLASS
  1
IMAGEDEF
  2
AcDbRasterImageDef
  3
ISM
 90
    32768
280
        0
281
        0
  0
CLASS
  1
IMAGEDEF_REACTOR
  2
AcDbRasterImageDefReactor
  3
ISM
 90
    32769
280
        0
281
        0
  0
CLASS
  1
IDBUFFER
  2
AcDbIdBuffer
  3
AutoCAD 2000
 90
    32768
280
        0
281
        0
  0
CLASS
  1
SPATIAL_FILTER
  2
AcDbSpatialFilter
  3
AutoCAD 2000
 90
    32768
280
        0
281
        0
  0
CLASS
  1
XRECORD
  2
AcDbXrecord
  3
AutoCAD 2000
 90
    32768
280
        0
281
        0
  0
CLASS
  1
SORTENTSTABLE
  2
AcDbSortentsTable
  3
AutoCAD 2000
 90
    32768
280
        0
281
        0
  0
CLASS
  1
LAYER_INDEX
  2
AcDbLayerIndex
  3
AutoCAD 2000
 90
    32768
280
        0
281
        0
  0
CLASS
  1
SPATIAL_INDEX
  2
AcDbSpatialIndex
  3
AutoCAD 2000
 90
    32768
280
        0
281
        0
  0
CLASS
  1
OBJECT_PTR
  2
CAseDLPNTableRecord
  3
"ASE-LPNTableRecord"
 90
    32769
280
        0
281
        0
  0
CLASS
  1
LAYOUT
  2
AcDbLayout
  3
AutoCAD 2000
 90
        0
280
        0
281
        0
  0
CLASS
  1
PLOTSETTINGS
  2
AcDbPlotSettings
  3
AutoCAD 2000
 90
    32768
280
        0
281
        0
  0
CLASS
  1
ACDBDICTIONARYWDFLT
  2
AcDbDictionaryWithDefault
  3
AutoCAD 2000
 90
        0
280
        0
281
        0
  0
CLASS
  1
ACDBPLACEHOLDER
  2
AcDbPlaceHolder
  3
AutoCAD 2000
 90
        0
280
        0
281
        0
  0
ENDSEC
  0
SECTION
  2
TABLES
  0
TABLE
  2
VPORT
  5
7
100
AcDbSymbolTable
 70
        1
  0
VPORT
  5
15
100
AcDbSymbolTableRecord
100
AcDbViewportTableRecord
  2
*ACTIVE
 70
        0
 10
0.0
 20
0.0
 11
1.0
 21
1.0
 12
6.591288
 22
4.579184
 13
0.0
 23
0.0
 14
1.0
 24
1.0
 15
0.0
 25
0.0
 16
0.0
 26
0.0
 36
1.0
 17
0.0
 27
0.0
 37
0.0
 40
9.158369
 41
0.688564
 42
50.0
 43
0.0
 44
0.0
 50
0.0
 51
0.0
 71
        0
 72
      100
 73
        1
 74
        1
 75
        0
 76
        0
 77
        0
 78
        0
281
        0
 65
        0
110
0.0
120
0.0
130
0.0
111
1.0
121
0.0
131
0.0
112
0.0
122
1.0
132
0.0
345
0
346
0
 79
        0
146
0.0
  0
ENDTAB
  0
TABLE
  2
LTYPE
  5
4
100
AcDbSymbolTable
 70
        6
  0
LTYPE
  5
11
100
AcDbSymbolTableRecord
100
AcDbLinetypeTableRecord
  2
ByBlock
 70
       64
  3

 72
       65
 73
        0
 40
0.0
  0
LTYPE
  5
12
100
AcDbSymbolTableRecord
100
AcDbLinetypeTableRecord
  2
ByLayer
 70
       64
  3

 72
       65
 73
        0
 40
0.0
  0
LTYPE
  5
13
100
AcDbSymbolTableRecord
100
AcDbLinetypeTableRecord
  2
Continuous
 70
       64
  3
Solid line
 72
       65
 73
        0
 40
0.0
  0
LTYPE
  5
55
100
AcDbSymbolTableRecord
100
AcDbLinetypeTableRecord
  2
SOLID
 70
       64
  3
Solid line
 72
       65
 73
        0
 40
0.0
  0
LTYPE
  5
59
100
AcDbSymbolTableRecord
100
AcDbLinetypeTableRecord
  2
CENTER
 70
       64
  3
Center ____ _ ____ _ ____ _ ____ _ ____ _ ____
 72
       65
 73
        4
 40
8.0
 49
4.5
 74
        0
 49
-1.5
 74
        0
 49
0.5
 74
        0
 49
-1.5
 74
        0
  0
LTYPE
  5
108
100
AcDbSymbolTableRecord
100
AcDbLinetypeTableRecord
  2
L_DASH
 70
       64
  3
L_dash ____  ____  ____  ____  ____  ____
 72
       65
 73
        2
 40
8.0
 49
6.0
 74
        0
 49
-2.0
 74
        0
  0
ENDTAB
  0
TABLE
  2
LAYER
  5
2
100
AcDbSymbolTable
 70
       51
  0
LAYER
  5
14
100
AcDbSymbolTableRecord
100
AcDbLayerTableRecord
  2
0
 70
        0
 62
        7
  6
Continuous
290
        1
370
       -3
390
1D
  0
LAYER
  5
23
100
AcDbSymbolTableRecord
100
AcDbLayerTableRecord
  2
1
 70
        0
 62
        7
  6
Continuous
290
        1
370
       -3
390
1F
  0
LAYER
  5
24
100
AcDbSymbolTableRecord
100
AcDbLayerTableRecord
  2
2
 70
        0
 62
        7
  6
Continuous
290
        1
370
       -3
390
1F
  0
LAYER
  5
25
100
AcDbSymbolTableRecord
100
AcDbLayerTableRecord
  2
3
 70
        0
 62
        7
  6
Continuous
290
        1
370
       -3
390
1F
  0
LAYER
  5
26
100
AcDbSymbolTableRecord
100
AcDbLayerTableRecord
  2
4
 70
        0
 62
        7
  6
Continuous
290
        1
370
       -3
390
1F
  0
LAYER
  5
27
100
AcDbSymbolTableRecord
100
AcDbLayerTableRecord
  2
5
 70
        0
 62
        7
  6
Continuous
290
        1
370
       -3
390
1F
  0
LAYER
  5
28
100
AcDbSymbolTableRecord
100
AcDbLayerTableRecord
  2
6
 70
        0
 62
        7
  6
Continuous
290
        1
370
       -3
390
1F
  0
LAYER
  5
29
100
AcDbSymbolTableRecord
100
AcDbLayerTableRecord
  2
7
 70
        0
 62
        7
  6
Continuous
290
        1
370
       -3
390
1F
  0
LAYER
  5
2A
100
AcDbSymbolTableRecord
100
AcDbLayerTableRecord
  2
8
 70
        0
 62
        7
  6
Continuous
290
        1
370
       -3
390
1F
  0
LAYER
  5
2B
100
AcDbSymbolTableRecord
100
AcDbLayerTableRecord
  2
9
 70
        0
 62
        7
  6
Continuous
290
        1
370
       -3
390
1F
  0
LAYER
  5
2C
100
AcDbSymbolTableRecord
100
AcDbLayerTableRecord
  2
NASC
 70
        0
 62
        7
  6
Continuous
290
        1
370
       -3
390
1F
  0
LAYER
  5
2D
100
AcDbSymbolTableRecord
100
AcDbLayerTableRecord
  2
11
 70
        0
 62
        7
  6
Continuous
290
        1
370
       -3
390
1F
  0
LAYER
  5
2E
100
AcDbSymbolTableRecord
100
AcDbLayerTableRecord
  2
12
 70
        0
 62
        7
  6
Continuous
290
        1
370
       -3
390
1F
  0
LAYER
  5
2F
100
AcDbSymbolTableRecord
100
AcDbLayerTableRecord
  2
13
 70
        0
 62
        7
  6
Continuous
290
        1
370
       -3
390
1F
  0
LAYER
  5
30
100
AcDbSymbolTableRecord
100
AcDbLayerTableRecord
  2
14
 70
        0
 62
        7
  6
Continuous
290
        1
370
       -3
390
1F
  0
LAYER
  5
31
100
AcDbSymbolTableRecord
100
AcDbLayerTableRecord
  2
15
 70
        0
 62
        7
  6
Continuous
290
        1
370
       -3
390
1F
  0
LAYER
  5
32
100
AcDbSymbolTableRecord
100
AcDbLayerTableRecord
  2
16
 70
        0
 62
        7
  6
Continuous
290
        1
370
       -3
390
1F
  0
LAYER
  5
33
100
AcDbSymbolTableRecord
100
AcDbLayerTableRecord
  2
17
 70
        0
 62
        7
  6
Continuous
290
        1
370
       -3
390
1F
  0
LAYER
  5
34
100
AcDbSymbolTableRecord
100
AcDbLayerTableRecord
  2
18
 70
        0
 62
        7
  6
Continuous
290
        1
370
       -3
390
1F
  0
LAYER
  5
35
100
AcDbSymbolTableRecord
100
AcDbLayerTableRecord
  2
19
 70
        0
 62
        7
  6
Continuous
290
        1
370
       -3
390
1F
  0
LAYER
  5
36
100
AcDbSymbolTableRecord
100
AcDbLayerTableRecord
  2
20
 70
        0
 62
        7
  6
Continuous
290
        1
370
       -3
390
1F
  0
LAYER
  5
37
100
AcDbSymbolTableRecord
100
AcDbLayerTableRecord
  2
21
 70
        0
 62
        7
  6
Continuous
290
        1
370
       -3
390
1F
  0
LAYER
  5
38
100
AcDbSymbolTableRecord
100
AcDbLayerTableRecord
  2
22
 70
        0
 62
        7
  6
Continuous
290
        1
370
       -3
390
1F
  0
LAYER
  5
39
100
AcDbSymbolTableRecord
100
AcDbLayerTableRecord
  2
23
 70
        0
 62
        7
  6
Continuous
290
        1
370
       -3
390
1F
  0
LAYER
  5
3A
100
AcDbSymbolTableRecord
100
AcDbLayerTableRecord
  2
24
 70
        0
 62
        7
  6
Continuous
290
        1
370
       -3
390
1F
  0
LAYER
  5
3B
100
AcDbSymbolTableRecord
100
AcDbLayerTableRecord
  2
25
 70
        0
 62
        7
  6
Continuous
290
        1
370
       -3
390
1F
  0
LAYER
  5
3C
100
AcDbSymbolTableRecord
100
AcDbLayerTableRecord
  2
26
 70
        0
 62
        7
  6
Continuous
290
        1
370
       -3
390
1F
  0
LAYER
  5
3D
100
AcDbSymbolTableRecord
100
AcDbLayerTableRecord
  2
27
 70
        0
 62
        7
  6
Continuous
290
        1
370
       -3
390
1F
  0
LAYER
  5
3E
100
AcDbSymbolTableRecord
100
AcDbLayerTableRecord
  2
28
 70
        0
 62
        7
  6
Continuous
290
        1
370
       -3
390
1F
  0
LAYER
  5
3F
100
AcDbSymbolTableRecord
100
AcDbLayerTableRecord
  2
29
 70
        0
 62
        7
  6
Continuous
290
        1
370
       -3
390
1F
  0
LAYER
  5
40
100
AcDbSymbolTableRecord
100
AcDbLayerTableRecord
  2
30
 70
        0
 62
        7
  6
Continuous
290
        1
370
       -3
390
1F
  0
LAYER
  5
41
100
AcDbSymbolTableRecord
100
AcDbLayerTableRecord
  2
31
 70
        0
 62
        7
  6
Continuous
290
        1
370
       -3
390
1F
  0
LAYER
  5
42
100
AcDbSymbolTableRecord
100
AcDbLayerTableRecord
  2
32
 70
        0
 62
        7
  6
Continuous
290
        1
370
       -3
390
1F
  0
LAYER
  5
43
100
AcDbSymbolTableRecord
100
AcDbLayerTableRecord
  2
33
 70
        0
 62
        7
  6
Continuous
290
        1
370
       -3
390
1F
  0
LAYER
  5
44
100
AcDbSymbolTableRecord
100
AcDbLayerTableRecord
  2
34
 70
        0
 62
        7
  6
Continuous
290
        1
370
       -3
390
1F
  0
LAYER
  5
45
100
AcDbSymbolTableRecord
100
AcDbLayerTableRecord
  2
35
 70
        0
 62
        7
  6
Continuous
290
        1
370
       -3
390
1F
  0
LAYER
  5
46
100
AcDbSymbolTableRecord
100
AcDbLayerTableRecord
  2
36
 70
        0
 62
        7
  6
Continuous
290
        1
370
       -3
390
1F
  0
LAYER
  5
47
100
AcDbSymbolTableRecord
100
AcDbLayerTableRecord
  2
37
 70
        0
 62
        7
  6
Continuous
290
        1
370
       -3
390
1F
  0
LAYER
  5
48
100
AcDbSymbolTableRecord
100
AcDbLayerTableRecord
  2
38
 70
        0
 62
        7
  6
Continuous
290
        1
370
       -3
390
1F
  0
LAYER
  5
49
100
AcDbSymbolTableRecord
100
AcDbLayerTableRecord
  2
39
 70
        0
 62
        7
  6
Continuous
290
        1
370
       -3
390
1F
  0
LAYER
  5
4A
100
AcDbSymbolTableRecord
100
AcDbLayerTableRecord
  2
40
 70
        0
 62
        7
  6
Continuous
290
        1
370
       -3
390
1F
  0
LAYER
  5
4B
100
AcDbSymbolTableRecord
100
AcDbLayerTableRecord
  2
41
 70
        0
 62
        7
  6
Continuous
290
        1
370
       -3
390
1F
  0
LAYER
  5
4C
100
AcDbSymbolTableRecord
100
AcDbLayerTableRecord
  2
42
 70
        0
 62
        7
  6
Continuous
290
        1
370
       -3
390
1F
  0
LAYER
  5
4D
100
AcDbSymbolTableRecord
100
AcDbLayerTableRecord
  2
43
 70
        0
 62
        7
  6
Continuous
290
        1
370
       -3
390
1F
  0
LAYER
  5
4E
100
AcDbSymbolTableRecord
100
AcDbLayerTableRecord
  2
44
 70
        0
 62
        7
  6
Continuous
290
        1
370
       -3
390
1F
  0
LAYER
  5
4F
100
AcDbSymbolTableRecord
100
AcDbLayerTableRecord
  2
AUGSL1
 70
        0
 62
        7
  6
Continuous
290
        1
370
       -3
390
1F
  0
LAYER
  5
50
100
AcDbSymbolTableRecord
100
AcDbLayerTableRecord
  2
AUGSL0
 70
        0
 62
        7
  6
Continuous
290
        1
370
       -3
390
1F
  0
LAYER
  5
51
100
AcDbSymbolTableRecord
100
AcDbLayerTableRecord
  2
47
 70
        0
 62
        7
  6
Continuous
290
        1
370
       -3
390
1F
  0
LAYER
  5
52
100
AcDbSymbolTableRecord
100
AcDbLayerTableRecord
  2
48
 70
        0
 62
        7
  6
Continuous
290
        1
370
       -3
390
1F
  0
LAYER
  5
53
100
AcDbSymbolTableRecord
100
AcDbLayerTableRecord
  2
49
 70
        0
 62
        7
  6
Continuous
290
        1
370
       -3
390
1F
  0
LAYER
  5
54
100
AcDbSymbolTableRecord
100
AcDbLayerTableRecord
  2
50
 70
        0
 62
        7
  6
Continuous
290
        1
370
       -3
390
1F
  0
ENDTAB
  0
TABLE
  2
STYLE
  5
3
100
AcDbSymbolTable
 70
        1
  0
STYLE
  5
17
100
AcDbSymbolTableRecord
100
AcDbTextStyleTableRecord
  2
Standard
 70
        0
 40
0.0
 41
1.0
 50
0.0
 71
        0
 42
0.0
  3
txt
  4

  0
ENDTAB
  0
TABLE
  2
VIEW
  5
5
100
AcDbSymbolTable
 70
        0
  0
ENDTAB
  0
TABLE
  2
UCS
  5
6
100
AcDbSymbolTable
 70
        0
  0
ENDTAB
  0
TABLE
  2
APPID
  5
8
100
AcDbSymbolTable
 70
        1
  0
APPID
  5
16
100
AcDbSymbolTableRecord
100
AcDbRegAppTableRecord
  2
ACAD
 70
        0
  0
ENDTAB
  0
TABLE
  2
DIMSTYLE
  5
9
100
AcDbSymbolTable
 70
       21
100
AcDbDimStyleTable
 71
        0
  0
DIMSTYLE
105
18
100
AcDbSymbolTableRecord
100
AcDbDimStyleTableRecord
  2
Standard
 70
        0
  3

  4

 40
1.0
 41
11.0
 42
4.0
 43
0.38
 44
4.0
 45
0.0
 46
0.0
 47
0.0
 48
0.0
 71
        0
 72
        0
 73
        0
 74
        0
 75
        0
 76
        0
 77
        1
 78
        0
 79
        0
140
11.0
141
0.09
142
0.0
143
25.4
144
1.0
145
0.0
146
1.0
147
0.09
148
0.0
170
        0
171
        2
172
        1
173
        0
174
        0
175
        0
176
        7
177
        7
178
       50
179
        0
271
        4
272
        4
273
        2
274
        2
275
        0
276
        0
277
        2
278
       46
279
        0
280
        0
281
        0
282
        0
283
        1
284
        0
285
        0
286
        0
288
        0
340
17
341
0
342
0
343
0
344
0
371
       -2
372
       -2
  0
DIMSTYLE
105
CF
100
AcDbSymbolTableRecord
100
AcDbDimStyleTableRecord
  2
2
 70
        0
  3

  4

 40
1.0
 41
11.0
 42
4.0
 43
0.38
 44
4.0
 45
0.0
 46
0.0
 47
0.0
 48
0.0
 71
        0
 72
        0
 73
        0
 74
        0
 75
        0
 76
        0
 77
        1
 78
        0
 79
        0
140
11.0
141
0.09
142
0.0
143
25.4
144
1.0
145
0.0
146
1.0
147
0.09
148
0.0
170
        0
171
        2
172
        1
173
        0
174
        0
175
        0
176
        3
177
        3
178
        3
179
        0
271
        0
272
        4
273
        2
274
        2
275
        0
276
        0
277
        2
278
       46
279
        0
280
        0
281
        0
282
        0
283
        1
284
        0
285
        0
286
        0
288
        0
340
17
341
0
342
0
343
0
344
0
371
       -2
372
       -2
  0
DIMSTYLE
105
E6
100
AcDbSymbolTableRecord
100
AcDbDimStyleTableRecord
  2
3
 70
        0
  3

  4

 40
1.0
 41
11.0
 42
4.0
 43
0.38
 44
4.0
 45
0.0
 46
0.0
 47
0.0
 48
0.0
 71
        0
 72
        0
 73
        0
 74
        0
 75
        0
 76
        0
 77
        1
 78
        0
 79
        0
140
11.0
141
0.09
142
0.0
143
25.4
144
1.0
145
0.0
146
1.0
147
0.09
148
0.0
170
        0
171
        2
172
        1
173
        0
174
        0
175
        0
176
        3
177
        3
178
        3
179
        0
271
        0
272
        4
273
        2
274
        2
275
        0
276
        0
277
        2
278
       46
279
        0
280
        0
281
        0
282
        0
283
        1
284
        0
285
        0
286
        0
288
        0
340
17
341
0
342
0
343
0
344
0
371
       -2
372
       -2
  0
DIMSTYLE
105
F6
100
AcDbSymbolTableRecord
100
AcDbDimStyleTableRecord
  2
4
 70
        0
  3

  4

 40
1.0
 41
11.0
 42
4.0
 43
0.38
 44
4.0
 45
0.0
 46
0.0
 47
0.0
 48
0.0
 71
        0
 72
        0
 73
        0
 74
        0
 75
        0
 76
        0
 77
        1
 78
        0
 79
        0
140
11.0
141
0.09
142
0.0
143
25.4
144
1.0
145
0.0
146
1.0
147
0.09
148
0.0
170
        0
171
        2
172
        1
173
        0
174
        0
175
        0
176
        3
177
        3
178
        3
179
        0
271
        0
272
        4
273
        2
274
        2
275
        0
276
        0
277
        2
278
       46
279
        0
280
        0
281
        0
282
        0
283
        1
284
        0
285
        0
286
        0
288
        0
340
17
341
0
342
0
343
0
344
0
371
       -2
372
       -2
  0
DIMSTYLE
105
106
100
AcDbSymbolTableRecord
100
AcDbDimStyleTableRecord
  2
5
 70
        0
  3

  4

 40
1.0
 41
11.0
 42
4.0
 43
0.38
 44
4.0
 45
0.0
 46
0.0
 47
0.0
 48
0.0
 71
        0
 72
        0
 73
        0
 74
        0
 75
        0
 76
        0
 77
        1
 78
        0
 79
        0
140
11.0
141
0.09
142
0.0
143
25.4
144
1.0
145
0.0
146
1.0
147
0.09
148
0.0
170
        0
171
        2
172
        1
173
        0
174
        0
175
        0
176
        3
177
        3
178
        3
179
        0
271
        0
272
        4
273
        2
274
        2
275
        0
276
        0
277
        2
278
       46
279
        0
280
        0
281
        0
282
        0
283
        1
284
        0
285
        0
286
        0
288
        0
340
17
341
0
342
0
343
0
344
0
371
       -2
372
       -2
  0
DIMSTYLE
105
136
100
AcDbSymbolTableRecord
100
AcDbDimStyleTableRecord
  2
6
 70
        0
  3

  4

 40
1.0
 41
11.0
 42
4.0
 43
0.38
 44
4.0
 45
0.0
 46
0.0
 47
0.0
 48
0.0
 71
        0
 72
        0
 73
        0
 74
        0
 75
        0
 76
        0
 77
        1
 78
        0
 79
        0
140
11.0
141
0.09
142
0.0
143
25.4
144
1.0
145
0.0
146
1.0
147
0.09
148
0.0
170
        0
171
        2
172
        1
173
        0
174
        0
175
        0
176
        3
177
        3
178
        3
179
        0
271
        0
272
        4
273
        2
274
        2
275
        0
276
        0
277
        2
278
       46
279
        0
280
        0
281
        0
282
        0
283
        1
284
        0
285
        0
286
        0
288
        0
340
17
341
0
342
0
343
0
344
0
371
       -2
372
       -2
  0
DIMSTYLE
105
158
100
AcDbSymbolTableRecord
100
AcDbDimStyleTableRecord
  2
7
 70
        0
  3

  4

 40
1.0
 41
11.0
 42
4.0
 43
0.38
 44
4.0
 45
0.0
 46
0.0
 47
0.0
 48
0.0
 71
        0
 72
        0
 73
        0
 74
        0
 75
        0
 76
        0
 77
        1
 78
        0
 79
        0
140
11.0
141
0.09
142
0.0
143
25.4
144
1.0
145
0.0
146
1.0
147
0.09
148
0.0
170
        0
171
        2
172
        1
173
        0
174
        0
175
        0
176
        3
177
        3
178
        3
179
        0
271
        0
272
        4
273
        2
274
        2
275
        0
276
        0
277
        2
278
       46
279
        0
280
        0
281
        0
282
        0
283
        1
284
        0
285
        0
286
        0
288
        0
340
17
341
0
342
0
343
0
344
0
371
       -2
372
       -2
  0
DIMSTYLE
105
16B
100
AcDbSymbolTableRecord
100
AcDbDimStyleTableRecord
  2
8
 70
        0
  3

  4

 40
1.0
 41
11.0
 42
4.0
 43
0.38
 44
4.0
 45
0.0
 46
0.0
 47
0.0
 48
0.0
 71
        0
 72
        0
 73
        0
 74
        0
 75
        0
 76
        0
 77
        1
 78
        0
 79
        0
140
11.0
141
0.09
142
0.0
143
25.4
144
1.0
145
0.0
146
1.0
147
0.09
148
0.0
170
        0
171
        2
172
        1
173
        0
174
        0
175
        0
176
        3
177
        3
178
        3
179
        0
271
        0
272
        4
273
        2
274
        2
275
        0
276
        0
277
        2
278
       46
279
        0
280
        0
281
        0
282
        0
283
        1
284
        0
285
        0
286
        0
288
        0
340
17
341
0
342
0
343
0
344
0
371
       -2
372
       -2
  0
DIMSTYLE
105
198
100
AcDbSymbolTableRecord
100
AcDbDimStyleTableRecord
  2
9
 70
        0
  3

  4

 40
1.0
 41
11.0
 42
4.0
 43
0.38
 44
4.0
 45
0.0
 46
0.0
 47
0.0
 48
0.0
 71
        0
 72
        0
 73
        0
 74
        0
 75
        0
 76
        0
 77
        1
 78
        0
 79
        0
140
11.0
141
0.09
142
0.0
143
25.4
144
1.0
145
0.0
146
1.0
147
0.09
148
0.0
170
        0
171
        2
172
        1
173
        0
174
        0
175
        0
176
        3
177
        3
178
        3
179
        0
271
        0
272
        4
273
        2
274
        2
275
        0
276
        0
277
        2
278
       46
279
        0
280
        0
281
        0
282
        0
283
        1
284
        0
285
        0
286
        0
288
        0
340
17
341
0
342
0
343
0
344
0
371
       -2
372
       -2
  0
DIMSTYLE
105
1AA
100
AcDbSymbolTableRecord
100
AcDbDimStyleTableRecord
  2
10
 70
        0
  3

  4

 40
1.0
 41
11.0
 42
4.0
 43
0.38
 44
4.0
 45
0.0
 46
0.0
 47
0.0
 48
0.0
 71
        0
 72
        0
 73
        0
 74
        0
 75
        0
 76
        0
 77
        1
 78
        0
 79
        0
140
11.0
141
0.09
142
0.0
143
25.4
144
1.0
145
0.0
146
1.0
147
0.09
148
0.0
170
        0
171
        2
172
        1
173
        0
174
        0
175
        0
176
        3
177
        3
178
        3
179
        0
271
        0
272
        4
273
        2
274
        2
275
        0
276
        0
277
        2
278
       46
279
        0
280
        0
281
        0
282
        0
283
        1
284
        0
285
        0
286
        0
288
        0
340
17
341
0
342
0
343
0
344
0
371
       -2
372
       -2
  0
DIMSTYLE
105
1BA
100
AcDbSymbolTableRecord
100
AcDbDimStyleTableRecord
  2
11
 70
        0
  3

  4

 40
1.0
 41
11.0
 42
4.0
 43
0.38
 44
4.0
 45
0.0
 46
0.0
 47
0.0
 48
0.0
 71
        0
 72
        0
 73
        0
 74
        0
 75
        0
 76
        0
 77
        1
 78
        0
 79
        0
140
11.0
141
0.09
142
0.0
143
25.4
144
1.0
145
0.0
146
1.0
147
0.09
148
0.0
170
        0
171
        2
172
        1
173
        0
174
        0
175
        0
176
        3
177
        3
178
        3
179
        0
271
        0
272
        4
273
        2
274
        2
275
        0
276
        0
277
        2
278
       46
279
        0
280
        0
281
        0
282
        0
283
        1
284
        0
285
        0
286
        0
288
        0
340
17
341
0
342
0
343
0
344
0
371
       -2
372
       -2
  0
DIMSTYLE
105
216
100
AcDbSymbolTableRecord
100
AcDbDimStyleTableRecord
  2
12
 70
        0
  3

  4

 40
1.0
 41
11.0
 42
4.0
 43
0.38
 44
4.0
 45
0.0
 46
0.0
 47
0.0
 48
0.0
 71
        0
 72
        0
 73
        0
 74
        0
 75
        0
 76
        0
 77
        1
 78
        0
 79
        0
140
11.0
141
0.09
142
0.0
143
25.4
144
1.0
145
0.0
146
1.0
147
0.09
148
0.0
170
        0
171
        2
172
        1
173
        0
174
        0
175
        0
176
        3
177
        3
178
        3
179
        0
271
        0
272
        4
273
        2
274
        2
275
        0
276
        0
277
        2
278
       46
279
        0
280
        0
281
        0
282
        0
283
        1
284
        0
285
        0
286
        0
288
        0
340
17
341
0
342
0
343
0
344
0
371
       -2
372
       -2
  0
DIMSTYLE
105
22C
100
AcDbSymbolTableRecord
100
AcDbDimStyleTableRecord
  2
13
 70
        0
  3

  4

 40
1.0
 41
11.0
 42
4.0
 43
0.38
 44
4.0
 45
0.0
 46
0.0
 47
0.0
 48
0.0
 71
        0
 72
        0
 73
        0
 74
        0
 75
        0
 76
        0
 77
        1
 78
        0
 79
        0
140
11.0
141
0.09
142
0.0
143
25.4
144
1.0
145
0.0
146
1.0
147
0.09
148
0.0
170
        0
171
        2
172
        1
173
        0
174
        0
175
        0
176
        3
177
        3
178
        3
179
        0
271
        0
272
        4
273
        2
274
        2
275
        0
276
        0
277
        2
278
       46
279
        0
280
        0
281
        0
282
        0
283
        1
284
        0
285
        0
286
        0
288
        0
340
17
341
0
342
0
343
0
344
0
371
       -2
372
       -2
  0
DIMSTYLE
105
23C
100
AcDbSymbolTableRecord
100
AcDbDimStyleTableRecord
  2
14
 70
        0
  3

  4

 40
1.0
 41
11.0
 42
4.0
 43
0.38
 44
4.0
 45
0.0
 46
0.0
 47
0.0
 48
0.0
 71
        0
 72
        0
 73
        0
 74
        0
 75
        0
 76
        0
 77
        1
 78
        0
 79
        0
140
11.0
141
0.09
142
0.0
143
25.4
144
1.0
145
0.0
146
1.0
147
0.09
148
0.0
170
        0
171
        2
172
        1
173
        0
174
        0
175
        0
176
        3
177
        3
178
        3
179
        0
271
        0
272
        4
273
        2
274
        2
275
        0
276
        0
277
        2
278
       46
279
        0
280
        0
281
        0
282
        0
283
        1
284
        0
285
        0
286
        0
288
        0
340
17
341
0
342
0
343
0
344
0
371
       -2
372
       -2
  0
DIMSTYLE
105
24C
100
AcDbSymbolTableRecord
100
AcDbDimStyleTableRecord
  2
15
 70
        0
  3

  4

 40
1.0
 41
11.0
 42
4.0
 43
0.38
 44
4.0
 45
0.0
 46
0.0
 47
0.0
 48
0.0
 71
        0
 72
        0
 73
        0
 74
        0
 75
        0
 76
        0
 77
        1
 78
        0
 79
        0
140
11.0
141
0.09
142
0.0
143
25.4
144
1.0
145
0.0
146
1.0
147
0.09
148
0.0
170
        0
171
        2
172
        1
173
        0
174
        0
175
        0
176
        3
177
        3
178
        3
179
        0
271
        0
272
        4
273
        2
274
        2
275
        0
276
        0
277
        2
278
       46
279
        0
280
        0
281
        0
282
        0
283
        1
284
        0
285
        0
286
        0
288
        0
340
17
341
0
342
0
343
0
344
0
371
       -2
372
       -2
  0
DIMSTYLE
105
27B
100
AcDbSymbolTableRecord
100
AcDbDimStyleTableRecord
  2
16
 70
        0
  3

  4

 40
1.0
 41
11.0
 42
4.0
 43
0.38
 44
4.0
 45
0.0
 46
0.0
 47
0.0
 48
0.0
 71
        0
 72
        0
 73
        0
 74
        0
 75
        0
 76
        0
 77
        1
 78
        0
 79
        0
140
11.0
141
0.09
142
0.0
143
25.4
144
1.0
145
0.0
146
1.0
147
0.09
148
0.0
170
        0
171
        2
172
        1
173
        0
174
        0
175
        0
176
        3
177
        3
178
        3
179
        0
271
        0
272
        4
273
        2
274
        2
275
        0
276
        0
277
        2
278
       46
279
        0
280
        0
281
        0
282
        0
283
        1
284
        0
285
        0
286
        0
288
        0
340
17
341
0
342
0
343
0
344
0
371
       -2
372
       -2
  0
DIMSTYLE
105
293
100
AcDbSymbolTableRecord
100
AcDbDimStyleTableRecord
  2
17
 70
        0
  3

  4

 40
1.0
 41
11.0
 42
4.0
 43
0.38
 44
4.0
 45
0.0
 46
0.0
 47
0.0
 48
0.0
 71
        0
 72
        0
 73
        0
 74
        0
 75
        0
 76
        0
 77
        1
 78
        0
 79
        0
140
11.0
141
0.09
142
0.0
143
25.4
144
1.0
145
0.0
146
1.0
147
0.09
148
0.0
170
        0
171
        2
172
        1
173
        0
174
        0
175
        0
176
        3
177
        3
178
        3
179
        0
271
        0
272
        4
273
        2
274
        2
275
        0
276
        0
277
        2
278
       46
279
        0
280
        0
281
        0
282
        0
283
        1
284
        0
285
        0
286
        0
288
        0
340
17
341
0
342
0
343
0
344
0
371
       -2
372
       -2
  0
DIMSTYLE
105
2A4
100
AcDbSymbolTableRecord
100
AcDbDimStyleTableRecord
  2
18
 70
        0
  3

  4

 40
1.0
 41
11.0
 42
4.0
 43
0.38
 44
4.0
 45
0.0
 46
0.0
 47
0.0
 48
0.0
 71
        0
 72
        0
 73
        0
 74
        0
 75
        0
 76
        0
 77
        1
 78
        0
 79
        0
140
11.0
141
0.09
142
0.0
143
25.4
144
1.0
145
0.0
146
1.0
147
0.09
148
0.0
170
        0
171
        2
172
        1
173
        0
174
        0
175
        0
176
        3
177
        3
178
        3
179
        0
271
        0
272
        4
273
        2
274
        2
275
        0
276
        0
277
        2
278
       46
279
        0
280
        0
281
        0
282
        0
283
        1
284
        0
285
        0
286
        0
288
        0
340
17
341
0
342
0
343
0
344
0
371
       -2
372
       -2
  0
DIMSTYLE
105
2B6
100
AcDbSymbolTableRecord
100
AcDbDimStyleTableRecord
  2
19
 70
        0
  3

  4

 40
1.0
 41
11.0
 42
4.0
 43
0.38
 44
4.0
 45
0.0
 46
0.0
 47
0.0
 48
0.0
 71
        0
 72
        0
 73
        0
 74
        0
 75
        0
 76
        0
 77
        1
 78
        0
 79
        0
140
11.0
141
0.09
142
0.0
143
25.4
144
1.0
145
0.0
146
1.0
147
0.09
148
0.0
170
        0
171
        2
172
        1
173
        0
174
        0
175
        0
176
        3
177
        3
178
        3
179
        0
271
        0
272
        4
273
        2
274
        2
275
        0
276
        0
277
        2
278
       46
279
        0
280
        0
281
        0
282
        0
283
        1
284
        0
285
        0
286
        0
288
        0
340
17
341
0
342
0
343
0
344
0
371
       -2
372
       -2
  0
DIMSTYLE
105
2C6
100
AcDbSymbolTableRecord
100
AcDbDimStyleTableRecord
  2
20
 70
        0
  3

  4

 40
1.0
 41
11.0
 42
4.0
 43
0.38
 44
4.0
 45
0.0
 46
0.0
 47
0.0
 48
0.0
 71
        0
 72
        0
 73
        0
 74
        0
 75
        0
 76
        0
 77
        1
 78
        0
 79
        0
140
11.0
141
0.09
142
0.0
143
25.4
144
1.0
145
0.0
146
1.0
147
0.09
148
0.0
170
        0
171
        2
172
        1
173
        0
174
        0
175
        0
176
        3
177
        3
178
        3
179
        0
271
        0
272
        4
273
        2
274
        2
275
        0
276
        0
277
        2
278
       46
279
        0
280
        0
281
        0
282
        0
283
        1
284
        0
285
        0
286
        0
288
        0
340
17
341
0
342
0
343
0
344
0
371
       -2
372
       -2
  0
DIMSTYLE
105
2E2
100
AcDbSymbolTableRecord
100
AcDbDimStyleTableRecord
  2
21
 70
        0
  3

  4

 40
1.0
 41
11.0
 42
4.0
 43
0.38
 44
4.0
 45
0.0
 46
0.0
 47
0.0
 48
0.0
 71
        0
 72
        0
 73
        0
 74
        0
 75
        0
 76
        0
 77
        1
 78
        0
 79
        0
140
11.0
141
0.09
142
0.0
143
25.4
144
1.0
145
0.0
146
1.0
147
0.09
148
0.0
170
        0
171
        2
172
        1
173
        0
174
        0
175
        0
176
        3
177
        3
178
        3
179
        0
271
        0
272
        4
273
        2
274
        2
275
        0
276
        0
277
        2
278
       46
279
        0
280
        0
281
        0
282
        0
283
        1
284
        0
285
        0
286
        0
288
        0
340
17
341
0
342
0
343
0
344
0
371
       -2
372
       -2
  0
ENDTAB
  0
TABLE
  2
BLOCK_RECORD
  5
1
100
AcDbSymbolTable
 70
       22
  0
BLOCK_RECORD
  5
A
100
AcDbSymbolTableRecord
100
AcDbBlockTableRecord
  2
*MODEL_SPACE
340
20
  0
BLOCK_RECORD
  5
B
100
AcDbSymbolTableRecord
100
AcDbBlockTableRecord
  2
*PAPER_SPACE
340
21
  0
BLOCK_RECORD
  5
C1
100
AcDbSymbolTableRecord
100
AcDbBlockTableRecord
  2
*D0
340
0
  0
BLOCK_RECORD
  5
D8
100
AcDbSymbolTableRecord
100
AcDbBlockTableRecord
  2
*D1
340
0
  0
BLOCK_RECORD
  5
E8
100
AcDbSymbolTableRecord
100
AcDbBlockTableRecord
  2
*D2
340
0
  0
BLOCK_RECORD
  5
F8
100
AcDbSymbolTableRecord
100
AcDbBlockTableRecord
  2
*D3
340
0
  0
BLOCK_RECORD
  5
128
100
AcDbSymbolTableRecord
100
AcDbBlockTableRecord
  2
*D4
340
0
  0
BLOCK_RECORD
  5
140
100
AcDbSymbolTableRecord
100
AcDbBlockTableRecord
  2
*L5
340
0
102
{BLKREFS
331
149
102
}
  0
BLOCK_RECORD
  5
14A
100
AcDbSymbolTableRecord
100
AcDbBlockTableRecord
  2
*D6
340
0
  0
BLOCK_RECORD
  5
15B
100
AcDbSymbolTableRecord
100
AcDbBlockTableRecord
  2
*D7
340
0
  0
BLOCK_RECORD
  5
18A
100
AcDbSymbolTableRecord
100
AcDbBlockTableRecord
  2
*D8
340
0
  0
BLOCK_RECORD
  5
19A
100
AcDbSymbolTableRecord
100
AcDbBlockTableRecord
  2
*D9
340
0
  0
BLOCK_RECORD
  5
1AC
100
AcDbSymbolTableRecord
100
AcDbBlockTableRecord
  2
*D10
340
0
  0
BLOCK_RECORD
  5
208
100
AcDbSymbolTableRecord
100
AcDbBlockTableRecord
  2
*D11
340
0
  0
BLOCK_RECORD
  5
21E
100
AcDbSymbolTableRecord
100
AcDbBlockTableRecord
  2
*D12
340
0
  0
BLOCK_RECORD
  5
22E
100
AcDbSymbolTableRecord
100
AcDbBlockTableRecord
  2
*D13
340
0
  0
BLOCK_RECORD
  5
23E
100
AcDbSymbolTableRecord
100
AcDbBlockTableRecord
  2
*D14
340
0
  0
BLOCK_RECORD
  5
26D
100
AcDbSymbolTableRecord
100
AcDbBlockTableRecord
  2
*D15
340
0
  0
BLOCK_RECORD
  5
285
100
AcDbSymbolTableRecord
100
AcDbBlockTableRecord
  2
*D16
340
0
  0
BLOCK_RECORD
  5
296
100
AcDbSymbolTableRecord
100
AcDbBlockTableRecord
  2
*D17
340
0
  0
BLOCK_RECORD
  5
2A6
100
AcDbSymbolTableRecord
100
AcDbBlockTableRecord
  2
*D18
340
0
  0
BLOCK_RECORD
  5
2B8
100
AcDbSymbolTableRecord
100
AcDbBlockTableRecord
  2
*D19
340
0
  0
BLOCK_RECORD
  5
2C8
100
AcDbSymbolTableRecord
100
AcDbBlockTableRecord
  2
*L20
340
0
102
{BLKREFS
331
2D1
102
}
  0
BLOCK_RECORD
  5
2D2
100
AcDbSymbolTableRecord
100
AcDbBlockTableRecord
  2
*D21
340
0
  0
ENDTAB
  0
ENDSEC
  0
SECTION
  2
BLOCKS
  0
BLOCK
  5
D
100
AcDbEntity
  8
0
100
AcDbBlockBegin
  2
*MODEL_SPACE
 70
        0
 10
0.0
 20
0.0
 30
0.0
  3
*MODEL_SPACE
  1

  0
ENDBLK
  5
E
100
AcDbEntity
  8
0
100
AcDbBlockEnd
  0
BLOCK
  5
F
100
AcDbEntity
 67
        1
  8
0
100
AcDbBlockBegin
  2
*PAPER_SPACE
 70
        0
 10
0.0
 20
0.0
 30
0.0
  3
*PAPER_SPACE
  1

  0
ENDBLK
  5
10
100
AcDbEntity
 67
        1
  8
0
100
AcDbBlockEnd
  0
BLOCK
  5
C2
100
AcDbEntity
  8
0
100
AcDbBlockBegin
  2
*D0
 70
        0
 10
0.0
 20
0.0
 30
0.0
  3
*D0
  1

  0
LINE
  5
C3
100
AcDbEntity
  8
AUGSL0
  6
SOLID
 62
        3
100
AcDbLine
 10
570.765136719
 20
-2319.233642578
 30
0.0
 11
570.765136719
 21
-2314.434082031
 31
0.0
  0
LINE
  5
C4
100
AcDbEntity
  8
AUGSL0
  6
SOLID
 62
        3
100
AcDbLine
 10
710.765136719
 20
-2193.39453125
 30
0.0
 11
710.765136719
 21
-2316.434082031
 31
0.0
  0
LINE
  5
C5
100
AcDbEntity
  8
AUGSL0
  6
SOLID
 62
        3
100
AcDbLine
 10
570.765136719
 20
-2315.434082031
 30
0.0
 11
710.765136719
 21
-2315.434082031
 31
0.0
  0
LINE
  5
C6
100
AcDbEntity
  8
AUGSL0
  6
SOLID
 62
        3
100
AcDbLine
 10
581.765136719
 20
-2313.600830078
 30
0.0
 11
570.765136719
 21
-2315.434082031
 31
0.0
  0
LINE
  5
C7
100
AcDbEntity
  8
AUGSL0
  6
SOLID
 62
        3
100
AcDbLine
 10
570.765136719
 20
-2315.434082031
 30
0.0
 11
581.765136719
 21
-2317.267333984
 31
0.0
  0
LINE
  5
C8
100
AcDbEntity
  8
AUGSL0
  6
SOLID
 62
        3
100
AcDbLine
 10
581.765136719
 20
-2317.267333984
 30
0.0
 11
581.765136719
 21
-2313.600830078
 31
0.0
  0
LINE
  5
C9
100
AcDbEntity
  8
AUGSL0
  6
SOLID
 62
        3
100
AcDbLine
 10
710.765136719
 20
-2315.434082031
 30
0.0
 11
570.765136719
 21
-2315.434082031
 31
0.0
  0
LINE
  5
CA
100
AcDbEntity
  8
AUGSL0
  6
SOLID
 62
        3
100
AcDbLine
 10
699.765136719
 20
-2317.267333984
 30
0.0
 11
710.765136719
 21
-2315.434082031
 31
0.0
  0
LINE
  5
CB
100
AcDbEntity
  8
AUGSL0
  6
SOLID
 62
        3
100
AcDbLine
 10
710.765136719
 20
-2315.434082031
 30
0.0
 11
699.765136719
 21
-2313.600830078
 31
0.0
  0
LINE
  5
CC
100
AcDbEntity
  8
AUGSL0
  6
SOLID
 62
        3
100
AcDbLine
 10
699.765136719
 20
-2313.600830078
 30
0.0
 11
699.765136719
 21
-2317.267333984
 31
0.0
  0
TEXT
  5
CD
100
AcDbEntity
  8
AUGSL0
  6
SOLID
 62
        3
100
AcDbText
 10
627.84185791
 20
-2309.934082031
 30
0.0
 40
11.0
  1
140
 72
        5
 11
653.688472748
 21
-2309.934082031
 31
0.0
100
AcDbText
  0
ENDBLK
  5
CE
100
AcDbEntity
  8
0
100
AcDbBlockEnd
  0
BLOCK
  5
D9
100
AcDbEntity
  8
0
100
AcDbBlockBegin
  2
*D1
 70
        0
 10
0.0
 20
0.0
 30
0.0
  3
*D1
  1

  0
LINE
  5
DA
100
AcDbEntity
  8
AUGSL0
  6
SOLID
 62
        3
100
AcDbLine
 10
500.764770508
 20
-2240.367431641
 30
0.0
 11
500.764770508
 21
-2252.406982422
 31
0.0
  0
LINE
  5
DB
100
AcDbEntity
  8
AUGSL0
  6
SOLID
 62
        3
100
AcDbLine
 10
640.764770508
 20
-2240.367431641
 30
0.0
 11
640.764770508
 21
-2252.406982422
 31
0.0
  0
LINE
  5
DC
100
AcDbEntity
  8
AUGSL0
  6
SOLID
 62
        3
100
AcDbLine
 10
500.764770508
 20
-2249.434082031
 30
0.0
 11
640.764770508
 21
-2249.434082031
 31
0.0
  0
LINE
  5
DD
100
AcDbEntity
  8
AUGSL0
  6
SOLID
 62
        3
100
AcDbLine
 10
511.764770508
 20
-2247.600830078
 30
0.0
 11
500.764770508
 21
-2249.434082031
 31
0.0
  0
LINE
  5
DE
100
AcDbEntity
  8
AUGSL0
  6
SOLID
 62
        3
100
AcDbLine
 10
500.764770508
 20
-2249.434082031
 30
0.0
 11
511.764770508
 21
-2251.267333984
 31
0.0
  0
LINE
  5
DF
100
AcDbEntity
  8
AUGSL0
  6
SOLID
 62
        3
100
AcDbLine
 10
511.764770508
 20
-2251.267333984
 30
0.0
 11
511.764770508
 21
-2247.600830078
 31
0.0
  0
LINE
  5
E0
100
AcDbEntity
  8
AUGSL0
  6
SOLID
 62
        3
100
AcDbLine
 10
640.764770508
 20
-2249.434082031
 30
0.0
 11
500.764770508
 21
-2249.434082031
 31
0.0
  0
LINE
  5
E1
100
AcDbEntity
  8
AUGSL0
  6
SOLID
 62
        3
100
AcDbLine
 10
629.764770508
 20
-2251.267333984
 30
0.0
 11
640.764770508
 21
-2249.434082031
 31
0.0
  0
LINE
  5
E2
100
AcDbEntity
  8
AUGSL0
  6
SOLID
 62
        3
100
AcDbLine
 10
640.764770508
 20
-2249.434082031
 30
0.0
 11
629.764770508
 21
-2247.600830078
 31
0.0
  0
LINE
  5
E3
100
AcDbEntity
  8
AUGSL0
  6
SOLID
 62
        3
100
AcDbLine
 10
629.764770508
 20
-2247.600830078
 30
0.0
 11
629.764770508
 21
-2251.267333984
 31
0.0
  0
TEXT
  5
E4
100
AcDbEntity
  8
AUGSL0
  6
SOLID
 62
        3
100
AcDbText
 10
557.841491699
 20
-2243.934082031
 30
0.0
 40
11.0
  1
140
 72
        5
 11
583.688106537
 21
-2243.934082031
 31
0.0
100
AcDbText
  0
ENDBLK
  5
E5
100
AcDbEntity
  8
0
100
AcDbBlockEnd
  0
BLOCK
  5
E9
100
AcDbEntity
  8
0
100
AcDbBlockBegin
  2
*D2
 70
        0
 10
0.0
 20
0.0
 30
0.0
  3
*D2
  1

  0
LINE
  5
EA
100
AcDbEntity
  8
AUGSL0
  6
SOLID
 62
        3
100
AcDbLine
 10
470.764770508
 20
-2252.418701172
 30
0.0
 11
470.764770508
 21
-2274.406982422
 31
0.0
  0
LINE
  5
EB
100
AcDbEntity
  8
AUGSL0
  6
SOLID
 62
        3
100
AcDbLine
 10
670.764770508
 20
-2252.418701172
 30
0.0
 11
670.764770508
 21
-2274.406982422
 31
0.0
  0
LINE
  5
EC
100
AcDbEntity
  8
AUGSL0
  6
SOLID
 62
        3
100
AcDbLine
 10
470.764770508
 20
-2271.434082031
 30
0.0
 11
670.764770508
 21
-2271.434082031
 31
0.0
  0
LINE
  5
ED
100
AcDbEntity
  8
AUGSL0
  6
SOLID
 62
        3
100
AcDbLine
 10
481.764770508
 20
-2269.600830078
 30
0.0
 11
470.764770508
 21
-2271.434082031
 31
0.0
  0
LINE
  5
EE
100
AcDbEntity
  8
AUGSL0
  6
SOLID
 62
        3
100
AcDbLine
 10
470.764770508
 20
-2271.434082031
 30
0.0
 11
481.764770508
 21
-2273.267333984
 31
0.0
  0
LINE
  5
EF
100
AcDbEntity
  8
AUGSL0
  6
SOLID
 62
        3
100
AcDbLine
 10
481.764770508
 20
-2273.267333984
 30
0.0
 11
481.764770508
 21
-2269.600830078
 31
0.0
  0
LINE
  5
F0
100
AcDbEntity
  8
AUGSL0
  6
SOLID
 62
        3
100
AcDbLine
 10
670.764770508
 20
-2271.434082031
 30
0.0
 11
470.764770508
 21
-2271.434082031
 31
0.0
  0
LINE
  5
F1
100
AcDbEntity
  8
AUGSL0
  6
SOLID
 62
        3
100
AcDbLine
 10
659.764770508
 20
-2273.267333984
 30
0.0
 11
670.764770508
 21
-2271.434082031
 31
0.0
  0
LINE
  5
F2
100
AcDbEntity
  8
AUGSL0
  6
SOLID
 62
        3
100
AcDbLine
 10
670.764770508
 20
-2271.434082031
 30
0.0
 11
659.764770508
 21
-2269.600830078
 31
0.0
  0
LINE
  5
F3
100
AcDbEntity
  8
AUGSL0
  6
SOLID
 62
        3
100
AcDbLine
 10
659.764770508
 20
-2269.600830078
 30
0.0
 11
659.764770508
 21
-2273.267333984
 31
0.0
  0
TEXT
  5
F4
100
AcDbEntity
  8
AUGSL0
  6
SOLID
 62
        3
100
AcDbText
 10
557.841491699
 20
-2265.934082031
 30
0.0
 40
11.0
  1
200
 72
        5
 11
583.688106537
 21
-2265.934082031
 31
0.0
100
AcDbText
  0
ENDBLK
  5
F5
100
AcDbEntity
  8
0
100
AcDbBlockEnd
  0
BLOCK
  5
F9
100
AcDbEntity
  8
0
100
AcDbBlockBegin
  2
*D3
 70
        0
 10
0.0
 20
0.0
 30
0.0
  3
*D3
  1

  0
LINE
  5
FA
100
AcDbEntity
  8
AUGSL0
  6
SOLID
 62
        3
100
AcDbLine
 10
440.764770508
 20
-2240.367431641
 30
0.0
 11
440.764770508
 21
-2296.406982422
 31
0.0
  0
LINE
  5
FB
100
AcDbEntity
  8
AUGSL0
  6
SOLID
 62
        3
100
AcDbLine
 10
700.764770508
 20
-2240.367431641
 30
0.0
 11
700.764770508
 21
-2296.406982422
 31
0.0
  0
LINE
  5
FC
100
AcDbEntity
  8
AUGSL0
  6
SOLID
 62
        3
100
AcDbLine
 10
440.764770508
 20
-2293.434082031
 30
0.0
 11
700.764770508
 21
-2293.434082031
 31
0.0
  0
LINE
  5
FD
100
AcDbEntity
  8
AUGSL0
  6
SOLID
 62
        3
100
AcDbLine
 10
451.764770508
 20
-2291.600830078
 30
0.0
 11
440.764770508
 21
-2293.434082031
 31
0.0
  0
LINE
  5
FE
100
AcDbEntity
  8
AUGSL0
  6
SOLID
 62
        3
100
AcDbLine
 10
440.764770508
 20
-2293.434082031
 30
0.0
 11
451.764770508
 21
-2295.267333984
 31
0.0
  0
LINE
  5
FF
100
AcDbEntity
  8
AUGSL0
  6
SOLID
 62
        3
100
AcDbLine
 10
451.764770508
 20
-2295.267333984
 30
0.0
 11
451.764770508
 21
-2291.600830078
 31
0.0
  0
LINE
  5
100
100
AcDbEntity
  8
AUGSL0
  6
SOLID
 62
        3
100
AcDbLine
 10
700.764770508
 20
-2293.434082031
 30
0.0
 11
440.764770508
 21
-2293.434082031
 31
0.0
  0
LINE
  5
101
100
AcDbEntity
  8
AUGSL0
  6
SOLID
 62
        3
100
AcDbLine
 10
689.764770508
 20
-2295.267333984
 30
0.0
 11
700.764770508
 21
-2293.434082031
 31
0.0
  0
LINE
  5
102
100
AcDbEntity
  8
AUGSL0
  6
SOLID
 62
        3
100
AcDbLine
 10
700.764770508
 20
-2293.434082031
 30
0.0
 11
689.764770508
 21
-2291.600830078
 31
0.0
  0
LINE
  5
103
100
AcDbEntity
  8
AUGSL0
  6
SOLID
 62
        3
100
AcDbLine
 10
689.764770508
 20
-2291.600830078
 30
0.0
 11
689.764770508
 21
-2295.267333984
 31
0.0
  0
TEXT
  5
104
100
AcDbEntity
  8
AUGSL0
  6
SOLID
 62
        3
100
AcDbText
 10
557.841491699
 20
-2287.934082031
 30
0.0
 40
11.0
  1
260
 72
        5
 11
583.688106537
 21
-2287.934082031
 31
0.0
100
AcDbText
  0
ENDBLK
  5
105
100
AcDbEntity
  8
0
100
AcDbBlockEnd
  0
BLOCK
  5
129
100
AcDbEntity
  8
0
100
AcDbBlockBegin
  2
*D4
 70
        0
 10
0.0
 20
0.0
 30
0.0
  3
*D4
  1

  0
LINE
  5
12A
100
AcDbEntity
  8
AUGSL0
  6
SOLID
 62
        3
100
AcDbLine
 10
424.765136719
 20
-2215.89453125
 30
0.0
 11
424.765136719
 21
-2316.434082031
 31
0.0
  0
LINE
  5
12B
100
AcDbEntity
  8
AUGSL0
  6
SOLID
 62
        3
100
AcDbLine
 10
570.765136719
 20
-2319.233642578
 30
0.0
 11
570.765136719
 21
-2314.434082031
 31
0.0
  0
LINE
  5
12C
100
AcDbEntity
  8
AUGSL0
  6
SOLID
 62
        3
100
AcDbLine
 10
424.765136719
 20
-2315.434082031
 30
0.0
 11
570.765136719
 21
-2315.434082031
 31
0.0
  0
LINE
  5
12D
100
AcDbEntity
  8
AUGSL0
  6
SOLID
 62
        3
100
AcDbLine
 10
435.765136719
 20
-2313.600830078
 30
0.0
 11
424.765136719
 21
-2315.434082031
 31
0.0
  0
LINE
  5
12E
100
AcDbEntity
  8
AUGSL0
  6
SOLID
 62
        3
100
AcDbLine
 10
424.765136719
 20
-2315.434082031
 30
0.0
 11
435.765136719
 21
-2317.267333984
 31
0.0
  0
LINE
  5
12F
100
AcDbEntity
  8
AUGSL0
  6
SOLID
 62
        3
100
AcDbLine
 10
435.765136719
 20
-2317.267333984
 30
0.0
 11
435.765136719
 21
-2313.600830078
 31
0.0
  0
LINE
  5
130
100
AcDbEntity
  8
AUGSL0
  6
SOLID
 62
        3
100
AcDbLine
 10
570.765136719
 20
-2315.434082031
 30
0.0
 11
424.765136719
 21
-2315.434082031
 31
0.0
  0
LINE
  5
131
100
AcDbEntity
  8
AUGSL0
  6
SOLID
 62
        3
100
AcDbLine
 10
559.765136719
 20
-2317.267333984
 30
0.0
 11
570.765136719
 21
-2315.434082031
 31
0.0
  0
LINE
  5
132
100
AcDbEntity
  8
AUGSL0
  6
SOLID
 62
        3
100
AcDbLine
 10
570.765136719
 20
-2315.434082031
 30
0.0
 11
559.765136719
 21
-2313.600830078
 31
0.0
  0
LINE
  5
133
100
AcDbEntity
  8
AUGSL0
  6
SOLID
 62
        3
100
AcDbLine
 10
559.765136719
 20
-2313.600830078
 30
0.0
 11
559.765136719
 21
-2317.267333984
 31
0.0
  0
TEXT
  5
134
100
AcDbEntity
  8
AUGSL0
  6
SOLID
 62
        3
100
AcDbText
 10
484.383209229
 20
-2309.934082031
 30
0.0
 40
11.0
  1
146
 72
        5
 11
511.147054672
 21
-2309.934082031
 31
0.0
100
AcDbText
  0
ENDBLK
  5
135
100
AcDbEntity
  8
0
100
AcDbBlockEnd
  0
BLOCK
  5
141
100
AcDbEntity
  8
0
100
AcDbBlockBegin
  2
*L5
 70
        0
 10
0.0
 20
0.0
 30
0.0
  3
*L5
  1

  0
LINE
  5
142
100
AcDbEntity
  8
AUGSL0
  6
SOLID
 62
        3
100
AcDbLine
 10
665.901672363
 20
-2197.151367188
 30
0.0
 11
662.061584473
 21
-2132.657470703
 31
0.0
  0
LINE
  5
143
100
AcDbEntity
  8
AUGSL0
  6
SOLID
 62
        3
100
AcDbLine
 10
663.41796875
 20
-2186.279785156
 30
0.0
 11
665.901672363
 21
-2197.151367188
 31
0.0
  0
LINE
  5
144
100
AcDbEntity
  8
AUGSL0
  6
SOLID
 62
        3
100
AcDbLine
 10
665.901672363
 20
-2197.151367188
 30
0.0
 11
667.077758789
 21
-2186.061767578
 31
0.0
  0
LINE
  5
145
100
AcDbEntity
  8
AUGSL0
  6
SOLID
 62
        3
100
AcDbLine
 10
667.077758789
 20
-2186.061767578
 30
0.0
 11
663.41796875
 21
-2186.279785156
 31
0.0
  0
TEXT
  5
146
100
AcDbEntity
  8
AUGSL0
  6
SOLID
 62
        3
100
AcDbText
 10
591.640380859
 20
-2127.011474609
 30
0.0
 40
11.0
  1
4xM16x40
 72
        5
 11
656.41558075
 21
-2127.011474609
 31
0.0
100
AcDbText
  0
LINE
  5
147
100
AcDbEntity
  8
AUGSL0
  6
SOLID
 62
        3
100
AcDbLine
 10
585.994384766
 20
-2132.657470703
 30
0.0
 11
662.061584473
 21
-2132.657470703
 31
0.0
  0
ENDBLK
  5
148
100
AcDbEntity
  8
0
100
AcDbBlockEnd
  0
BLOCK
  5
14B
100
AcDbEntity
  8
0
100
AcDbBlockBegin
  2
*D6
 70
        0
 10
0.0
 20
0.0
 30
0.0
  3
*D6
  1

  0
LINE
  5
14C
100
AcDbEntity
  8
AUGSL0
  6
SOLID
 62
        3
100
AcDbLine
 10
424.765136719
 20
-2215.89453125
 30
0.0
 11
424.765136719
 21
-2339.978027344
 31
0.0
  0
LINE
  5
14D
100
AcDbEntity
  8
AUGSL0
  6
SOLID
 62
        3
100
AcDbLine
 10
710.765136719
 20
-2193.39453125
 30
0.0
 11
710.765136719
 21
-2339.978027344
 31
0.0
  0
LINE
  5
14E
100
AcDbEntity
  8
AUGSL0
  6
SOLID
 62
        3
100
AcDbLine
 10
424.765136719
 20
-2338.978027344
 30
0.0
 11
710.765136719
 21
-2338.978027344
 31
0.0
  0
LINE
  5
14F
100
AcDbEntity
  8
AUGSL0
  6
SOLID
 62
        3
100
AcDbLine
 10
435.765136719
 20
-2337.144775391
 30
0.0
 11
424.765136719
 21
-2338.978027344
 31
0.0
  0
LINE
  5
150
100
AcDbEntity
  8
AUGSL0
  6
SOLID
 62
        3
100
AcDbLine
 10
424.765136719
 20
-2338.978027344
 30
0.0
 11
435.765136719
 21
-2340.811279297
 31
0.0
  0
LINE
  5
151
100
AcDbEntity
  8
AUGSL0
  6
SOLID
 62
        3
100
AcDbLine
 10
435.765136719
 20
-2340.811279297
 30
0.0
 11
435.765136719
 21
-2337.144775391
 31
0.0
  0
LINE
  5
152
100
AcDbEntity
  8
AUGSL0
  6
SOLID
 62
        3
100
AcDbLine
 10
710.765136719
 20
-2338.978027344
 30
0.0
 11
424.765136719
 21
-2338.978027344
 31
0.0
  0
LINE
  5
153
100
AcDbEntity
  8
AUGSL0
  6
SOLID
 62
        3
100
AcDbLine
 10
699.765136719
 20
-2340.811279297
 30
0.0
 11
710.765136719
 21
-2338.978027344
 31
0.0
  0
LINE
  5
154
100
AcDbEntity
  8
AUGSL0
  6
SOLID
 62
        3
100
AcDbLine
 10
710.765136719
 20
-2338.978027344
 30
0.0
 11
699.765136719
 21
-2337.144775391
 31
0.0
  0
LINE
  5
155
100
AcDbEntity
  8
AUGSL0
  6
SOLID
 62
        3
100
AcDbLine
 10
699.765136719
 20
-2337.144775391
 30
0.0
 11
699.765136719
 21
-2340.811279297
 31
0.0
  0
TEXT
  5
156
100
AcDbEntity
  8
AUGSL0
  6
SOLID
 62
        3
100
AcDbText
 10
554.383239746
 20
-2333.478027344
 30
0.0
 40
11.0
  1
286
 72
        5
 11
581.14708519
 21
-2333.478027344
 31
0.0
100
AcDbText
  0
ENDBLK
  5
157
100
AcDbEntity
  8
0
100
AcDbBlockEnd
  0
BLOCK
  5
15C
100
AcDbEntity
  8
0
100
AcDbBlockBegin
  2
*D7
 70
        0
 10
0.0
 20
0.0
 30
0.0
  3
*D7
  1

  0
LINE
  5
15D
100
AcDbEntity
  8
AUGSL0
  6
SOLID
 62
        3
100
AcDbLine
 10
703.738098145
 20
-2237.39453125
 30
0.0
 11
742.30255127
 21
-2237.39453125
 31
0.0
  0
LINE
  5
15E
100
AcDbEntity
  8
AUGSL0
  6
SOLID
 62
        3
100
AcDbLine
 10
694.740844727
 20
-2197.39453125
 30
0.0
 11
742.30255127
 21
-2197.39453125
 31
0.0
  0
LINE
  5
15F
100
AcDbEntity
  8
AUGSL0
  6
SOLID
 62
        3
100
AcDbLine
 10
739.329589844
 20
-2237.39453125
 30
0.0
 11
739.329589844
 21
-2253.89453125
 31
0.0
  0
LINE
  5
160
100
AcDbEntity
  8
AUGSL0
  6
SOLID
 62
        3
100
AcDbLine
 10
739.329589844
 20
-2253.89453125
 30
0.0
 11
739.329589844
 21
-2180.89453125
 31
0.0
  0
LINE
  5
161
100
AcDbEntity
  8
AUGSL0
  6
SOLID
 62
        3
100
AcDbLine
 10
741.162719727
 20
-2248.39453125
 30
0.0
 11
739.329589844
 21
-2237.39453125
 31
0.0
  0
LINE
  5
162
100
AcDbEntity
  8
AUGSL0
  6
SOLID
 62
        3
100
AcDbLine
 10
739.329589844
 20
-2237.39453125
 30
0.0
 11
737.496459961
 21
-2248.39453125
 31
0.0
  0
LINE
  5
163
100
AcDbEntity
  8
AUGSL0
  6
SOLID
 62
        3
100
AcDbLine
 10
737.496459961
 20
-2248.39453125
 30
0.0
 11
741.162719727
 21
-2248.39453125
 31
0.0
  0
LINE
  5
164
100
AcDbEntity
  8
AUGSL0
  6
SOLID
 62
        3
100
AcDbLine
 10
739.329589844
 20
-2197.39453125
 30
0.0
 11
739.329589844
 21
-2180.89453125
 31
0.0
  0
LINE
  5
165
100
AcDbEntity
  8
AUGSL0
  6
SOLID
 62
        3
100
AcDbLine
 10
739.329589844
 20
-2180.89453125
 30
0.0
 11
739.329589844
 21
-2253.89453125
 31
0.0
  0
LINE
  5
166
100
AcDbEntity
  8
AUGSL0
  6
SOLID
 62
        3
100
AcDbLine
 10
737.496459961
 20
-2186.39453125
 30
0.0
 11
739.329589844
 21
-2197.39453125
 31
0.0
  0
LINE
  5
167
100
AcDbEntity
  8
AUGSL0
  6
SOLID
 62
        3
100
AcDbLine
 10
739.329589844
 20
-2197.39453125
 30
0.0
 11
741.162719727
 21
-2186.39453125
 31
0.0
  0
LINE
  5
168
100
AcDbEntity
  8
AUGSL0
  6
SOLID
 62
        3
100
AcDbLine
 10
741.162719727
 20
-2186.39453125
 30
0.0
 11
737.496459961
 21
-2186.39453125
 31
0.0
  0
TEXT
  5
169
100
AcDbEntity
  8
AUGSL0
  6
SOLID
 62
        3
100
AcDbText
 10
733.829589844
 20
-2225.459960938
 30
0.0
 40
11.0
  1
40
 50
90.000002504
 72
        5
 11
733.829589139
 21
-2209.328884125
 31
0.0
100
AcDbText
  0
ENDBLK
  5
16A
100
AcDbEntity
  8
0
100
AcDbBlockEnd
  0
BLOCK
  5
18B
100
AcDbEntity
  8
0
100
AcDbBlockBegin
  2
*D8
 70
        0
 10
0.0
 20
0.0
 30
0.0
  3
*D8
  1

  0
LINE
  5
18C
100
AcDbEntity
  8
AUGSL0
  6
SOLID
 62
        3
100
AcDbLine
 10
439.765136719
 20
-2237.39453125
 30
0.0
 11
368.998626709
 21
-2237.39453125
 31
0.0
  0
LINE
  5
18D
100
AcDbEntity
  8
AUGSL0
  6
SOLID
 62
        3
100
AcDbLine
 10
423.765136719
 20
-1899.89440918
 30
0.0
 11
368.998626709
 21
-1899.89440918
 31
0.0
  0
LINE
  5
18E
100
AcDbEntity
  8
AUGSL0
  6
SOLID
 62
        3
100
AcDbLine
 10
369.998626709
 20
-2237.39453125
 30
0.0
 11
369.998626709
 21
-1899.89440918
 31
0.0
  0
LINE
  5
18F
100
AcDbEntity
  8
AUGSL0
  6
SOLID
 62
        3
100
AcDbLine
 10
368.165466309
 20
-2226.39453125
 30
0.0
 11
369.998626709
 21
-2237.39453125
 31
0.0
  0
LINE
  5
190
100
AcDbEntity
  8
AUGSL0
  6
SOLID
 62
        3
100
AcDbLine
 10
369.998626709
 20
-2237.39453125
 30
0.0
 11
371.831787109
 21
-2226.39453125
 31
0.0
  0
LINE
  5
191
100
AcDbEntity
  8
AUGSL0
  6
SOLID
 62
        3
100
AcDbLine
 10
371.831787109
 20
-2226.39453125
 30
0.0
 11
368.165466309
 21
-2226.39453125
 31
0.0
  0
LINE
  5
192
100
AcDbEntity
  8
AUGSL0
  6
SOLID
 62
        3
100
AcDbLine
 10
369.998626709
 20
-1899.89440918
 30
0.0
 11
369.998626709
 21
-2237.39453125
 31
0.0
  0
LINE
  5
193
100
AcDbEntity
  8
AUGSL0
  6
SOLID
 62
        3
100
AcDbLine
 10
371.831787109
 20
-1910.89440918
 30
0.0
 11
369.998626709
 21
-1899.89440918
 31
0.0
  0
LINE
  5
194
100
AcDbEntity
  8
AUGSL0
  6
SOLID
 62
        3
100
AcDbLine
 10
369.998626709
 20
-1899.89440918
 30
0.0
 11
368.165466309
 21
-1910.89440918
 31
0.0
  0
LINE
  5
195
100
AcDbEntity
  8
AUGSL0
  6
SOLID
 62
        3
100
AcDbLine
 10
368.165466309
 20
-1910.89440918
 30
0.0
 11
371.831787109
 21
-1910.89440918
 31
0.0
  0
TEXT
  5
196
100
AcDbEntity
  8
AUGSL0
  6
SOLID
 62
        3
100
AcDbText
 10
364.498626709
 20
-2081.971435547
 30
0.0
 40
11.0
  1
338
 50
90.000002504
 72
        5
 11
364.498625544
 21
-2055.317590714
 31
0.0
100
AcDbText
  0
ENDBLK
  5
197
100
AcDbEntity
  8
0
100
AcDbBlockEnd
  0
BLOCK
  5
19B
100
AcDbEntity
  8
0
100
AcDbBlockBegin
  2
*D9
 70
        0
 10
0.0
 20
0.0
 30
0.0
  3
*D9
  1

  0
LINE
  5
19C
100
AcDbEntity
  8
AUGSL0
  6
SOLID
 62
        3
100
AcDbLine
 10
439.765136719
 20
-2237.39453125
 30
0.0
 11
395.64831543
 21
-2237.39453125
 31
0.0
  0
LINE
  5
19D
100
AcDbEntity
  8
AUGSL0
  6
SOLID
 62
        3
100
AcDbLine
 10
423.765136719
 20
-2214.89453125
 30
0.0
 11
395.64831543
 21
-2214.89453125
 31
0.0
  0
LINE
  5
19E
100
AcDbEntity
  8
AUGSL0
  6
SOLID
 62
        3
100
AcDbLine
 10
396.64831543
 20
-2237.39453125
 30
0.0
 11
396.64831543
 21
-2253.89453125
 31
0.0
  0
LINE
  5
19F
100
AcDbEntity
  8
AUGSL0
  6
SOLID
 62
        3
100
AcDbLine
 10
396.64831543
 20
-2253.89453125
 30
0.0
 11
396.64831543
 21
-2198.39453125
 31
0.0
  0
LINE
  5
1A0
100
AcDbEntity
  8
AUGSL0
  6
SOLID
 62
        3
100
AcDbLine
 10
398.48147583
 20
-2248.39453125
 30
0.0
 11
396.64831543
 21
-2237.39453125
 31
0.0
  0
LINE
  5
1A1
100
AcDbEntity
  8
AUGSL0
  6
SOLID
 62
        3
100
AcDbLine
 10
396.64831543
 20
-2237.39453125
 30
0.0
 11
394.815155029
 21
-2248.39453125
 31
0.0
  0
LINE
  5
1A2
100
AcDbEntity
  8
AUGSL0
  6
SOLID
 62
        3
100
AcDbLine
 10
394.815155029
 20
-2248.39453125
 30
0.0
 11
398.48147583
 21
-2248.39453125
 31
0.0
  0
LINE
  5
1A3
100
AcDbEntity
  8
AUGSL0
  6
SOLID
 62
        3
100
AcDbLine
 10
396.64831543
 20
-2214.89453125
 30
0.0
 11
396.64831543
 21
-2198.39453125
 31
0.0
  0
LINE
  5
1A4
100
AcDbEntity
  8
AUGSL0
  6
SOLID
 62
        3
100
AcDbLine
 10
396.64831543
 20
-2198.39453125
 30
0.0
 11
396.64831543
 21
-2253.89453125
 31
0.0
  0
LINE
  5
1A5
100
AcDbEntity
  8
AUGSL0
  6
SOLID
 62
        3
100
AcDbLine
 10
394.815155029
 20
-2203.89453125
 30
0.0
 11
396.64831543
 21
-2214.89453125
 31
0.0
  0
LINE
  5
1A6
100
AcDbEntity
  8
AUGSL0
  6
SOLID
 62
        3
100
AcDbLine
 10
396.64831543
 20
-2214.89453125
 30
0.0
 11
398.48147583
 21
-2203.89453125
 31
0.0
  0
LINE
  5
1A7
100
AcDbEntity
  8
AUGSL0
  6
SOLID
 62
        3
100
AcDbLine
 10
398.48147583
 20
-2203.89453125
 30
0.0
 11
394.815155029
 21
-2203.89453125
 31
0.0
  0
TEXT
  5
1A8
100
AcDbEntity
  8
AUGSL0
  6
SOLID
 62
        3
100
AcDbText
 10
391.14831543
 20
-2234.209960938
 30
0.0
 40
11.0
  1
23
 50
90.000002504
 72
        5
 11
391.148314725
 21
-2218.078884125
 31
0.0
100
AcDbText
  0
ENDBLK
  5
1A9
100
AcDbEntity
  8
0
100
AcDbBlockEnd
  0
BLOCK
  5
1AD
100
AcDbEntity
  8
0
100
AcDbBlockBegin
  2
*D10
 70
        0
 10
0.0
 20
0.0
 30
0.0
  3
*D10
  1

  0
LINE
  5
1AE
100
AcDbEntity
  8
AUGSL0
  6
SOLID
 62
        3
100
AcDbLine
 10
423.765136719
 20
-2214.89453125
 30
0.0
 11
395.64831543
 21
-2214.89453125
 31
0.0
  0
LINE
  5
1AF
100
AcDbEntity
  8
AUGSL0
  6
SOLID
 62
        3
100
AcDbLine
 10
423.765136719
 20
-1899.89440918
 30
0.0
 11
395.64831543
 21
-1899.89440918
 31
0.0
  0
LINE
  5
1B0
100
AcDbEntity
  8
AUGSL0
  6
SOLID
 62
        3
100
AcDbLine
 10
396.64831543
 20
-2214.89453125
 30
0.0
 11
396.64831543
 21
-1899.89440918
 31
0.0
  0
LINE
  5
1B1
100
AcDbEntity
  8
AUGSL0
  6
SOLID
 62
        3
100
AcDbLine
 10
394.815155029
 20
-2203.89453125
 30
0.0
 11
396.64831543
 21
-2214.89453125
 31
0.0
  0
LINE
  5
1B2
100
AcDbEntity
  8
AUGSL0
  6
SOLID
 62
        3
100
AcDbLine
 10
396.64831543
 20
-2214.89453125
 30
0.0
 11
398.48147583
 21
-2203.89453125
 31
0.0
  0
LINE
  5
1B3
100
AcDbEntity
  8
AUGSL0
  6
SOLID
 62
        3
100
AcDbLine
 10
398.48147583
 20
-2203.89453125
 30
0.0
 11
394.815155029
 21
-2203.89453125
 31
0.0
  0
LINE
  5
1B4
100
AcDbEntity
  8
AUGSL0
  6
SOLID
 62
        3
100
AcDbLine
 10
396.64831543
 20
-1899.89440918
 30
0.0
 11
396.64831543
 21
-2214.89453125
 31
0.0
  0
LINE
  5
1B5
100
AcDbEntity
  8
AUGSL0
  6
SOLID
 62
        3
100
AcDbLine
 10
398.48147583
 20
-1910.89440918
 30
0.0
 11
396.64831543
 21
-1899.89440918
 31
0.0
  0
LINE
  5
1B6
100
AcDbEntity
  8
AUGSL0
  6
SOLID
 62
        3
100
AcDbLine
 10
396.64831543
 20
-1899.89440918
 30
0.0
 11
394.815155029
 21
-1910.89440918
 31
0.0
  0
LINE
  5
1B7
100
AcDbEntity
  8
AUGSL0
  6
SOLID
 62
        3
100
AcDbLine
 10
394.815155029
 20
-1910.89440918
 30
0.0
 11
398.48147583
 21
-1910.89440918
 31
0.0
  0
TEXT
  5
1B8
100
AcDbEntity
  8
AUGSL0
  6
SOLID
 62
        3
100
AcDbText
 10
391.14831543
 20
-2070.317871094
 30
0.0
 40
11.0
  1
315
 50
90.000002504
 72
        5
 11
391.1483143
 21
-2044.471256256
 31
0.0
100
AcDbText
  0
ENDBLK
  5
1B9
100
AcDbEntity
  8
0
100
AcDbBlockEnd
  0
BLOCK
  5
209
100
AcDbEntity
  8
0
100
AcDbBlockBegin
  2
*D11
 70
        0
 10
0.0
 20
0.0
 30
0.0
  3
*D11
  1

  0
LINE
  5
20A
100
AcDbEntity
  8
AUGSL0
  6
SOLID
 62
        3
100
AcDbLine
 10
830.765136719
 20
-2193.39453125
 30
0.0
 11
830.765136719
 21
-2316.434082031
 31
0.0
  0
LINE
  5
20B
100
AcDbEntity
  8
AUGSL0
  6
SOLID
 62
        3
100
AcDbLine
 10
970.765136719
 20
-2319.233642578
 30
0.0
 11
970.765136719
 21
-2314.434082031
 31
0.0
  0
LINE
  5
20C
100
AcDbEntity
  8
AUGSL0
  6
SOLID
 62
        3
100
AcDbLine
 10
830.765136719
 20
-2315.434082031
 30
0.0
 11
970.765136719
 21
-2315.434082031
 31
0.0
  0
LINE
  5
20D
100
AcDbEntity
  8
AUGSL0
  6
SOLID
 62
        3
100
AcDbLine
 10
841.765136719
 20
-2313.600830078
 30
0.0
 11
830.765136719
 21
-2315.434082031
 31
0.0
  0
LINE
  5
20E
100
AcDbEntity
  8
AUGSL0
  6
SOLID
 62
        3
100
AcDbLine
 10
830.765136719
 20
-2315.434082031
 30
0.0
 11
841.765136719
 21
-2317.267333984
 31
0.0
  0
LINE
  5
20F
100
AcDbEntity
  8
AUGSL0
  6
SOLID
 62
        3
100
AcDbLine
 10
841.765136719
 20
-2317.267333984
 30
0.0
 11
841.765136719
 21
-2313.600830078
 31
0.0
  0
LINE
  5
210
100
AcDbEntity
  8
AUGSL0
  6
SOLID
 62
        3
100
AcDbLine
 10
970.765136719
 20
-2315.434082031
 30
0.0
 11
830.765136719
 21
-2315.434082031
 31
0.0
  0
LINE
  5
211
100
AcDbEntity
  8
AUGSL0
  6
SOLID
 62
        3
100
AcDbLine
 10
959.765136719
 20
-2317.267333984
 30
0.0
 11
970.765136719
 21
-2315.434082031
 31
0.0
  0
LINE
  5
212
100
AcDbEntity
  8
AUGSL0
  6
SOLID
 62
        3
100
AcDbLine
 10
970.765136719
 20
-2315.434082031
 30
0.0
 11
959.765136719
 21
-2313.600830078
 31
0.0
  0
LINE
  5
213
100
AcDbEntity
  8
AUGSL0
  6
SOLID
 62
        3
100
AcDbLine
 10
959.765136719
 20
-2313.600830078
 30
0.0
 11
959.765136719
 21
-2317.267333984
 31
0.0
  0
TEXT
  5
214
100
AcDbEntity
  8
AUGSL0
  6
SOLID
 62
        3
100
AcDbText
 10
887.84185791
 20
-2309.934082031
 30
0.0
 40
11.0
  1
140
 72
        5
 11
913.688472748
 21
-2309.934082031
 31
0.0
100
AcDbText
  0
ENDBLK
  5
215
100
AcDbEntity
  8
0
100
AcDbBlockEnd
  0
BLOCK
  5
21F
100
AcDbEntity
  8
0
100
AcDbBlockBegin
  2
*D12
 70
        0
 10
0.0
 20
0.0
 30
0.0
  3
*D12
  1

  0
LINE
  5
220
100
AcDbEntity
  8
AUGSL0
  6
SOLID
 62
        3
100
AcDbLine
 10
900.76550293
 20
-2240.367431641
 30
0.0
 11
900.76550293
 21
-2252.406982422
 31
0.0
  0
LINE
  5
221
100
AcDbEntity
  8
AUGSL0
  6
SOLID
 62
        3
100
AcDbLine
 10
1040.76550293
 20
-2240.367431641
 30
0.0
 11
1040.76550293
 21
-2252.406982422
 31
0.0
  0
LINE
  5
222
100
AcDbEntity
  8
AUGSL0
  6
SOLID
 62
        3
100
AcDbLine
 10
900.76550293
 20
-2249.434082031
 30
0.0
 11
1040.76550293
 21
-2249.434082031
 31
0.0
  0
LINE
  5
223
100
AcDbEntity
  8
AUGSL0
  6
SOLID
 62
        3
100
AcDbLine
 10
911.76550293
 20
-2247.600830078
 30
0.0
 11
900.76550293
 21
-2249.434082031
 31
0.0
  0
LINE
  5
224
100
AcDbEntity
  8
AUGSL0
  6
SOLID
 62
        3
100
AcDbLine
 10
900.76550293
 20
-2249.434082031
 30
0.0
 11
911.76550293
 21
-2251.267333984
 31
0.0
  0
LINE
  5
225
100
AcDbEntity
  8
AUGSL0
  6
SOLID
 62
        3
100
AcDbLine
 10
911.76550293
 20
-2251.267333984
 30
0.0
 11
911.76550293
 21
-2247.600830078
 31
0.0
  0
LINE
  5
226
100
AcDbEntity
  8
AUGSL0
  6
SOLID
 62
        3
100
AcDbLine
 10
1040.76550293
 20
-2249.434082031
 30
0.0
 11
900.76550293
 21
-2249.434082031
 31
0.0
  0
LINE
  5
227
100
AcDbEntity
  8
AUGSL0
  6
SOLID
 62
        3
100
AcDbLine
 10
1029.76550293
 20
-2251.267333984
 30
0.0
 11
1040.76550293
 21
-2249.434082031
 31
0.0
  0
LINE
  5
228
100
AcDbEntity
  8
AUGSL0
  6
SOLID
 62
        3
100
AcDbLine
 10
1040.76550293
 20
-2249.434082031
 30
0.0
 11
1029.76550293
 21
-2247.600830078
 31
0.0
  0
LINE
  5
229
100
AcDbEntity
  8
AUGSL0
  6
SOLID
 62
        3
100
AcDbLine
 10
1029.76550293
 20
-2247.600830078
 30
0.0
 11
1029.76550293
 21
-2251.267333984
 31
0.0
  0
TEXT
  5
22A
100
AcDbEntity
  8
AUGSL0
  6
SOLID
 62
        3
100
AcDbText
 10
957.842224121
 20
-2243.934082031
 30
0.0
 40
11.0
  1
140
 72
        5
 11
983.688838959
 21
-2243.934082031
 31
0.0
100
AcDbText
  0
ENDBLK
  5
22B
100
AcDbEntity
  8
0
100
AcDbBlockEnd
  0
BLOCK
  5
22F
100
AcDbEntity
  8
0
100
AcDbBlockBegin
  2
*D13
 70
        0
 10
0.0
 20
0.0
 30
0.0
  3
*D13
  1

  0
LINE
  5
230
100
AcDbEntity
  8
AUGSL0
  6
SOLID
 62
        3
100
AcDbLine
 10
870.76550293
 20
-2252.418701172
 30
0.0
 11
870.76550293
 21
-2274.406982422
 31
0.0
  0
LINE
  5
231
100
AcDbEntity
  8
AUGSL0
  6
SOLID
 62
        3
100
AcDbLine
 10
1070.76550293
 20
-2252.418701172
 30
0.0
 11
1070.76550293
 21
-2274.406982422
 31
0.0
  0
LINE
  5
232
100
AcDbEntity
  8
AUGSL0
  6
SOLID
 62
        3
100
AcDbLine
 10
870.76550293
 20
-2271.434082031
 30
0.0
 11
1070.76550293
 21
-2271.434082031
 31
0.0
  0
LINE
  5
233
100
AcDbEntity
  8
AUGSL0
  6
SOLID
 62
        3
100
AcDbLine
 10
881.76550293
 20
-2269.600830078
 30
0.0
 11
870.76550293
 21
-2271.434082031
 31
0.0
  0
LINE
  5
234
100
AcDbEntity
  8
AUGSL0
  6
SOLID
 62
        3
100
AcDbLine
 10
870.76550293
 20
-2271.434082031
 30
0.0
 11
881.76550293
 21
-2273.267333984
 31
0.0
  0
LINE
  5
235
100
AcDbEntity
  8
AUGSL0
  6
SOLID
 62
        3
100
AcDbLine
 10
881.76550293
 20
-2273.267333984
 30
0.0
 11
881.76550293
 21
-2269.600830078
 31
0.0
  0
LINE
  5
236
100
AcDbEntity
  8
AUGSL0
  6
SOLID
 62
        3
100
AcDbLine
 10
1070.76550293
 20
-2271.434082031
 30
0.0
 11
870.76550293
 21
-2271.434082031
 31
0.0
  0
LINE
  5
237
100
AcDbEntity
  8
AUGSL0
  6
SOLID
 62
        3
100
AcDbLine
 10
1059.76550293
 20
-2273.267333984
 30
0.0
 11
1070.76550293
 21
-2271.434082031
 31
0.0
  0
LINE
  5
238
100
AcDbEntity
  8
AUGSL0
  6
SOLID
 62
        3
100
AcDbLine
 10
1070.76550293
 20
-2271.434082031
 30
0.0
 11
1059.76550293
 21
-2269.600830078
 31
0.0
  0
LINE
  5
239
100
AcDbEntity
  8
AUGSL0
  6
SOLID
 62
        3
100
AcDbLine
 10
1059.76550293
 20
-2269.600830078
 30
0.0
 11
1059.76550293
 21
-2273.267333984
 31
0.0
  0
TEXT
  5
23A
100
AcDbEntity
  8
AUGSL0
  6
SOLID
 62
        3
100
AcDbText
 10
957.842224121
 20
-2265.934082031
 30
0.0
 40
11.0
  1
200
 72
        5
 11
983.688838959
 21
-2265.934082031
 31
0.0
100
AcDbText
  0
ENDBLK
  5
23B
100
AcDbEntity
  8
0
100
AcDbBlockEnd
  0
BLOCK
  5
23F
100
AcDbEntity
  8
0
100
AcDbBlockBegin
  2
*D14
 70
        0
 10
0.0
 20
0.0
 30
0.0
  3
*D14
  1

  0
LINE
  5
240
100
AcDbEntity
  8
AUGSL0
  6
SOLID
 62
        3
100
AcDbLine
 10
840.76550293
 20
-2240.367431641
 30
0.0
 11
840.76550293
 21
-2296.406982422
 31
0.0
  0
LINE
  5
241
100
AcDbEntity
  8
AUGSL0
  6
SOLID
 62
        3
100
AcDbLine
 10
1100.76550293
 20
-2240.367431641
 30
0.0
 11
1100.76550293
 21
-2296.406982422
 31
0.0
  0
LINE
  5
242
100
AcDbEntity
  8
AUGSL0
  6
SOLID
 62
        3
100
AcDbLine
 10
840.76550293
 20
-2293.434082031
 30
0.0
 11
1100.76550293
 21
-2293.434082031
 31
0.0
  0
LINE
  5
243
100
AcDbEntity
  8
AUGSL0
  6
SOLID
 62
        3
100
AcDbLine
 10
851.76550293
 20
-2291.600830078
 30
0.0
 11
840.76550293
 21
-2293.434082031
 31
0.0
  0
LINE
  5
244
100
AcDbEntity
  8
AUGSL0
  6
SOLID
 62
        3
100
AcDbLine
 10
840.76550293
 20
-2293.434082031
 30
0.0
 11
851.76550293
 21
-2295.267333984
 31
0.0
  0
LINE
  5
245
100
AcDbEntity
  8
AUGSL0
  6
SOLID
 62
        3
100
AcDbLine
 10
851.76550293
 20
-2295.267333984
 30
0.0
 11
851.76550293
 21
-2291.600830078
 31
0.0
  0
LINE
  5
246
100
AcDbEntity
  8
AUGSL0
  6
SOLID
 62
        3
100
AcDbLine
 10
1100.76550293
 20
-2293.434082031
 30
0.0
 11
840.76550293
 21
-2293.434082031
 31
0.0
  0
LINE
  5
247
100
AcDbEntity
  8
AUGSL0
  6
SOLID
 62
        3
100
AcDbLine
 10
1089.76550293
 20
-2295.267333984
 30
0.0
 11
1100.76550293
 21
-2293.434082031
 31
0.0
  0
LINE
  5
248
100
AcDbEntity
  8
AUGSL0
  6
SOLID
 62
        3
100
AcDbLine
 10
1100.76550293
 20
-2293.434082031
 30
0.0
 11
1089.76550293
 21
-2291.600830078
 31
0.0
  0
LINE
  5
249
100
AcDbEntity
  8
AUGSL0
  6
SOLID
 62
        3
100
AcDbLine
 10
1089.76550293
 20
-2291.600830078
 30
0.0
 11
1089.76550293
 21
-2295.267333984
 31
0.0
  0
TEXT
  5
24A
100
AcDbEntity
  8
AUGSL0
  6
SOLID
 62
        3
100
AcDbText
 10
957.842224121
 20
-2287.934082031
 30
0.0
 40
11.0
  1
260
 72
        5
 11
983.688838959
 21
-2287.934082031
 31
0.0
100
AcDbText
  0
ENDBLK
  5
24B
100
AcDbEntity
  8
0
100
AcDbBlockEnd
  0
BLOCK
  5
26E
100
AcDbEntity
  8
0
100
AcDbBlockBegin
  2
*D15
 70
        0
 10
0.0
 20
0.0
 30
0.0
  3
*D15
  1

  0
LINE
  5
26F
100
AcDbEntity
  8
AUGSL0
  6
SOLID
 62
        3
100
AcDbLine
 10
970.765136719
 20
-2319.233642578
 30
0.0
 11
970.765136719
 21
-2314.434082031
 31
0.0
  0
LINE
  5
270
100
AcDbEntity
  8
AUGSL0
  6
SOLID
 62
        3
100
AcDbLine
 10
1116.765136719
 20
-2215.89453125
 30
0.0
 11
1116.765136719
 21
-2316.434082031
 31
0.0
  0
LINE
  5
271
100
AcDbEntity
  8
AUGSL0
  6
SOLID
 62
        3
100
AcDbLine
 10
970.765136719
 20
-2315.434082031
 30
0.0
 11
1116.765136719
 21
-2315.434082031
 31
0.0
  0
LINE
  5
272
100
AcDbEntity
  8
AUGSL0
  6
SOLID
 62
        3
100
AcDbLine
 10
981.765136719
 20
-2313.600830078
 30
0.0
 11
970.765136719
 21
-2315.434082031
 31
0.0
  0
LINE
  5
273
100
AcDbEntity
  8
AUGSL0
  6
SOLID
 62
        3
100
AcDbLine
 10
970.765136719
 20
-2315.434082031
 30
0.0
 11
981.765136719
 21
-2317.267333984
 31
0.0
  0
LINE
  5
274
100
AcDbEntity
  8
AUGSL0
  6
SOLID
 62
        3
100
AcDbLine
 10
981.765136719
 20
-2317.267333984
 30
0.0
 11
981.765136719
 21
-2313.600830078
 31
0.0
  0
LINE
  5
275
100
AcDbEntity
  8
AUGSL0
  6
SOLID
 62
        3
100
AcDbLine
 10
1116.765136719
 20
-2315.434082031
 30
0.0
 11
970.765136719
 21
-2315.434082031
 31
0.0
  0
LINE
  5
276
100
AcDbEntity
  8
AUGSL0
  6
SOLID
 62
        3
100
AcDbLine
 10
1105.765136719
 20
-2317.267333984
 30
0.0
 11
1116.765136719
 21
-2315.434082031
 31
0.0
  0
LINE
  5
277
100
AcDbEntity
  8
AUGSL0
  6
SOLID
 62
        3
100
AcDbLine
 10
1116.765136719
 20
-2315.434082031
 30
0.0
 11
1105.765136719
 21
-2313.600830078
 31
0.0
  0
LINE
  5
278
100
AcDbEntity
  8
AUGSL0
  6
SOLID
 62
        3
100
AcDbLine
 10
1105.765136719
 20
-2313.600830078
 30
0.0
 11
1105.765136719
 21
-2317.267333984
 31
0.0
  0
TEXT
  5
279
100
AcDbEntity
  8
AUGSL0
  6
SOLID
 62
        3
100
AcDbText
 10
1030.383178711
 20
-2309.934082031
 30
0.0
 40
11.0
  1
146
 72
        5
 11
1057.147024155
 21
-2309.934082031
 31
0.0
100
AcDbText
  0
ENDBLK
  5
27A
100
AcDbEntity
  8
0
100
AcDbBlockEnd
  0
BLOCK
  5
286
100
AcDbEntity
  8
0
100
AcDbBlockBegin
  2
*D16
 70
        0
 10
0.0
 20
0.0
 30
0.0
  3
*D16
  1

  0
LINE
  5
287
100
AcDbEntity
  8
AUGSL0
  6
SOLID
 62
        3
100
AcDbLine
 10
830.765136719
 20
-2193.39453125
 30
0.0
 11
830.765136719
 21
-2339.978027344
 31
0.0
  0
LINE
  5
288
100
AcDbEntity
  8
AUGSL0
  6
SOLID
 62
        3
100
AcDbLine
 10
1116.765136719
 20
-2215.89453125
 30
0.0
 11
1116.765136719
 21
-2339.978027344
 31
0.0
  0
LINE
  5
289
100
AcDbEntity
  8
AUGSL0
  6
SOLID
 62
        3
100
AcDbLine
 10
830.765136719
 20
-2338.978027344
 30
0.0
 11
1116.765136719
 21
-2338.978027344
 31
0.0
  0
LINE
  5
28A
100
AcDbEntity
  8
AUGSL0
  6
SOLID
 62
        3
100
AcDbLine
 10
841.765136719
 20
-2337.144775391
 30
0.0
 11
830.765136719
 21
-2338.978027344
 31
0.0
  0
LINE
  5
28B
100
AcDbEntity
  8
AUGSL0
  6
SOLID
 62
        3
100
AcDbLine
 10
830.765136719
 20
-2338.978027344
 30
0.0
 11
841.765136719
 21
-2340.811279297
 31
0.0
  0
LINE
  5
28C
100
AcDbEntity
  8
AUGSL0
  6
SOLID
 62
        3
100
AcDbLine
 10
841.765136719
 20
-2340.811279297
 30
0.0
 11
841.765136719
 21
-2337.144775391
 31
0.0
  0
LINE
  5
28D
100
AcDbEntity
  8
AUGSL0
  6
SOLID
 62
        3
100
AcDbLine
 10
1116.765136719
 20
-2338.978027344
 30
0.0
 11
830.765136719
 21
-2338.978027344
 31
0.0
  0
LINE
  5
28E
100
AcDbEntity
  8
AUGSL0
  6
SOLID
 62
        3
100
AcDbLine
 10
1105.765136719
 20
-2340.811279297
 30
0.0
 11
1116.765136719
 21
-2338.978027344
 31
0.0
  0
LINE
  5
28F
100
AcDbEntity
  8
AUGSL0
  6
SOLID
 62
        3
100
AcDbLine
 10
1116.765136719
 20
-2338.978027344
 30
0.0
 11
1105.765136719
 21
-2337.144775391
 31
0.0
  0
LINE
  5
290
100
AcDbEntity
  8
AUGSL0
  6
SOLID
 62
        3
100
AcDbLine
 10
1105.765136719
 20
-2337.144775391
 30
0.0
 11
1105.765136719
 21
-2340.811279297
 31
0.0
  0
TEXT
  5
291
100
AcDbEntity
  8
AUGSL0
  6
SOLID
 62
        3
100
AcDbText
 10
960.383239746
 20
-2333.478027344
 30
0.0
 40
11.0
  1
286
 72
        5
 11
987.14708519
 21
-2333.478027344
 31
0.0
100
AcDbText
  0
ENDBLK
  5
292
100
AcDbEntity
  8
0
100
AcDbBlockEnd
  0
BLOCK
  5
297
100
AcDbEntity
  8
0
100
AcDbBlockBegin
  2
*D17
 70
        0
 10
0.0
 20
0.0
 30
0.0
  3
*D17
  1

  0
LINE
  5
298
100
AcDbEntity
  8
AUGSL0
  6
SOLID
 62
        3
100
AcDbLine
 10
1101.765136719
 20
-2237.39453125
 30
0.0
 11
1172.531616211
 21
-2237.39453125
 31
0.0
  0
LINE
  5
299
100
AcDbEntity
  8
AUGSL0
  6
SOLID
 62
        3
100
AcDbLine
 10
1117.765136719
 20
-1899.89440918
 30
0.0
 11
1172.531616211
 21
-1899.89440918
 31
0.0
  0
LINE
  5
29A
100
AcDbEntity
  8
AUGSL0
  6
SOLID
 62
        3
100
AcDbLine
 10
1171.531616211
 20
-2237.39453125
 30
0.0
 11
1171.531616211
 21
-1899.89440918
 31
0.0
  0
LINE
  5
29B
100
AcDbEntity
  8
AUGSL0
  6
SOLID
 62
        3
100
AcDbLine
 10
1169.698486328
 20
-2226.39453125
 30
0.0
 11
1171.531616211
 21
-2237.39453125
 31
0.0
  0
LINE
  5
29C
100
AcDbEntity
  8
AUGSL0
  6
SOLID
 62
        3
100
AcDbLine
 10
1171.531616211
 20
-2237.39453125
 30
0.0
 11
1173.364746094
 21
-2226.39453125
 31
0.0
  0
LINE
  5
29D
100
AcDbEntity
  8
AUGSL0
  6
SOLID
 62
        3
100
AcDbLine
 10
1173.364746094
 20
-2226.39453125
 30
0.0
 11
1169.698486328
 21
-2226.39453125
 31
0.0
  0
LINE
  5
29E
100
AcDbEntity
  8
AUGSL0
  6
SOLID
 62
        3
100
AcDbLine
 10
1171.531616211
 20
-1899.89440918
 30
0.0
 11
1171.531616211
 21
-2237.39453125
 31
0.0
  0
LINE
  5
29F
100
AcDbEntity
  8
AUGSL0
  6
SOLID
 62
        3
100
AcDbLine
 10
1173.364746094
 20
-1910.89440918
 30
0.0
 11
1171.531616211
 21
-1899.89440918
 31
0.0
  0
LINE
  5
2A0
100
AcDbEntity
  8
AUGSL0
  6
SOLID
 62
        3
100
AcDbLine
 10
1171.531616211
 20
-1899.89440918
 30
0.0
 11
1169.698486328
 21
-1910.89440918
 31
0.0
  0
LINE
  5
2A1
100
AcDbEntity
  8
AUGSL0
  6
SOLID
 62
        3
100
AcDbLine
 10
1169.698486328
 20
-1910.89440918
 30
0.0
 11
1173.364746094
 21
-1910.89440918
 31
0.0
  0
TEXT
  5
2A2
100
AcDbEntity
  8
AUGSL0
  6
SOLID
 62
        3
100
AcDbText
 10
1166.031616211
 20
-2081.971435547
 30
0.0
 40
11.0
  1
338
 50
90.000002504
 72
        5
 11
1166.031615046
 21
-2055.317590714
 31
0.0
100
AcDbText
  0
ENDBLK
  5
2A3
100
AcDbEntity
  8
0
100
AcDbBlockEnd
  0
BLOCK
  5
2A7
100
AcDbEntity
  8
0
100
AcDbBlockBegin
  2
*D18
 70
        0
 10
0.0
 20
0.0
 30
0.0
  3
*D18
  1

  0
LINE
  5
2A8
100
AcDbEntity
  8
AUGSL0
  6
SOLID
 62
        3
100
AcDbLine
 10
1101.765136719
 20
-2237.39453125
 30
0.0
 11
1145.881958008
 21
-2237.39453125
 31
0.0
  0
LINE
  5
2A9
100
AcDbEntity
  8
AUGSL0
  6
SOLID
 62
        3
100
AcDbLine
 10
1117.765136719
 20
-2214.89453125
 30
0.0
 11
1145.881958008
 21
-2214.89453125
 31
0.0
  0
LINE
  5
2AA
100
AcDbEntity
  8
AUGSL0
  6
SOLID
 62
        3
100
AcDbLine
 10
1144.881958008
 20
-2237.39453125
 30
0.0
 11
1144.881958008
 21
-2253.89453125
 31
0.0
  0
LINE
  5
2AB
100
AcDbEntity
  8
AUGSL0
  6
SOLID
 62
        3
100
AcDbLine
 10
1144.881958008
 20
-2253.89453125
 30
0.0
 11
1144.881958008
 21
-2198.39453125
 31
0.0
  0
LINE
  5
2AC
100
AcDbEntity
  8
AUGSL0
  6
SOLID
 62
        3
100
AcDbLine
 10
1146.715087891
 20
-2248.39453125
 30
0.0
 11
1144.881958008
 21
-2237.39453125
 31
0.0
  0
LINE
  5
2AD
100
AcDbEntity
  8
AUGSL0
  6
SOLID
 62
        3
100
AcDbLine
 10
1144.881958008
 20
-2237.39453125
 30
0.0
 11
1143.048828125
 21
-2248.39453125
 31
0.0
  0
LINE
  5
2AE
100
AcDbEntity
  8
AUGSL0
  6
SOLID
 62
        3
100
AcDbLine
 10
1143.048828125
 20
-2248.39453125
 30
0.0
 11
1146.715087891
 21
-2248.39453125
 31
0.0
  0
LINE
  5
2AF
100
AcDbEntity
  8
AUGSL0
  6
SOLID
 62
        3
100
AcDbLine
 10
1144.881958008
 20
-2214.89453125
 30
0.0
 11
1144.881958008
 21
-2198.39453125
 31
0.0
  0
LINE
  5
2B0
100
AcDbEntity
  8
AUGSL0
  6
SOLID
 62
        3
100
AcDbLine
 10
1144.881958008
 20
-2198.39453125
 30
0.0
 11
1144.881958008
 21
-2253.89453125
 31
0.0
  0
LINE
  5
2B1
100
AcDbEntity
  8
AUGSL0
  6
SOLID
 62
        3
100
AcDbLine
 10
1143.048828125
 20
-2203.89453125
 30
0.0
 11
1144.881958008
 21
-2214.89453125
 31
0.0
  0
LINE
  5
2B2
100
AcDbEntity
  8
AUGSL0
  6
SOLID
 62
        3
100
AcDbLine
 10
1144.881958008
 20
-2214.89453125
 30
0.0
 11
1146.715087891
 21
-2203.89453125
 31
0.0
  0
LINE
  5
2B3
100
AcDbEntity
  8
AUGSL0
  6
SOLID
 62
        3
100
AcDbLine
 10
1146.715087891
 20
-2203.89453125
 30
0.0
 11
1143.048828125
 21
-2203.89453125
 31
0.0
  0
TEXT
  5
2B4
100
AcDbEntity
  8
AUGSL0
  6
SOLID
 62
        3
100
AcDbText
 10
1139.381958008
 20
-2234.209960938
 30
0.0
 40
11.0
  1
23
 50
90.000002504
 72
        5
 11
1139.381957303
 21
-2218.078884125
 31
0.0
100
AcDbText
  0
ENDBLK
  5
2B5
100
AcDbEntity
  8
0
100
AcDbBlockEnd
  0
BLOCK
  5
2B9
100
AcDbEntity
  8
0
100
AcDbBlockBegin
  2
*D19
 70
        0
 10
0.0
 20
0.0
 30
0.0
  3
*D19
  1

  0
LINE
  5
2BA
100
AcDbEntity
  8
AUGSL0
  6
SOLID
 62
        3
100
AcDbLine
 10
1117.765136719
 20
-2214.89453125
 30
0.0
 11
1145.881958008
 21
-2214.89453125
 31
0.0
  0
LINE
  5
2BB
100
AcDbEntity
  8
AUGSL0
  6
SOLID
 62
        3
100
AcDbLine
 10
1117.765136719
 20
-1899.89440918
 30
0.0
 11
1145.881958008
 21
-1899.89440918
 31
0.0
  0
LINE
  5
2BC
100
AcDbEntity
  8
AUGSL0
  6
SOLID
 62
        3
100
AcDbLine
 10
1144.881958008
 20
-2214.89453125
 30
0.0
 11
1144.881958008
 21
-1899.89440918
 31
0.0
  0
LINE
  5
2BD
100
AcDbEntity
  8
AUGSL0
  6
SOLID
 62
        3
100
AcDbLine
 10
1143.048828125
 20
-2203.89453125
 30
0.0
 11
1144.881958008
 21
-2214.89453125
 31
0.0
  0
LINE
  5
2BE
100
AcDbEntity
  8
AUGSL0
  6
SOLID
 62
        3
100
AcDbLine
 10
1144.881958008
 20
-2214.89453125
 30
0.0
 11
1146.715087891
 21
-2203.89453125
 31
0.0
  0
LINE
  5
2BF
100
AcDbEntity
  8
AUGSL0
  6
SOLID
 62
        3
100
AcDbLine
 10
1146.715087891
 20
-2203.89453125
 30
0.0
 11
1143.048828125
 21
-2203.89453125
 31
0.0
  0
LINE
  5
2C0
100
AcDbEntity
  8
AUGSL0
  6
SOLID
 62
        3
100
AcDbLine
 10
1144.881958008
 20
-1899.89440918
 30
0.0
 11
1144.881958008
 21
-2214.89453125
 31
0.0
  0
LINE
  5
2C1
100
AcDbEntity
  8
AUGSL0
  6
SOLID
 62
        3
100
AcDbLine
 10
1146.715087891
 20
-1910.89440918
 30
0.0
 11
1144.881958008
 21
-1899.89440918
 31
0.0
  0
LINE
  5
2C2
100
AcDbEntity
  8
AUGSL0
  6
SOLID
 62
        3
100
AcDbLine
 10
1144.881958008
 20
-1899.89440918
 30
0.0
 11
1143.048828125
 21
-1910.89440918
 31
0.0
  0
LINE
  5
2C3
100
AcDbEntity
  8
AUGSL0
  6
SOLID
 62
        3
100
AcDbLine
 10
1143.048828125
 20
-1910.89440918
 30
0.0
 11
1146.715087891
 21
-1910.89440918
 31
0.0
  0
TEXT
  5
2C4
100
AcDbEntity
  8
AUGSL0
  6
SOLID
 62
        3
100
AcDbText
 10
1139.381958008
 20
-2070.317871094
 30
0.0
 40
11.0
  1
315
 50
90.000002504
 72
        5
 11
1139.381956878
 21
-2044.471256256
 31
0.0
100
AcDbText
  0
ENDBLK
  5
2C5
100
AcDbEntity
  8
0
100
AcDbBlockEnd
  0
BLOCK
  5
2C9
100
AcDbEntity
  8
0
100
AcDbBlockBegin
  2
*L20
 70
        0
 10
0.0
 20
0.0
 30
0.0
  3
*L20
  1

  0
LINE
  5
2CA
100
AcDbEntity
  8
AUGSL0
  6
SOLID
 62
        3
100
AcDbLine
 10
875.628601074
 20
-2197.151367188
 30
0.0
 11
955.535949707
 21
-2132.657470703
 31
0.0
  0
LINE
  5
2CB
100
AcDbEntity
  8
AUGSL0
  6
SOLID
 62
        3
100
AcDbLine
 10
883.03704834
 20
-2188.816162109
 30
0.0
 11
875.628601074
 21
-2197.151367188
 31
0.0
  0
LINE
  5
2CC
100
AcDbEntity
  8
AUGSL0
  6
SOLID
 62
        3
100
AcDbLine
 10
875.628601074
 20
-2197.151367188
 30
0.0
 11
885.33972168
 21
-2191.669189453
 31
0.0
  0
LINE
  5
2CD
100
AcDbEntity
  8
AUGSL0
  6
SOLID
 62
        3
100
AcDbLine
 10
885.33972168
 20
-2191.669189453
 30
0.0
 11
883.03704834
 21
-2188.816162109
 31
0.0
  0
TEXT
  5
2CE
100
AcDbEntity
  8
AUGSL0
  6
SOLID
 62
        3
100
AcDbText
 10
885.114746094
 20
-2127.011474609
 30
0.0
 40
11.0
  1
4xM16x40
 50
0.000005009
 72
        5
 11
949.889945984
 21
-2127.011468947
 31
0.0
100
AcDbText
  0
LINE
  5
2CF
100
AcDbEntity
  8
AUGSL0
  6
SOLID
 62
        3
100
AcDbLine
 10
879.46875
 20
-2132.657470703
 30
0.0
 11
955.535949707
 21
-2132.657470703
 31
0.0
  0
ENDBLK
  5
2D0
100
AcDbEntity
  8
0
100
AcDbBlockEnd
  0
BLOCK
  5
2D3
100
AcDbEntity
  8
0
100
AcDbBlockBegin
  2
*D21
 70
        0
 10
0.0
 20
0.0
 30
0.0
  3
*D21
  1

  0
LINE
  5
2D4
100
AcDbEntity
  8
AUGSL0
  6
SOLID
 62
        3
100
AcDbLine
 10
837.792175293
 20
-2237.39453125
 30
0.0
 11
799.227722168
 21
-2237.39453125
 31
0.0
  0
LINE
  5
2D5
100
AcDbEntity
  8
AUGSL0
  6
SOLID
 62
        3
100
AcDbLine
 10
846.789428711
 20
-2197.39453125
 30
0.0
 11
799.227722168
 21
-2197.39453125
 31
0.0
  0
LINE
  5
2D6
100
AcDbEntity
  8
AUGSL0
  6
SOLID
 62
        3
100
AcDbLine
 10
802.200683594
 20
-2237.39453125
 30
0.0
 11
802.200683594
 21
-2253.89453125
 31
0.0
  0
LINE
  5
2D7
100
AcDbEntity
  8
AUGSL0
  6
SOLID
 62
        3
100
AcDbLine
 10
802.200683594
 20
-2253.89453125
 30
0.0
 11
802.200683594
 21
-2180.89453125
 31
0.0
  0
LINE
  5
2D8
100
AcDbEntity
  8
AUGSL0
  6
SOLID
 62
        3
100
AcDbLine
 10
804.033813477
 20
-2248.39453125
 30
0.0
 11
802.200683594
 21
-2237.39453125
 31
0.0
  0
LINE
  5
2D9
100
AcDbEntity
  8
AUGSL0
  6
SOLID
 62
        3
100
AcDbLine
 10
802.200683594
 20
-2237.39453125
 30
0.0
 11
800.367553711
 21
-2248.39453125
 31
0.0
  0
LINE
  5
2DA
100
AcDbEntity
  8
AUGSL0
  6
SOLID
 62
        3
100
AcDbLine
 10
800.367553711
 20
-2248.39453125
 30
0.0
 11
804.033813477
 21
-2248.39453125
 31
0.0
  0
LINE
  5
2DB
100
AcDbEntity
  8
AUGSL0
  6
SOLID
 62
        3
100
AcDbLine
 10
802.200683594
 20
-2197.39453125
 30
0.0
 11
802.200683594
 21
-2180.89453125
 31
0.0
  0
LINE
  5
2DC
100
AcDbEntity
  8
AUGSL0
  6
SOLID
 62
        3
100
AcDbLine
 10
802.200683594
 20
-2180.89453125
 30
0.0
 11
802.200683594
 21
-2253.89453125
 31
0.0
  0
LINE
  5
2DD
100
AcDbEntity
  8
AUGSL0
  6
SOLID
 62
        3
100
AcDbLine
 10
800.367553711
 20
-2186.39453125
 30
0.0
 11
802.200683594
 21
-2197.39453125
 31
0.0
  0
LINE
  5
2DE
100
AcDbEntity
  8
AUGSL0
  6
SOLID
 62
        3
100
AcDbLine
 10
802.200683594
 20
-2197.39453125
 30
0.0
 11
804.033813477
 21
-2186.39453125
 31
0.0
  0
LINE
  5
2DF
100
AcDbEntity
  8
AUGSL0
  6
SOLID
 62
        3
100
AcDbLine
 10
804.033813477
 20
-2186.39453125
 30
0.0
 11
800.367553711
 21
-2186.39453125
 31
0.0
  0
TEXT
  5
2E0
100
AcDbEntity
  8
AUGSL0
  6
SOLID
 62
        3
100
AcDbText
 10
796.700683594
 20
-2225.459960938
 30
0.0
 40
11.0
  1
40
 50
90.000002504
 72
        5
 11
796.700682889
 21
-2209.328884125
 31
0.0
100
AcDbText
  0
ENDBLK
  5
2E1
100
AcDbEntity
  8
0
100
AcDbBlockEnd
  0
ENDSEC
  0
SECTION
  2
ENTITIES
  0
ARC
  5
56
100
AcDbEntity
  8
AUGSL0
  6
SOLID
 62
        3
100
AcDbCircle
 10
554.33779323
 20
-2053.019262426
 30
0.0
 40
3.0
100
AcDbArc
 50
165.086280637
 51
237.163881096
  0
ARC
  5
57
100
AcDbEntity
  8
AUGSL0
  6
SOLID
 62
        3
100
AcDbCircle
 10
583.324892144
 20
-2045.937900321
 30
0.0
 40
3.0
100
AcDbArc
 50
322.639928744
 51
42.369942135
  0
ARC
  5
58
100
AcDbEntity
  8
AUGSL0
  6
SOLID
 62
        3
100
AcDbCircle
 10
553.336721746
 20
-2061.894482136
 30
0.0
 40
5.0
100
AcDbArc
 50
14.477606223
 51
57.163881096
  0
LINE
  5
5A
100
AcDbEntity
  8
AUGSL0
  6
CENTER
 62
        7
100
AcDbLine
 10
619.265139418
 20
-2057.394453531
 30
0.0
 11
619.265139418
 21
-2063.144453531
 31
0.0
  0
LINE
  5
5B
100
AcDbEntity
  8
AUGSL0
  6
CENTER
 62
        7
100
AcDbLine
 10
619.265139418
 20
-2057.394453531
 30
0.0
 11
619.265139418
 21
-2051.644453531
 31
0.0
  0
LINE
  5
5C
100
AcDbEntity
  8
AUGSL0
  6
CENTER
 62
        7
100
AcDbLine
 10
619.265139418
 20
-2057.394453531
 30
0.0
 11
613.515139418
 21
-2057.394453531
 31
0.0
  0
LINE
  5
5D
100
AcDbEntity
  8
AUGSL0
  6
CENTER
 62
        7
100
AcDbLine
 10
619.265139418
 20
-2057.394453531
 30
0.0
 11
625.015139418
 21
-2057.394453531
 31
0.0
  0
ARC
  5
5E
100
AcDbEntity
  8
AUGSL0
  6
SOLID
 62
        3
100
AcDbCircle
 10
588.164281363
 20
-2052.78252773
 30
0.0
 40
5.0
100
AcDbArc
 50
142.639928744
 51
194.845775288
  0
LINE
  5
5F
100
AcDbEntity
  8
AUGSL0
  6
SOLID
 62
        3
100
AcDbLine
 10
552.711079258
 20
-2055.539937267
 30
0.0
 11
556.047911699
 21
-2057.693357401
 31
0.0
  0
LINE
  5
60
100
AcDbEntity
  8
AUGSL0
  6
SOLID
 62
        3
100
AcDbLine
 10
585.709405246
 20
-2047.758366544
 30
0.0
 11
584.19009286
 21
-2049.748417359
 31
0.0
  0
ARC
  5
61
100
AcDbEntity
  8
AUGSL0
  6
SOLID
 62
        3
100
AcDbCircle
 10
570.765139418
 20
-2057.394453531
 30
0.0
 40
20.0
100
AcDbArc
 50
42.369942135
 51
165.086280637
  0
CIRCLE
  5
62
100
AcDbEntity
  8
AUGSL0
  6
SOLID
 62
        1
100
AcDbCircle
 10
619.265136719
 20
-2057.39440918
 30
0.0
 40
5.0
  0
LINE
  5
63
100
AcDbEntity
  8
AUGSL0
  6
SOLID
 62
        1
100
AcDbLine
 10
621.765136719
 20
-2058.837784886
 30
0.0
 11
621.765136719
 21
-2055.951033473
 31
0.0
  0
LINE
  5
64
100
AcDbEntity
  8
AUGSL0
  6
SOLID
 62
        1
100
AcDbLine
 10
619.265136719
 20
-2060.281160593
 30
0.0
 11
621.765136766
 21
-2058.837784867
 31
0.0
  0
LINE
  5
65
100
AcDbEntity
  8
AUGSL0
  6
SOLID
 62
        1
100
AcDbLine
 10
616.765136719
 20
-2058.837784886
 30
0.0
 11
619.265136766
 21
-2060.281160612
 31
0.0
  0
LINE
  5
66
100
AcDbEntity
  8
AUGSL0
  6
SOLID
 62
        1
100
AcDbLine
 10
616.765136719
 20
-2055.951033473
 30
0.0
 11
616.765136719
 21
-2058.837784886
 31
0.0
  0
LINE
  5
67
100
AcDbEntity
  8
AUGSL0
  6
SOLID
 62
        1
100
AcDbLine
 10
619.265136719
 20
-2054.507657766
 30
0.0
 11
616.765136672
 21
-2055.951033492
 31
0.0
  0
LINE
  5
68
100
AcDbEntity
  8
AUGSL0
  6
SOLID
 62
        1
100
AcDbLine
 10
621.765136719
 20
-2055.951033473
 30
0.0
 11
619.265136672
 21
-2054.507657747
 31
0.0
  0
LINE
  5
69
100
AcDbEntity
  8
AUGSL0
  6
SOLID
 62
        7
100
AcDbLine
 10
643.765139418
 20
-1877.394509064
 30
0.0
 11
643.765139418
 21
-1875.894509064
 31
0.0
  0
LINE
  5
6A
100
AcDbEntity
  8
AUGSL0
  6
SOLID
 62
        7
100
AcDbLine
 10
497.765139418
 20
-1877.394509064
 30
0.0
 11
497.765139418
 21
-1875.894509064
 31
0.0
  0
LINE
  5
6B
100
AcDbEntity
  8
AUGSL0
  6
SOLID
 62
        7
100
AcDbLine
 10
634.765139418
 20
-1875.894509064
 30
0.0
 11
645.765139418
 21
-1875.894509064
 31
0.0
  0
LINE
  5
6C
100
AcDbEntity
  8
AUGSL0
  6
SOLID
 62
        7
100
AcDbLine
 10
645.765139418
 20
-1877.394509064
 30
0.0
 11
645.765139418
 21
-1875.894509064
 31
0.0
  0
LINE
  5
6D
100
AcDbEntity
  8
AUGSL0
  6
CENTER
 62
        2
100
AcDbLine
 10
570.765139418
 20
-1877.394509064
 30
0.0
 11
570.765139418
 21
-1795.894509064
 31
0.0
  0
LINE
  5
6E
100
AcDbEntity
  8
AUGSL0
  6
SOLID
 62
        7
100
AcDbLine
 10
634.765139418
 20
-1875.894509064
 30
0.0
 11
634.765139418
 21
-1795.894509064
 31
0.0
  0
LINE
  5
6F
100
AcDbEntity
  8
AUGSL0
  6
SOLID
 62
        7
100
AcDbLine
 10
506.765139418
 20
-1875.894509064
 30
0.0
 11
506.765139418
 21
-1795.894509064
 31
0.0
  0
LINE
  5
70
100
AcDbEntity
  8
AUGSL0
  6
SOLID
 62
        7
100
AcDbLine
 10
506.765139418
 20
-1795.894509064
 30
0.0
 11
570.765139418
 21
-1795.894509064
 31
0.0
  0
LINE
  5
71
100
AcDbEntity
  8
AUGSL0
  6
SOLID
 62
        7
100
AcDbLine
 10
634.765139418
 20
-1795.894509064
 30
0.0
 11
570.765139418
 21
-1795.894509064
 31
0.0
  0
LINE
  5
72
100
AcDbEntity
  8
AUGSL0
  6
SOLID
 62
        7
100
AcDbLine
 10
495.765139418
 20
-1877.394509064
 30
0.0
 11
495.765139418
 21
-1875.894509064
 31
0.0
  0
LINE
  5
73
100
AcDbEntity
  8
AUGSL0
  6
SOLID
 62
        7
100
AcDbLine
 10
506.765139418
 20
-1875.894509064
 30
0.0
 11
495.765139418
 21
-1875.894509064
 31
0.0
  0
ARC
  5
74
100
AcDbEntity
  8
AUGSL0
  6
SOLID
 62
        3
100
AcDbCircle
 10
570.765139418
 20
-2057.394453531
 30
0.0
 40
13.0
100
AcDbArc
 50
194.477606223
 51
14.845775288
  0
LINE
  5
75
100
AcDbEntity
  8
AUGSL0
  6
CENTER
 62
        7
100
AcDbLine
 10
522.265139418
 20
-2057.394453531
 30
0.0
 11
522.265139418
 21
-2063.144453531
 31
0.0
  0
LINE
  5
76
100
AcDbEntity
  8
AUGSL0
  6
CENTER
 62
        7
100
AcDbLine
 10
522.265139418
 20
-2057.394453531
 30
0.0
 11
522.265139418
 21
-2051.644453531
 31
0.0
  0
LINE
  5
77
100
AcDbEntity
  8
AUGSL0
  6
CENTER
 62
        7
100
AcDbLine
 10
522.265139418
 20
-2057.394453531
 30
0.0
 11
516.515139418
 21
-2057.394453531
 31
0.0
  0
LINE
  5
78
100
AcDbEntity
  8
AUGSL0
  6
CENTER
 62
        7
100
AcDbLine
 10
522.265139418
 20
-2057.394453531
 30
0.0
 11
528.015139418
 21
-2057.394453531
 31
0.0
  0
CIRCLE
  5
79
100
AcDbEntity
  8
AUGSL0
  6
SOLID
 62
        1
100
AcDbCircle
 10
522.265136719
 20
-2057.39440918
 30
0.0
 40
5.0
  0
LINE
  5
7A
100
AcDbEntity
  8
AUGSL0
  6
SOLID
 62
        1
100
AcDbLine
 10
524.765136719
 20
-2058.837784886
 30
0.0
 11
524.765136719
 21
-2055.951033473
 31
0.0
  0
LINE
  5
7B
100
AcDbEntity
  8
AUGSL0
  6
SOLID
 62
        1
100
AcDbLine
 10
522.265136719
 20
-2060.281160593
 30
0.0
 11
524.765136766
 21
-2058.837784867
 31
0.0
  0
LINE
  5
7C
100
AcDbEntity
  8
AUGSL0
  6
SOLID
 62
        1
100
AcDbLine
 10
519.765136719
 20
-2058.837784886
 30
0.0
 11
522.265136766
 21
-2060.281160612
 31
0.0
  0
LINE
  5
7D
100
AcDbEntity
  8
AUGSL0
  6
SOLID
 62
        1
100
AcDbLine
 10
519.765136719
 20
-2055.951033473
 30
0.0
 11
519.765136719
 21
-2058.837784886
 31
0.0
  0
LINE
  5
7E
100
AcDbEntity
  8
AUGSL0
  6
SOLID
 62
        1
100
AcDbLine
 10
522.265136719
 20
-2054.507657766
 30
0.0
 11
519.765136672
 21
-2055.951033492
 31
0.0
  0
LINE
  5
7F
100
AcDbEntity
  8
AUGSL0
  6
SOLID
 62
        1
100
AcDbLine
 10
524.765136719
 20
-2055.951033473
 30
0.0
 11
522.265136672
 21
-2054.507657747
 31
0.0
  0
CIRCLE
  5
80
100
AcDbEntity
  8
AUGSL0
  6
SOLID
 62
        3
100
AcDbCircle
 10
570.765139418
 20
-2057.394453531
 30
0.0
 40
10.0
  0
ARC
  5
81
100
AcDbEntity
  8
AUGSL0
  6
SOLID
 62
        1
100
AcDbCircle
 10
570.765136719
 20
-1897.39453125
 30
0.0
 40
6.5
100
AcDbArc
 50
337.380877209
 51
202.619122791
  0
LINE
  5
82
100
AcDbEntity
  8
AUGSL0
  6
SOLID
 62
        7
100
AcDbLine
 10
588.541507284
 20
-1885.467666974
 30
0.0
 11
591.85126913
 21
-1875.394509064
 31
0.0
  0
LINE
  5
83
100
AcDbEntity
  8
AUGSL0
  6
CENTER
 62
        2
100
AcDbLine
 10
587.012805102
 20
-1897.394509064
 30
0.0
 11
555.808383748
 21
-1897.394509064
 31
0.0
  0
LINE
  5
84
100
AcDbEntity
  8
AUGSL0
  6
SOLID
 62
        7
100
AcDbLine
 10
600.765139418
 20
-1875.394509064
 30
0.0
 11
540.765139418
 21
-1875.394509064
 31
0.0
  0
LINE
  5
85
100
AcDbEntity
  8
AUGSL0
  6
SOLID
 62
        7
100
AcDbLine
 10
600.765139418
 20
-1870.394509064
 30
0.0
 11
540.765139418
 21
-1870.394509064
 31
0.0
  0
LINE
  5
86
100
AcDbEntity
  8
AUGSL0
  6
SOLID
 62
        7
100
AcDbLine
 10
555.994315859
 20
-1899.894453531
 30
0.0
 11
552.988771552
 21
-1885.467666974
 31
0.0
  0
LINE
  5
87
100
AcDbEntity
  8
AUGSL0
  6
SOLID
 62
        7
100
AcDbLine
 10
585.535962977
 20
-1899.894453531
 30
0.0
 11
588.541507284
 21
-1885.467666974
 31
0.0
  0
LINE
  5
88
100
AcDbEntity
  8
AUGSL0
  6
SOLID
 62
        7
100
AcDbLine
 10
552.988771552
 20
-1885.467666974
 30
0.0
 11
549.679009706
 21
-1875.394509064
 31
0.0
  0
LINE
  5
89
100
AcDbEntity
  8
AUGSL0
  6
SOLID
 62
        3
100
AcDbLine
 10
588.302889239
 20
-1885.394509064
 30
0.0
 11
553.353415038
 21
-1885.394509064
 31
0.0
  0
CIRCLE
  5
8A
100
AcDbEntity
  8
AUGSL0
  6
SOLID
 62
        7
100
AcDbCircle
 10
570.765139418
 20
-2057.394453531
 30
0.0
 40
32.5
  0
CIRCLE
  5
8B
100
AcDbEntity
  8
AUGSL0
  6
SOLID
 62
        3
100
AcDbCircle
 10
570.765139418
 20
-2057.394453531
 30
0.0
 40
28.0
  0
LINE
  5
8C
100
AcDbEntity
  8
AUGSL0
  6
SOLID
 62
        7
100
AcDbLine
 10
540.765139418
 20
-1870.394509064
 30
0.0
 11
540.765139418
 21
-1875.394509064
 31
0.0
  0
LINE
  5
8D
100
AcDbEntity
  8
AUGSL0
  6
SOLID
 62
        7
100
AcDbLine
 10
600.765139418
 20
-1870.394509064
 30
0.0
 11
600.765139418
 21
-1875.394509064
 31
0.0
  0
LINE
  5
8E
100
AcDbEntity
  8
AUGSL0
  6
SOLID
 62
        1
100
AcDbLine
 10
577.265136719
 20
-1893.641754389
 30
0.0
 11
570.765136555
 21
-1889.888977477
 31
0.0
  0
LINE
  5
8F
100
AcDbEntity
  8
AUGSL0
  6
SOLID
 62
        1
100
AcDbLine
 10
570.765136719
 20
-1889.888977528
 30
0.0
 11
564.265136555
 21
-1893.641754439
 31
0.0
  0
LINE
  5
90
100
AcDbEntity
  8
AUGSL0
  6
SOLID
 62
        7
100
AcDbLine
 10
424.765139418
 20
-2214.894453531
 30
0.0
 11
704.765139418
 21
-2214.894453531
 31
0.0
  0
CIRCLE
  5
91
100
AcDbEntity
  8
AUGSL0
  6
SOLID
 62
        3
100
AcDbCircle
 10
570.765139418
 20
-2057.394453531
 30
0.0
 40
28.0
  0
LINE
  5
92
100
AcDbEntity
  8
AUGSL0
  6
SOLID
 62
        7
100
AcDbLine
 10
612.355402702
 20
-2094.894453531
 30
0.0
 11
704.765139418
 21
-2094.894453531
 31
0.0
  0
LINE
  5
93
100
AcDbEntity
  8
AUGSL0
  6
SOLID
 62
        1
100
AcDbLine
 10
564.265136719
 20
-1893.641754389
 30
0.0
 11
564.265136719
 21
-1899.894453531
 31
0.0
  0
LINE
  5
94
100
AcDbEntity
  8
AUGSL0
  6
SOLID
 62
        7
100
AcDbLine
 10
704.765139418
 20
-2214.894453531
 30
0.0
 11
704.765139418
 21
-2094.894453531
 31
0.0
  0
LINE
  5
95
100
AcDbEntity
  8
AUGSL0
  6
SOLID
 62
        7
100
AcDbLine
 10
436.765139418
 20
-2214.894453531
 30
0.0
 11
436.765139418
 21
-2094.894453531
 31
0.0
  0
LINE
  5
96
100
AcDbEntity
  8
AUGSL0
  6
SOLID
 62
        7
100
AcDbLine
 10
424.765139418
 20
-2214.894453531
 30
0.0
 11
424.765139418
 21
-2094.894453531
 31
0.0
  0
ARC
  5
97
100
AcDbEntity
  8
AUGSL0
  6
SOLID
 62
        7
100
AcDbCircle
 10
570.765139418
 20
-2057.394453531
 30
0.0
 40
127.0
100
AcDbArc
 50
180.0
 51
197.174063718
  0
ARC
  5
98
100
AcDbEntity
  8
AUGSL0
  6
SOLID
 62
        7
100
AcDbCircle
 10
689.765139418
 20
-2133.894453531
 30
0.0
 40
5.0
100
AcDbArc
 50
130.0
 51
70.0
  0
ARC
  5
99
100
AcDbEntity
  8
AUGSL0
  6
SOLID
 62
        7
100
AcDbCircle
 10
570.765139418
 20
-2057.394453531
 30
0.0
 40
100.0
100
AcDbArc
 50
180.0
 51
202.024312837
  0
LINE
  5
9A
100
AcDbEntity
  8
AUGSL0
  6
CENTER
 62
        2
100
AcDbLine
 10
619.265139418
 20
-2053.117783769
 30
0.0
 11
619.265139418
 21
-2062.248850707
 31
0.0
  0
CIRCLE
  5
9B
100
AcDbEntity
  8
AUGSL0
  6
SOLID
 62
        7
100
AcDbCircle
 10
689.765139418
 20
-2133.894453531
 30
0.0
 40
4.199999809
  0
LINE
  5
9C
100
AcDbEntity
  8
AUGSL0
  6
CENTER
 62
        2
100
AcDbLine
 10
675.743718572
 20
-2133.894453531
 30
0.0
 11
705.087117704
 21
-2133.894453531
 31
0.0
  0
LINE
  5
9D
100
AcDbEntity
  8
AUGSL0
  6
CENTER
 62
        2
100
AcDbLine
 10
689.765139418
 20
-2120.57968937
 30
0.0
 11
689.765139418
 21
-2142.880672711
 31
0.0
  0
ARC
  5
9E
100
AcDbEntity
  8
AUGSL0
  6
SOLID
 62
        7
100
AcDbCircle
 10
689.765139418
 20
-2175.894453531
 30
0.0
 40
5.0
100
AcDbArc
 50
130.0
 51
70.0
  0
CIRCLE
  5
9F
100
AcDbEntity
  8
AUGSL0
  6
SOLID
 62
        7
100
AcDbCircle
 10
689.765139418
 20
-2175.894453531
 30
0.0
 40
4.199999809
  0
LINE
  5
A0
100
AcDbEntity
  8
AUGSL0
  6
CENTER
 62
        2
100
AcDbLine
 10
675.743718572
 20
-2175.894453531
 30
0.0
 11
705.087117704
 21
-2175.894453531
 31
0.0
  0
LINE
  5
A1
100
AcDbEntity
  8
AUGSL0
  6
CENTER
 62
        2
100
AcDbLine
 10
689.765139418
 20
-2162.57968937
 30
0.0
 11
689.765139418
 21
-2188.451585704
 31
0.0
  0
LINE
  5
A2
100
AcDbEntity
  8
AUGSL0
  6
CENTER
 62
        2
100
AcDbLine
 10
522.265139418
 20
-2055.001972185
 30
0.0
 11
522.265139418
 21
-2063.55328884
 31
0.0
  0
ARC
  5
A3
100
AcDbEntity
  8
AUGSL0
  6
SOLID
 62
        7
100
AcDbCircle
 10
570.765139418
 20
-2057.394453531
 30
0.0
 40
100.0
100
AcDbArc
 50
337.975687163
 51
0.0
  0
ARC
  5
A4
100
AcDbEntity
  8
AUGSL0
  6
SOLID
 62
        7
100
AcDbCircle
 10
570.765139418
 20
-2057.394453531
 30
0.0
 40
127.0
100
AcDbArc
 50
342.825936282
 51
0.0
  0
LINE
  5
A5
100
AcDbEntity
  8
AUGSL0
  6
SOLID
 62
        7
100
AcDbLine
 10
430.765139418
 20
-2019.894453531
 30
0.0
 11
430.765139418
 21
-2057.394453531
 31
0.0
  0
ARC
  5
A6
100
AcDbEntity
  8
AUGSL0
  6
SOLID
 62
        7
100
AcDbCircle
 10
451.765139418
 20
-1938.894453531
 30
0.0
 40
5.0
100
AcDbArc
 50
310.0
 51
250.0
  0
CIRCLE
  5
A7
100
AcDbEntity
  8
AUGSL0
  6
SOLID
 62
        7
100
AcDbCircle
 10
451.765139418
 20
-1938.894453531
 30
0.0
 40
4.199999809
  0
LINE
  5
A8
100
AcDbEntity
  8
AUGSL0
  6
CENTER
 62
        2
100
AcDbLine
 10
465.786560264
 20
-1938.894453531
 30
0.0
 11
436.443161132
 21
-1938.894453531
 31
0.0
  0
LINE
  5
A9
100
AcDbEntity
  8
AUGSL0
  6
CENTER
 62
        2
100
AcDbLine
 10
451.765139418
 20
-1952.209217692
 30
0.0
 11
451.765139418
 21
-1926.337321359
 31
0.0
  0
LINE
  5
AA
100
AcDbEntity
  8
AUGSL0
  6
SOLID
 62
        7
100
AcDbLine
 10
424.765139418
 20
-1899.894453531
 30
0.0
 11
704.765139418
 21
-1899.894453531
 31
0.0
  0
LINE
  5
AB
100
AcDbEntity
  8
AUGSL0
  6
SOLID
 62
        7
100
AcDbLine
 10
436.765139418
 20
-1899.894453531
 30
0.0
 11
436.765139418
 21
-2019.894453531
 31
0.0
  0
LINE
  5
AC
100
AcDbEntity
  8
AUGSL0
  6
SOLID
 62
        7
100
AcDbLine
 10
424.765139418
 20
-1899.894453531
 30
0.0
 11
424.765139418
 21
-2019.894453531
 31
0.0
  0
ARC
  5
AD
100
AcDbEntity
  8
AUGSL0
  6
SOLID
 62
        7
100
AcDbCircle
 10
451.765139418
 20
-1980.894453531
 30
0.0
 40
5.0
100
AcDbArc
 50
310.0
 51
250.0
  0
CIRCLE
  5
AE
100
AcDbEntity
  8
AUGSL0
  6
SOLID
 62
        7
100
AcDbCircle
 10
451.765139418
 20
-1980.894453531
 30
0.0
 40
4.199999809
  0
LINE
  5
AF
100
AcDbEntity
  8
AUGSL0
  6
CENTER
 62
        2
100
AcDbLine
 10
465.786560264
 20
-1980.894453531
 30
0.0
 11
436.443161132
 21
-1980.894453531
 31
0.0
  0
LINE
  5
B0
100
AcDbEntity
  8
AUGSL0
  6
CENTER
 62
        7
100
AcDbLine
 10
451.765139418
 20
-1994.209217692
 30
0.0
 11
451.765139418
 21
-1971.908234351
 31
0.0
  0
LINE
  5
B1
100
AcDbEntity
  8
AUGSL0
  6
SOLID
 62
        7
100
AcDbLine
 10
612.355402702
 20
-2019.894453531
 30
0.0
 11
704.765139418
 21
-2019.894453531
 31
0.0
  0
ARC
  5
B2
100
AcDbEntity
  8
AUGSL0
  6
SOLID
 62
        7
100
AcDbCircle
 10
570.765139418
 20
-2057.394453531
 30
0.0
 40
127.0
100
AcDbArc
 50
162.825936282
 51
180.0
  0
LINE
  5
B3
100
AcDbEntity
  8
AUGSL0
  6
SOLID
 62
        7
100
AcDbLine
 10
424.765139418
 20
-2019.894453531
 30
0.0
 11
529.174876134
 21
-2019.894453531
 31
0.0
  0
ARC
  5
B4
100
AcDbEntity
  8
AUGSL0
  6
SOLID
 62
        7
100
AcDbCircle
 10
570.765139418
 20
-2057.394453531
 30
0.0
 40
100.0
100
AcDbArc
 50
157.975687163
 51
180.0
  0
LINE
  5
B5
100
AcDbEntity
  8
AUGSL0
  6
SOLID
 62
        7
100
AcDbLine
 10
424.765139418
 20
-2094.894453531
 30
0.0
 11
529.174876134
 21
-2094.894453531
 31
0.0
  0
ARC
  5
B6
100
AcDbEntity
  8
AUGSL0
  6
SOLID
 62
        7
100
AcDbCircle
 10
570.765139418
 20
-2057.394453531
 30
0.0
 40
100.0
100
AcDbArc
 50
360.0
 51
22.024312837
  0
ARC
  5
B7
100
AcDbEntity
  8
AUGSL0
  6
SOLID
 62
        7
100
AcDbCircle
 10
570.765139418
 20
-2057.394453531
 30
0.0
 40
127.0
100
AcDbArc
 50
360.0
 51
17.174063718
  0
ARC
  5
B8
100
AcDbEntity
  8
AUGSL0
  6
SOLID
 62
        7
100
AcDbCircle
 10
689.765139418
 20
-1980.894453531
 30
0.0
 40
5.0
100
AcDbArc
 50
290.0
 51
230.0
  0
CIRCLE
  5
B9
100
AcDbEntity
  8
AUGSL0
  6
SOLID
 62
        7
100
AcDbCircle
 10
689.765139418
 20
-1980.894453531
 30
0.0
 40
4.199999809
  0
LINE
  5
BA
100
AcDbEntity
  8
AUGSL0
  6
CENTER
 62
        2
100
AcDbLine
 10
675.743718572
 20
-1980.894453531
 30
0.0
 11
705.087117704
 21
-1980.894453531
 31
0.0
  0
ARC
  5
BB
100
AcDbEntity
  8
AUGSL0
  6
SOLID
 62
        7
100
AcDbCircle
 10
689.765139418
 20
-1938.894453531
 30
0.0
 40
5.0
100
AcDbArc
 50
290.0
 51
230.0
  0
CIRCLE
  5
BC
100
AcDbEntity
  8
AUGSL0
  6
SOLID
 62
        7
100
AcDbCircle
 10
689.765139418
 20
-1938.894453531
 30
0.0
 40
4.199999809
  0
LINE
  5
BD
100
AcDbEntity
  8
AUGSL0
  6
CENTER
 62
        2
100
AcDbLine
 10
675.743718572
 20
-1938.894453531
 30
0.0
 11
705.087117704
 21
-1938.894453531
 31
0.0
  0
LINE
  5
BE
100
AcDbEntity
  8
AUGSL0
  6
CENTER
 62
        2
100
AcDbLine
 10
689.765139418
 20
-1994.209217692
 30
0.0
 11
689.765139418
 21
-1971.908234351
 31
0.0
  0
LINE
  5
BF
100
AcDbEntity
  8
AUGSL0
  6
CENTER
 62
        2
100
AcDbLine
 10
689.765139418
 20
-1952.209217692
 30
0.0
 11
689.765139418
 21
-1926.337321359
 31
0.0
  0
LINE
  5
C0
100
AcDbEntity
  8
AUGSL0
  6
SOLID
 62
        7
100
AcDbLine
 10
704.765139418
 20
-1899.894453531
 30
0.0
 11
704.765139418
 21
-2019.894453531
 31
0.0
  0
DIMENSION
  5
D0
100
AcDbEntity
  8
AUGSL0
  6
SOLID
 62
        3
100
AcDbDimension
  2
*D0
 10
570.765136719
 20
-2315.434082031
 30
0.0
 11
627.84185791
 21
-2309.934082031
 31
0.0
 71
        5
 72
        1
 41
1.0
 42
0.0
  3
2
100
AcDbAlignedDimension
 13
710.765136719
 23
-2192.39453125
 33
0.0
 14
570.765136719
 24
-2320.233642578
 34
0.0
100
AcDbRotatedDimension
  0
ARC
  5
D1
100
AcDbEntity
  8
AUGSL0
  6
SOLID
 62
        7
100
AcDbCircle
 10
705.765139418
 20
-2192.394453531
 30
0.0
 40
5.0
100
AcDbArc
 50
258.463040967
 51
360.0
  0
LINE
  5
D2
100
AcDbEntity
  8
AUGSL0
  6
SOLID
 62
        7
100
AcDbLine
 10
635.765139418
 20
-1879.394509064
 30
0.0
 11
635.765139418
 21
-1899.894453531
 31
0.0
  0
LINE
  5
D3
100
AcDbEntity
  8
AUGSL0
  6
SOLID
 62
        1
100
AcDbLine
 10
577.265136719
 20
-1899.894453531
 30
0.0
 11
577.265136719
 21
-1893.641754389
 31
0.0
  0
LINE
  5
D4
100
AcDbEntity
  8
AUGSL0
  6
SOLID
 62
        7
100
AcDbLine
 10
710.765139418
 20
-2192.394453531
 30
0.0
 11
710.765139418
 21
-1917.394453531
 31
0.0
  0
CIRCLE
  5
D5
100
AcDbEntity
  8
AUGSL0
  6
SOLID
 62
        7
100
AcDbCircle
 10
570.765139418
 20
-2057.394453531
 30
0.0
 40
56.0
  0
LINE
  5
D6
100
AcDbEntity
  8
AUGSL0
  6
CENTER
 62
        2
100
AcDbLine
 10
570.765139418
 20
-2299.859291581
 30
0.0
 11
570.765139418
 21
-2320.233665177
 31
0.0
  0
ARC
  5
D7
100
AcDbEntity
  8
AUGSL0
  6
SOLID
 62
        3
100
AcDbCircle
 10
987.192485606
 20
-2053.019262426
 30
0.0
 40
3.0
100
AcDbArc
 50
302.836118904
 51
14.913719363
  0
DIMENSION
  5
E7
100
AcDbEntity
  8
AUGSL0
  6
SOLID
 62
        3
100
AcDbDimension
  2
*D1
 10
500.764770508
 20
-2249.434082031
 30
0.0
 11
557.841491699
 21
-2243.934082031
 31
0.0
 71
        5
 72
        1
 41
1.0
 42
0.0
  3
3
100
AcDbAlignedDimension
 13
640.764770508
 23
-2237.39453125
 33
0.0
 14
500.764770508
 24
-2237.39453125
 34
0.0
100
AcDbRotatedDimension
  0
DIMENSION
  5
F7
100
AcDbEntity
  8
AUGSL0
  6
SOLID
 62
        3
100
AcDbDimension
  2
*D2
 10
470.764770508
 20
-2271.434082031
 30
0.0
 11
557.841491699
 21
-2265.934082031
 31
0.0
 71
        5
 72
        1
 41
1.0
 42
0.0
  3
4
100
AcDbAlignedDimension
 13
670.764770508
 23
-2249.445800781
 33
0.0
 14
470.764770508
 24
-2249.445800781
 34
0.0
100
AcDbRotatedDimension
  0
DIMENSION
  5
107
100
AcDbEntity
  8
AUGSL0
  6
SOLID
 62
        3
100
AcDbDimension
  2
*D3
 10
440.764770508
 20
-2293.434082031
 30
0.0
 11
557.841491699
 21
-2287.934082031
 31
0.0
 71
        5
 72
        1
 41
1.0
 42
0.0
  3
5
100
AcDbAlignedDimension
 13
700.764770508
 23
-2237.39453125
 33
0.0
 14
440.764770508
 24
-2237.39453125
 34
0.0
100
AcDbRotatedDimension
  0
LINE
  5
109
100
AcDbEntity
  8
AUGSL0
  6
L_DASH
 62
        3
100
AcDbLine
 10
478.765139418
 20
-2197.394453531
 30
0.0
 11
478.765139418
 21
-2237.394453531
 31
0.0
  0
LINE
  5
10A
100
AcDbEntity
  8
AUGSL0
  6
L_DASH
 62
        3
100
AcDbLine
 10
477.265139418
 20
-2197.394453531
 30
0.0
 11
477.265139418
 21
-2237.394453531
 31
0.0
  0
LINE
  5
10B
100
AcDbEntity
  8
AUGSL0
  6
L_DASH
 62
        3
100
AcDbLine
 10
462.765139418
 20
-2197.394453531
 30
0.0
 11
462.765139418
 21
-2237.394453531
 31
0.0
  0
LINE
  5
10C
100
AcDbEntity
  8
AUGSL0
  6
SOLID
 62
        7
100
AcDbLine
 10
510.765139418
 20
-2217.394453531
 30
0.0
 11
570.765139418
 21
-2217.394453531
 31
0.0
  0
LINE
  5
10D
100
AcDbEntity
  8
AUGSL0
  6
CENTER
 62
        2
100
AcDbLine
 10
470.765139418
 20
-2193.806486277
 30
0.0
 11
470.765139418
 21
-2249.445760096
 31
0.0
  0
LINE
  5
10E
100
AcDbEntity
  8
AUGSL0
  6
SOLID
 62
        7
100
AcDbLine
 10
440.765139418
 20
-2237.394453531
 30
0.0
 11
500.765139418
 21
-2237.394453531
 31
0.0
  0
LINE
  5
10F
100
AcDbEntity
  8
AUGSL0
  6
SOLID
 62
        7
100
AcDbLine
 10
500.765139418
 20
-2227.394453531
 30
0.0
 11
500.765139418
 21
-2237.394453531
 31
0.0
  0
ARC
  5
110
100
AcDbEntity
  8
AUGSL0
  6
SOLID
 62
        7
100
AcDbCircle
 10
510.765139418
 20
-2227.394453531
 30
0.0
 40
10.0
100
AcDbArc
 50
90.0
 51
180.0
  0
LINE
  5
111
100
AcDbEntity
  8
AUGSL0
  6
SOLID
 62
        7
100
AcDbLine
 10
440.765139418
 20
-2214.894453531
 30
0.0
 11
440.765139418
 21
-2237.394453531
 31
0.0
  0
LINE
  5
112
100
AcDbEntity
  8
AUGSL0
  6
L_DASH
 62
        3
100
AcDbLine
 10
464.265139418
 20
-2197.394453531
 30
0.0
 11
464.265139418
 21
-2237.394453531
 31
0.0
  0
LINE
  5
113
100
AcDbEntity
  8
AUGSL0
  6
L_DASH
 62
        3
100
AcDbLine
 10
483.825829189
 20
-2197.394453531
 30
0.0
 11
449.762419948
 21
-2197.394453531
 31
0.0
  0
LINE
  5
114
100
AcDbEntity
  8
AUGSL0
  6
CENTER
 62
        7
100
AcDbLine
 10
470.765139418
 20
-2193.806486277
 30
0.0
 11
470.765139418
 21
-2249.445760096
 31
0.0
  0
LINE
  5
115
100
AcDbEntity
  8
AUGSL0
  6
SOLID
 62
        7
100
AcDbLine
 10
645.765139418
 20
-1877.394509064
 30
0.0
 11
591.194124295
 21
-1877.394509064
 31
0.0
  0
ARC
  5
116
100
AcDbEntity
  8
AUGSL0
  6
SOLID
 62
        7
100
AcDbCircle
 10
633.765139418
 20
-1879.394509064
 30
0.0
 40
2.0
100
AcDbArc
 50
0.0
 51
90.0
  0
LINE
  5
117
100
AcDbEntity
  8
AUGSL0
  6
CENTER
 62
        2
100
AcDbLine
 10
640.691245454
 20
-2057.394453531
 30
0.0
 11
491.732655186
 21
-2057.394453531
 31
0.0
  0
LINE
  5
118
100
AcDbEntity
  8
AUGSL0
  6
SOLID
 62
        7
100
AcDbLine
 10
495.765139418
 20
-1877.394509064
 30
0.0
 11
550.336154541
 21
-1877.394509064
 31
0.0
  0
ARC
  5
119
100
AcDbEntity
  8
AUGSL0
  6
SOLID
 62
        7
100
AcDbCircle
 10
507.765139418
 20
-1879.394509064
 30
0.0
 40
2.0
100
AcDbArc
 50
90.0
 51
180.0
  0
LINE
  5
11A
100
AcDbEntity
  8
AUGSL0
  6
SOLID
 62
        7
100
AcDbLine
 10
640.765139418
 20
-2227.394453531
 30
0.0
 11
640.765139418
 21
-2237.394453531
 31
0.0
  0
LINE
  5
11B
100
AcDbEntity
  8
AUGSL0
  6
SOLID
 62
        7
100
AcDbLine
 10
700.765139418
 20
-2237.394453531
 30
0.0
 11
640.765139418
 21
-2237.394453531
 31
0.0
  0
LINE
  5
11C
100
AcDbEntity
  8
AUGSL0
  6
SOLID
 62
        7
100
AcDbLine
 10
505.765139418
 20
-1879.394509064
 30
0.0
 11
505.765139418
 21
-1899.894453531
 31
0.0
  0
LINE
  5
11D
100
AcDbEntity
  8
AUGSL0
  6
SOLID
 62
        7
100
AcDbLine
 10
700.765139418
 20
-2214.894453531
 30
0.0
 11
700.765139418
 21
-2237.394453531
 31
0.0
  0
LINE
  5
11E
100
AcDbEntity
  8
AUGSL0
  6
L_DASH
 62
        3
100
AcDbLine
 10
662.765139418
 20
-2197.394453531
 30
0.0
 11
662.765139418
 21
-2237.394453531
 31
0.0
  0
LINE
  5
11F
100
AcDbEntity
  8
AUGSL0
  6
L_DASH
 62
        3
100
AcDbLine
 10
664.265139418
 20
-2197.394453531
 30
0.0
 11
664.265139418
 21
-2237.394453531
 31
0.0
  0
LINE
  5
120
100
AcDbEntity
  8
AUGSL0
  6
L_DASH
 62
        3
100
AcDbLine
 10
678.765139418
 20
-2197.394453531
 30
0.0
 11
678.765139418
 21
-2237.394453531
 31
0.0
  0
LINE
  5
121
100
AcDbEntity
  8
AUGSL0
  6
SOLID
 62
        7
100
AcDbLine
 10
430.765139418
 20
-2094.894453531
 30
0.0
 11
430.765139418
 21
-2057.394453531
 31
0.0
  0
LINE
  5
122
100
AcDbEntity
  8
AUGSL0
  6
SOLID
 62
        7
100
AcDbLine
 10
710.765139418
 20
-1917.394453531
 30
0.0
 11
704.765139418
 21
-1917.394453531
 31
0.0
  0
LINE
  5
123
100
AcDbEntity
  8
AUGSL0
  6
SOLID
 62
        7
100
AcDbLine
 10
630.765139418
 20
-2217.394453531
 30
0.0
 11
570.765139418
 21
-2217.394453531
 31
0.0
  0
LINE
  5
124
100
AcDbEntity
  8
AUGSL0
  6
CENTER
 62
        7
100
AcDbLine
 10
670.765139418
 20
-2193.806486277
 30
0.0
 11
670.765139418
 21
-2249.445760096
 31
0.0
  0
ARC
  5
125
100
AcDbEntity
  8
AUGSL0
  6
SOLID
 62
        7
100
AcDbCircle
 10
630.765139418
 20
-2227.394453531
 30
0.0
 40
10.0
100
AcDbArc
 50
0.0
 51
90.0
  0
LINE
  5
126
100
AcDbEntity
  8
AUGSL0
  6
L_DASH
 62
        3
100
AcDbLine
 10
677.265139418
 20
-2197.394453531
 30
0.0
 11
677.265139418
 21
-2237.394453531
 31
0.0
  0
LINE
  5
127
100
AcDbEntity
  8
AUGSL0
  6
L_DASH
 62
        3
100
AcDbLine
 10
657.704449647
 20
-2197.394453531
 30
0.0
 11
691.767858888
 21
-2197.394453531
 31
0.0
  0
DIMENSION
  5
137
100
AcDbEntity
  8
AUGSL0
  6
SOLID
 62
        3
100
AcDbDimension
  2
*D4
 10
424.765136719
 20
-2315.434082031
 30
0.0
 11
484.383209229
 21
-2309.934082031
 31
0.0
 71
        5
 72
        1
 41
1.0
 42
0.0
  3
6
100
AcDbAlignedDimension
 13
570.765136719
 23
-2320.233642578
 33
0.0
 14
424.765136719
 24
-2214.89453125
 34
0.0
100
AcDbRotatedDimension
  0
ARC
  5
138
100
AcDbEntity
  8
AUGSL0
  6
SOLID
 62
        7
100
AcDbCircle
 10
451.765139418
 20
-2133.894453531
 30
0.0
 40
5.0
100
AcDbArc
 50
110.0
 51
50.0
  0
CIRCLE
  5
139
100
AcDbEntity
  8
AUGSL0
  6
SOLID
 62
        7
100
AcDbCircle
 10
451.765139418
 20
-2133.894453531
 30
0.0
 40
4.199999809
  0
LINE
  5
13A
100
AcDbEntity
  8
AUGSL0
  6
CENTER
 62
        2
100
AcDbLine
 10
465.786560264
 20
-2133.894453531
 30
0.0
 11
436.443161132
 21
-2133.894453531
 31
0.0
  0
LINE
  5
13B
100
AcDbEntity
  8
AUGSL0
  6
CENTER
 62
        2
100
AcDbLine
 10
451.765139418
 20
-2120.57968937
 30
0.0
 11
451.765139418
 21
-2142.880672711
 31
0.0
  0
ARC
  5
13C
100
AcDbEntity
  8
AUGSL0
  6
SOLID
 62
        7
100
AcDbCircle
 10
451.765139418
 20
-2175.894453531
 30
0.0
 40
5.0
100
AcDbArc
 50
110.0
 51
50.0
  0
CIRCLE
  5
13D
100
AcDbEntity
  8
AUGSL0
  6
SOLID
 62
        7
100
AcDbCircle
 10
451.765139418
 20
-2175.894453531
 30
0.0
 40
4.199999809
  0
LINE
  5
13E
100
AcDbEntity
  8
AUGSL0
  6
CENTER
 62
        2
100
AcDbLine
 10
465.786560264
 20
-2175.894453531
 30
0.0
 11
436.443161132
 21
-2175.894453531
 31
0.0
  0
LINE
  5
13F
100
AcDbEntity
  8
AUGSL0
  6
CENTER
 62
        7
100
AcDbLine
 10
451.765139418
 20
-2162.57968937
 30
0.0
 11
451.765139418
 21
-2188.451585704
 31
0.0
  0
INSERT
  5
149
100
AcDbEntity
  8
AUGSL0
100
AcDbBlockReference
  2
*L5
 10
0.0
 20
0.0
 30
0.0
  0
DIMENSION
  5
159
100
AcDbEntity
  8
AUGSL0
  6
SOLID
 62
        3
100
AcDbDimension
  2
*D6
 10
424.765136719
 20
-2338.978027344
 30
0.0
 11
554.383239746
 21
-2333.478027344
 31
0.0
 71
        5
 72
        1
 41
1.0
 42
0.0
  3
7
100
AcDbAlignedDimension
 13
710.765136719
 23
-2192.39453125
 33
0.0
 14
424.765136719
 24
-2214.89453125
 34
0.0
100
AcDbRotatedDimension
  0
LINE
  5
15A
100
AcDbEntity
  8
AUGSL0
  6
CENTER
 62
        2
100
AcDbLine
 10
570.765139418
 20
-1863.942747345
 30
0.0
 11
570.765139418
 21
-2224.066621802
 31
0.0
  0
DIMENSION
  5
16C
100
AcDbEntity
  8
AUGSL0
  6
SOLID
 62
        3
100
AcDbDimension
  2
*D7
 10
739.329589844
 20
-2237.39453125
 30
0.0
 11
733.829589844
 21
-2225.459960938
 31
0.0
 71
        5
 72
        1
 41
1.0
 42
0.0
  3
8
100
AcDbAlignedDimension
 13
691.767883301
 23
-2197.39453125
 33
0.0
 14
700.765136719
 24
-2237.39453125
 34
0.0
 50
90.0
100
AcDbRotatedDimension
  0
ARC
  5
16D
100
AcDbEntity
  8
AUGSL0
  6
SOLID
 62
        3
100
AcDbCircle
 10
958.205386692
 20
-2045.937900321
 30
0.0
 40
3.0
100
AcDbArc
 50
137.630057865
 51
217.360071256
  0
ARC
  5
16E
100
AcDbEntity
  8
AUGSL0
  6
SOLID
 62
        3
100
AcDbCircle
 10
988.19355709
 20
-2061.894482136
 30
0.0
 40
5.0
100
AcDbArc
 50
122.836118904
 51
165.522393777
  0
LINE
  5
16F
100
AcDbEntity
  8
AUGSL0
  6
CENTER
 62
        7
100
AcDbLine
 10
922.265139418
 20
-2057.394453531
 30
0.0
 11
922.265139418
 21
-2063.144453531
 31
0.0
  0
LINE
  5
170
100
AcDbEntity
  8
AUGSL0
  6
CENTER
 62
        7
100
AcDbLine
 10
922.265139418
 20
-2057.394453531
 30
0.0
 11
922.265139418
 21
-2051.644453531
 31
0.0
  0
LINE
  5
171
100
AcDbEntity
  8
AUGSL0
  6
CENTER
 62
        7
100
AcDbLine
 10
922.265139418
 20
-2057.394453531
 30
0.0
 11
928.015139418
 21
-2057.394453531
 31
0.0
  0
LINE
  5
172
100
AcDbEntity
  8
AUGSL0
  6
CENTER
 62
        7
100
AcDbLine
 10
922.265139418
 20
-2057.394453531
 30
0.0
 11
916.515139418
 21
-2057.394453531
 31
0.0
  0
ARC
  5
173
100
AcDbEntity
  8
AUGSL0
  6
SOLID
 62
        3
100
AcDbCircle
 10
953.365997473
 20
-2052.78252773
 30
0.0
 40
5.0
100
AcDbArc
 50
345.154224712
 51
37.360071256
  0
LINE
  5
174
100
AcDbEntity
  8
AUGSL0
  6
SOLID
 62
        3
100
AcDbLine
 10
988.819199578
 20
-2055.539937267
 30
0.0
 11
985.482367137
 21
-2057.693357401
 31
0.0
  0
LINE
  5
175
100
AcDbEntity
  8
AUGSL0
  6
SOLID
 62
        3
100
AcDbLine
 10
955.82087359
 20
-2047.758366544
 30
0.0
 11
957.340185976
 21
-2049.748417359
 31
0.0
  0
ARC
  5
176
100
AcDbEntity
  8
AUGSL0
  6
SOLID
 62
        3
100
AcDbCircle
 10
970.765139418
 20
-2057.394453531
 30
0.0
 40
20.0
100
AcDbArc
 50
14.913719363
 51
137.630057865
  0
CIRCLE
  5
177
100
AcDbEntity
  8
AUGSL0
  6
SOLID
 62
        1
100
AcDbCircle
 10
922.265142117
 20
-2057.39440918
 30
0.0
 40
5.0
  0
LINE
  5
178
100
AcDbEntity
  8
AUGSL0
  6
SOLID
 62
        1
100
AcDbLine
 10
919.765142117
 20
-2058.837784886
 30
0.0
 11
919.765142117
 21
-2055.951033473
 31
0.0
  0
LINE
  5
179
100
AcDbEntity
  8
AUGSL0
  6
SOLID
 62
        1
100
AcDbLine
 10
922.265142117
 20
-2060.281160593
 30
0.0
 11
919.76514207
 21
-2058.837784867
 31
0.0
  0
LINE
  5
17A
100
AcDbEntity
  8
AUGSL0
  6
SOLID
 62
        1
100
AcDbLine
 10
924.765142117
 20
-2058.837784886
 30
0.0
 11
922.26514207
 21
-2060.281160612
 31
0.0
  0
LINE
  5
17B
100
AcDbEntity
  8
AUGSL0
  6
SOLID
 62
        1
100
AcDbLine
 10
924.765142117
 20
-2055.951033473
 30
0.0
 11
924.765142117
 21
-2058.837784886
 31
0.0
  0
LINE
  5
17C
100
AcDbEntity
  8
AUGSL0
  6
SOLID
 62
        1
100
AcDbLine
 10
922.265142117
 20
-2054.507657766
 30
0.0
 11
924.765142164
 21
-2055.951033492
 31
0.0
  0
LINE
  5
17D
100
AcDbEntity
  8
AUGSL0
  6
SOLID
 62
        1
100
AcDbLine
 10
919.765142117
 20
-2055.951033473
 30
0.0
 11
922.265142164
 21
-2054.507657747
 31
0.0
  0
LINE
  5
17E
100
AcDbEntity
  8
AUGSL0
  6
SOLID
 62
        7
100
AcDbLine
 10
897.765139418
 20
-1877.394509064
 30
0.0
 11
897.765139418
 21
-1875.894509064
 31
0.0
  0
LINE
  5
17F
100
AcDbEntity
  8
AUGSL0
  6
SOLID
 62
        7
100
AcDbLine
 10
1043.765139418
 20
-1877.394509064
 30
0.0
 11
1043.765139418
 21
-1875.894509064
 31
0.0
  0
LINE
  5
180
100
AcDbEntity
  8
AUGSL0
  6
SOLID
 62
        7
100
AcDbLine
 10
906.765139418
 20
-1875.894509064
 30
0.0
 11
895.765139418
 21
-1875.894509064
 31
0.0
  0
LINE
  5
181
100
AcDbEntity
  8
AUGSL0
  6
SOLID
 62
        7
100
AcDbLine
 10
895.765139418
 20
-1877.394509064
 30
0.0
 11
895.765139418
 21
-1875.894509064
 31
0.0
  0
LINE
  5
182
100
AcDbEntity
  8
AUGSL0
  6
CENTER
 62
        2
100
AcDbLine
 10
970.765139418
 20
-1877.394509064
 30
0.0
 11
970.765139418
 21
-1795.894509064
 31
0.0
  0
LINE
  5
183
100
AcDbEntity
  8
AUGSL0
  6
SOLID
 62
        7
100
AcDbLine
 10
906.765139418
 20
-1875.894509064
 30
0.0
 11
906.765139418
 21
-1795.894509064
 31
0.0
  0
LINE
  5
184
100
AcDbEntity
  8
AUGSL0
  6
SOLID
 62
        7
100
AcDbLine
 10
1034.765139418
 20
-1875.894509064
 30
0.0
 11
1034.765139418
 21
-1795.894509064
 31
0.0
  0
LINE
  5
185
100
AcDbEntity
  8
AUGSL0
  6
SOLID
 62
        7
100
AcDbLine
 10
1034.765139418
 20
-1795.894509064
 30
0.0
 11
970.765139418
 21
-1795.894509064
 31
0.0
  0
LINE
  5
186
100
AcDbEntity
  8
AUGSL0
  6
SOLID
 62
        7
100
AcDbLine
 10
906.765139418
 20
-1795.894509064
 30
0.0
 11
970.765139418
 21
-1795.894509064
 31
0.0
  0
LINE
  5
187
100
AcDbEntity
  8
AUGSL0
  6
SOLID
 62
        7
100
AcDbLine
 10
1045.765139418
 20
-1877.394509064
 30
0.0
 11
1045.765139418
 21
-1875.894509064
 31
0.0
  0
LINE
  5
188
100
AcDbEntity
  8
AUGSL0
  6
SOLID
 62
        7
100
AcDbLine
 10
1034.765139418
 20
-1875.894509064
 30
0.0
 11
1045.765139418
 21
-1875.894509064
 31
0.0
  0
ARC
  5
189
100
AcDbEntity
  8
AUGSL0
  6
SOLID
 62
        3
100
AcDbCircle
 10
970.765139418
 20
-2057.394453531
 30
0.0
 40
13.0
100
AcDbArc
 50
165.154224712
 51
345.522393777
  0
DIMENSION
  5
199
100
AcDbEntity
  8
AUGSL0
  6
SOLID
 62
        3
100
AcDbDimension
  2
*D8
 10
369.998626709
 20
-2237.39453125
 30
0.0
 11
364.498626709
 21
-2081.971435547
 31
0.0
 71
        5
 72
        1
 41
1.0
 42
0.0
  3
9
100
AcDbAlignedDimension
 13
424.765136719
 23
-1899.89440918
 33
0.0
 14
440.765136719
 24
-2237.39453125
 34
0.0
 50
90.0
100
AcDbRotatedDimension
  0
DIMENSION
  5
1AB
100
AcDbEntity
  8
AUGSL0
  6
SOLID
 62
        3
100
AcDbDimension
  2
*D9
 10
396.64831543
 20
-2237.39453125
 30
0.0
 11
391.14831543
 21
-2234.209960938
 31
0.0
 71
        5
 72
        1
 41
1.0
 42
0.0
  3
10
100
AcDbAlignedDimension
 13
424.765136719
 23
-2214.89453125
 33
0.0
 14
440.765136719
 24
-2237.39453125
 34
0.0
 50
90.0
100
AcDbRotatedDimension
  0
DIMENSION
  5
1BB
100
AcDbEntity
  8
AUGSL0
  6
SOLID
 62
        3
100
AcDbDimension
  2
*D10
 10
396.64831543
 20
-2214.89453125
 30
0.0
 11
391.14831543
 21
-2070.317871094
 31
0.0
 71
        5
 72
        1
 41
1.0
 42
0.0
  3
11
100
AcDbAlignedDimension
 13
424.765136719
 23
-1899.89440918
 33
0.0
 14
424.765136719
 24
-2214.89453125
 34
0.0
 50
90.0
100
AcDbRotatedDimension
  0
LINE
  5
1BC
100
AcDbEntity
  8
AUGSL0
  6
CENTER
 62
        7
100
AcDbLine
 10
1019.265139418
 20
-2057.394453531
 30
0.0
 11
1019.265139418
 21
-2063.144453531
 31
0.0
  0
LINE
  5
1BD
100
AcDbEntity
  8
AUGSL0
  6
CENTER
 62
        7
100
AcDbLine
 10
1019.265139418
 20
-2057.394453531
 30
0.0
 11
1019.265139418
 21
-2051.644453531
 31
0.0
  0
LINE
  5
1BE
100
AcDbEntity
  8
AUGSL0
  6
CENTER
 62
        7
100
AcDbLine
 10
1019.265139418
 20
-2057.394453531
 30
0.0
 11
1025.015139418
 21
-2057.394453531
 31
0.0
  0
LINE
  5
1BF
100
AcDbEntity
  8
AUGSL0
  6
CENTER
 62
        7
100
AcDbLine
 10
1019.265139418
 20
-2057.394453531
 30
0.0
 11
1013.515139418
 21
-2057.394453531
 31
0.0
  0
CIRCLE
  5
1C0
100
AcDbEntity
  8
AUGSL0
  6
SOLID
 62
        1
100
AcDbCircle
 10
1019.265142117
 20
-2057.39440918
 30
0.0
 40
5.0
  0
LINE
  5
1C1
100
AcDbEntity
  8
AUGSL0
  6
SOLID
 62
        1
100
AcDbLine
 10
1016.765142117
 20
-2058.837784886
 30
0.0
 11
1016.765142117
 21
-2055.951033473
 31
0.0
  0
LINE
  5
1C2
100
AcDbEntity
  8
AUGSL0
  6
SOLID
 62
        1
100
AcDbLine
 10
1019.265142117
 20
-2060.281160593
 30
0.0
 11
1016.76514207
 21
-2058.837784867
 31
0.0
  0
LINE
  5
1C3
100
AcDbEntity
  8
AUGSL0
  6
SOLID
 62
        1
100
AcDbLine
 10
1021.765142117
 20
-2058.837784886
 30
0.0
 11
1019.26514207
 21
-2060.281160612
 31
0.0
  0
LINE
  5
1C4
100
AcDbEntity
  8
AUGSL0
  6
SOLID
 62
        1
100
AcDbLine
 10
1021.765142117
 20
-2055.951033473
 30
0.0
 11
1021.765142117
 21
-2058.837784886
 31
0.0
  0
LINE
  5
1C5
100
AcDbEntity
  8
AUGSL0
  6
SOLID
 62
        1
100
AcDbLine
 10
1019.265142117
 20
-2054.507657766
 30
0.0
 11
1021.765142164
 21
-2055.951033492
 31
0.0
  0
LINE
  5
1C6
100
AcDbEntity
  8
AUGSL0
  6
SOLID
 62
        1
100
AcDbLine
 10
1016.765142117
 20
-2055.951033473
 30
0.0
 11
1019.265142164
 21
-2054.507657747
 31
0.0
  0
CIRCLE
  5
1C7
100
AcDbEntity
  8
AUGSL0
  6
SOLID
 62
        3
100
AcDbCircle
 10
970.765139418
 20
-2057.394453531
 30
0.0
 40
10.0
  0
ARC
  5
1C8
100
AcDbEntity
  8
AUGSL0
  6
SOLID
 62
        1
100
AcDbCircle
 10
970.765142117
 20
-1897.39453125
 30
0.0
 40
6.5
100
AcDbArc
 50
337.380877209
 51
202.619122791
  0
LINE
  5
1C9
100
AcDbEntity
  8
AUGSL0
  6
SOLID
 62
        7
100
AcDbLine
 10
952.988771552
 20
-1885.467666974
 30
0.0
 11
949.679009706
 21
-1875.394509064
 31
0.0
  0
LINE
  5
1CA
100
AcDbEntity
  8
AUGSL0
  6
CENTER
 62
        2
100
AcDbLine
 10
954.517473734
 20
-1897.394509064
 30
0.0
 11
985.721895088
 21
-1897.394509064
 31
0.0
  0
LINE
  5
1CB
100
AcDbEntity
  8
AUGSL0
  6
SOLID
 62
        7
100
AcDbLine
 10
940.765139418
 20
-1875.394509064
 30
0.0
 11
1000.765139418
 21
-1875.394509064
 31
0.0
  0
LINE
  5
1CC
100
AcDbEntity
  8
AUGSL0
  6
SOLID
 62
        7
100
AcDbLine
 10
940.765139418
 20
-1870.394509064
 30
0.0
 11
1000.765139418
 21
-1870.394509064
 31
0.0
  0
LINE
  5
1CD
100
AcDbEntity
  8
AUGSL0
  6
SOLID
 62
        7
100
AcDbLine
 10
985.535962977
 20
-1899.894453531
 30
0.0
 11
988.541507284
 21
-1885.467666974
 31
0.0
  0
LINE
  5
1CE
100
AcDbEntity
  8
AUGSL0
  6
SOLID
 62
        7
100
AcDbLine
 10
955.994315859
 20
-1899.894453531
 30
0.0
 11
952.988771552
 21
-1885.467666974
 31
0.0
  0
LINE
  5
1CF
100
AcDbEntity
  8
AUGSL0
  6
SOLID
 62
        7
100
AcDbLine
 10
988.541507284
 20
-1885.467666974
 30
0.0
 11
991.85126913
 21
-1875.394509064
 31
0.0
  0
LINE
  5
1D0
100
AcDbEntity
  8
AUGSL0
  6
SOLID
 62
        3
100
AcDbLine
 10
953.227389597
 20
-1885.394509064
 30
0.0
 11
988.176863798
 21
-1885.394509064
 31
0.0
  0
CIRCLE
  5
1D1
100
AcDbEntity
  8
AUGSL0
  6
SOLID
 62
        7
100
AcDbCircle
 10
970.765139418
 20
-2057.394453531
 30
0.0
 40
32.5
  0
CIRCLE
  5
1D2
100
AcDbEntity
  8
AUGSL0
  6
SOLID
 62
        3
100
AcDbCircle
 10
970.765139418
 20
-2057.394453531
 30
0.0
 40
28.0
  0
LINE
  5
1D3
100
AcDbEntity
  8
AUGSL0
  6
SOLID
 62
        7
100
AcDbLine
 10
1000.765139418
 20
-1870.394509064
 30
0.0
 11
1000.765139418
 21
-1875.394509064
 31
0.0
  0
LINE
  5
1D4
100
AcDbEntity
  8
AUGSL0
  6
SOLID
 62
        7
100
AcDbLine
 10
940.765139418
 20
-1870.394509064
 30
0.0
 11
940.765139418
 21
-1875.394509064
 31
0.0
  0
LINE
  5
1D5
100
AcDbEntity
  8
AUGSL0
  6
SOLID
 62
        1
100
AcDbLine
 10
964.265142117
 20
-1893.641754389
 30
0.0
 11
970.765142281
 21
-1889.888977477
 31
0.0
  0
LINE
  5
1D6
100
AcDbEntity
  8
AUGSL0
  6
SOLID
 62
        1
100
AcDbLine
 10
970.765142117
 20
-1889.888977528
 30
0.0
 11
977.265142281
 21
-1893.641754439
 31
0.0
  0
LINE
  5
1D7
100
AcDbEntity
  8
AUGSL0
  6
SOLID
 62
        7
100
AcDbLine
 10
1116.765139418
 20
-2214.894453531
 30
0.0
 11
836.765139418
 21
-2214.894453531
 31
0.0
  0
CIRCLE
  5
1D8
100
AcDbEntity
  8
AUGSL0
  6
SOLID
 62
        3
100
AcDbCircle
 10
970.765139418
 20
-2057.394453531
 30
0.0
 40
28.0
  0
LINE
  5
1D9
100
AcDbEntity
  8
AUGSL0
  6
SOLID
 62
        7
100
AcDbLine
 10
929.174876134
 20
-2094.894453531
 30
0.0
 11
836.765139418
 21
-2094.894453531
 31
0.0
  0
LINE
  5
1DA
100
AcDbEntity
  8
AUGSL0
  6
SOLID
 62
        1
100
AcDbLine
 10
977.265142117
 20
-1893.641754389
 30
0.0
 11
977.265142117
 21
-1899.894453531
 31
0.0
  0
LINE
  5
1DB
100
AcDbEntity
  8
AUGSL0
  6
SOLID
 62
        7
100
AcDbLine
 10
836.765139418
 20
-2214.894453531
 30
0.0
 11
836.765139418
 21
-2094.894453531
 31
0.0
  0
LINE
  5
1DC
100
AcDbEntity
  8
AUGSL0
  6
SOLID
 62
        7
100
AcDbLine
 10
1104.765139418
 20
-2214.894453531
 30
0.0
 11
1104.765139418
 21
-2094.894453531
 31
0.0
  0
LINE
  5
1DD
100
AcDbEntity
  8
AUGSL0
  6
SOLID
 62
        7
100
AcDbLine
 10
1116.765139418
 20
-2214.894453531
 30
0.0
 11
1116.765139418
 21
-2094.894453531
 31
0.0
  0
ARC
  5
1DE
100
AcDbEntity
  8
AUGSL0
  6
SOLID
 62
        7
100
AcDbCircle
 10
970.765139418
 20
-2057.394453531
 30
0.0
 40
127.0
100
AcDbArc
 50
342.825936282
 51
0.0
  0
ARC
  5
1DF
100
AcDbEntity
  8
AUGSL0
  6
SOLID
 62
        7
100
AcDbCircle
 10
851.765139418
 20
-2133.894453531
 30
0.0
 40
5.0
100
AcDbArc
 50
110.0
 51
50.0
  0
ARC
  5
1E0
100
AcDbEntity
  8
AUGSL0
  6
SOLID
 62
        7
100
AcDbCircle
 10
970.765139418
 20
-2057.394453531
 30
0.0
 40
100.0
100
AcDbArc
 50
337.975687163
 51
0.0
  0
LINE
  5
1E1
100
AcDbEntity
  8
AUGSL0
  6
CENTER
 62
        2
100
AcDbLine
 10
922.265139418
 20
-2053.117783769
 30
0.0
 11
922.265139418
 21
-2062.248850707
 31
0.0
  0
CIRCLE
  5
1E2
100
AcDbEntity
  8
AUGSL0
  6
SOLID
 62
        7
100
AcDbCircle
 10
851.765139418
 20
-2133.894453531
 30
0.0
 40
4.199999809
  0
LINE
  5
1E3
100
AcDbEntity
  8
AUGSL0
  6
CENTER
 62
        2
100
AcDbLine
 10
865.786560264
 20
-2133.894453531
 30
0.0
 11
836.443161132
 21
-2133.894453531
 31
0.0
  0
LINE
  5
1E4
100
AcDbEntity
  8
AUGSL0
  6
CENTER
 62
        2
100
AcDbLine
 10
851.765139418
 20
-2120.57968937
 30
0.0
 11
851.765139418
 21
-2142.880672711
 31
0.0
  0
ARC
  5
1E5
100
AcDbEntity
  8
AUGSL0
  6
SOLID
 62
        7
100
AcDbCircle
 10
851.765139418
 20
-2175.894453531
 30
0.0
 40
5.0
100
AcDbArc
 50
110.0
 51
50.0
  0
CIRCLE
  5
1E6
100
AcDbEntity
  8
AUGSL0
  6
SOLID
 62
        7
100
AcDbCircle
 10
851.765139418
 20
-2175.894453531
 30
0.0
 40
4.199999809
  0
LINE
  5
1E7
100
AcDbEntity
  8
AUGSL0
  6
CENTER
 62
        2
100
AcDbLine
 10
865.786560264
 20
-2175.894453531
 30
0.0
 11
836.443161132
 21
-2175.894453531
 31
0.0
  0
LINE
  5
1E8
100
AcDbEntity
  8
AUGSL0
  6
CENTER
 62
        2
100
AcDbLine
 10
851.765139418
 20
-2162.57968937
 30
0.0
 11
851.765139418
 21
-2188.451585704
 31
0.0
  0
LINE
  5
1E9
100
AcDbEntity
  8
AUGSL0
  6
CENTER
 62
        2
100
AcDbLine
 10
1019.265139418
 20
-2055.001972185
 30
0.0
 11
1019.265139418
 21
-2063.55328884
 31
0.0
  0
ARC
  5
1EA
100
AcDbEntity
  8
AUGSL0
  6
SOLID
 62
        7
100
AcDbCircle
 10
970.765139418
 20
-2057.394453531
 30
0.0
 40
100.0
100
AcDbArc
 50
180.0
 51
202.024312837
  0
ARC
  5
1EB
100
AcDbEntity
  8
AUGSL0
  6
SOLID
 62
        7
100
AcDbCircle
 10
970.765139418
 20
-2057.394453531
 30
0.0
 40
127.0
100
AcDbArc
 50
180.0
 51
197.174063718
  0
LINE
  5
1EC
100
AcDbEntity
  8
AUGSL0
  6
SOLID
 62
        7
100
AcDbLine
 10
1110.765139418
 20
-2019.894453531
 30
0.0
 11
1110.765139418
 21
-2057.394453531
 31
0.0
  0
ARC
  5
1ED
100
AcDbEntity
  8
AUGSL0
  6
SOLID
 62
        7
100
AcDbCircle
 10
1089.765139418
 20
-1938.894453531
 30
0.0
 40
5.0
100
AcDbArc
 50
290.0
 51
230.0
  0
CIRCLE
  5
1EE
100
AcDbEntity
  8
AUGSL0
  6
SOLID
 62
        7
100
AcDbCircle
 10
1089.765139418
 20
-1938.894453531
 30
0.0
 40
4.199999809
  0
LINE
  5
1EF
100
AcDbEntity
  8
AUGSL0
  6
CENTER
 62
        2
100
AcDbLine
 10
1075.743718572
 20
-1938.894453531
 30
0.0
 11
1105.087117704
 21
-1938.894453531
 31
0.0
  0
LINE
  5
1F0
100
AcDbEntity
  8
AUGSL0
  6
CENTER
 62
        2
100
AcDbLine
 10
1089.765139418
 20
-1952.209217692
 30
0.0
 11
1089.765139418
 21
-1926.337321359
 31
0.0
  0
LINE
  5
1F1
100
AcDbEntity
  8
AUGSL0
  6
SOLID
 62
        7
100
AcDbLine
 10
1116.765139418
 20
-1899.894453531
 30
0.0
 11
836.765139418
 21
-1899.894453531
 31
0.0
  0
LINE
  5
1F2
100
AcDbEntity
  8
AUGSL0
  6
SOLID
 62
        7
100
AcDbLine
 10
1104.765139418
 20
-1899.894453531
 30
0.0
 11
1104.765139418
 21
-2019.894453531
 31
0.0
  0
LINE
  5
1F3
100
AcDbEntity
  8
AUGSL0
  6
SOLID
 62
        7
100
AcDbLine
 10
1116.765139418
 20
-1899.894453531
 30
0.0
 11
1116.765139418
 21
-2019.894453531
 31
0.0
  0
ARC
  5
1F4
100
AcDbEntity
  8
AUGSL0
  6
SOLID
 62
        7
100
AcDbCircle
 10
1089.765139418
 20
-1980.894453531
 30
0.0
 40
5.0
100
AcDbArc
 50
290.0
 51
230.0
  0
CIRCLE
  5
1F5
100
AcDbEntity
  8
AUGSL0
  6
SOLID
 62
        7
100
AcDbCircle
 10
1089.765139418
 20
-1980.894453531
 30
0.0
 40
4.199999809
  0
LINE
  5
1F6
100
AcDbEntity
  8
AUGSL0
  6
CENTER
 62
        2
100
AcDbLine
 10
1075.743718572
 20
-1980.894453531
 30
0.0
 11
1105.087117704
 21
-1980.894453531
 31
0.0
  0
LINE
  5
1F7
100
AcDbEntity
  8
AUGSL0
  6
CENTER
 62
        7
100
AcDbLine
 10
1089.765139418
 20
-1994.209217692
 30
0.0
 11
1089.765139418
 21
-1971.908234351
 31
0.0
  0
LINE
  5
1F8
100
AcDbEntity
  8
AUGSL0
  6
SOLID
 62
        7
100
AcDbLine
 10
929.174876134
 20
-2019.894453531
 30
0.0
 11
836.765139418
 21
-2019.894453531
 31
0.0
  0
ARC
  5
1F9
100
AcDbEntity
  8
AUGSL0
  6
SOLID
 62
        7
100
AcDbCircle
 10
970.765139418
 20
-2057.394453531
 30
0.0
 40
127.0
100
AcDbArc
 50
0.0
 51
17.174063718
  0
LINE
  5
1FA
100
AcDbEntity
  8
AUGSL0
  6
SOLID
 62
        7
100
AcDbLine
 10
1116.765139418
 20
-2019.894453531
 30
0.0
 11
1012.355402702
 21
-2019.894453531
 31
0.0
  0
ARC
  5
1FB
100
AcDbEntity
  8
AUGSL0
  6
SOLID
 62
        7
100
AcDbCircle
 10
970.765139418
 20
-2057.394453531
 30
0.0
 40
100.0
100
AcDbArc
 50
0.0
 51
22.024312837
  0
LINE
  5
1FC
100
AcDbEntity
  8
AUGSL0
  6
SOLID
 62
        7
100
AcDbLine
 10
1116.765139418
 20
-2094.894453531
 30
0.0
 11
1012.355402702
 21
-2094.894453531
 31
0.0
  0
ARC
  5
1FD
100
AcDbEntity
  8
AUGSL0
  6
SOLID
 62
        7
100
AcDbCircle
 10
970.765139418
 20
-2057.394453531
 30
0.0
 40
100.0
100
AcDbArc
 50
157.975687163
 51
180.0
  0
ARC
  5
1FE
100
AcDbEntity
  8
AUGSL0
  6
SOLID
 62
        7
100
AcDbCircle
 10
970.765139418
 20
-2057.394453531
 30
0.0
 40
127.0
100
AcDbArc
 50
162.825936282
 51
180.0
  0
ARC
  5
1FF
100
AcDbEntity
  8
AUGSL0
  6
SOLID
 62
        7
100
AcDbCircle
 10
851.765139418
 20
-1980.894453531
 30
0.0
 40
5.0
100
AcDbArc
 50
-50.0
 51
250.0
  0
CIRCLE
  5
200
100
AcDbEntity
  8
AUGSL0
  6
SOLID
 62
        7
100
AcDbCircle
 10
851.765139418
 20
-1980.894453531
 30
0.0
 40
4.199999809
  0
LINE
  5
201
100
AcDbEntity
  8
AUGSL0
  6
CENTER
 62
        2
100
AcDbLine
 10
865.786560264
 20
-1980.894453531
 30
0.0
 11
836.443161132
 21
-1980.894453531
 31
0.0
  0
ARC
  5
202
100
AcDbEntity
  8
AUGSL0
  6
SOLID
 62
        7
100
AcDbCircle
 10
851.765139418
 20
-1938.894453531
 30
0.0
 40
5.0
100
AcDbArc
 50
-50.0
 51
250.0
  0
CIRCLE
  5
203
100
AcDbEntity
  8
AUGSL0
  6
SOLID
 62
        7
100
AcDbCircle
 10
851.765139418
 20
-1938.894453531
 30
0.0
 40
4.199999809
  0
LINE
  5
204
100
AcDbEntity
  8
AUGSL0
  6
CENTER
 62
        2
100
AcDbLine
 10
865.786560264
 20
-1938.894453531
 30
0.0
 11
836.443161132
 21
-1938.894453531
 31
0.0
  0
LINE
  5
205
100
AcDbEntity
  8
AUGSL0
  6
CENTER
 62
        2
100
AcDbLine
 10
851.765139418
 20
-1994.209217692
 30
0.0
 11
851.765139418
 21
-1971.908234351
 31
0.0
  0
LINE
  5
206
100
AcDbEntity
  8
AUGSL0
  6
CENTER
 62
        2
100
AcDbLine
 10
851.765139418
 20
-1952.209217692
 30
0.0
 11
851.765139418
 21
-1926.337321359
 31
0.0
  0
LINE
  5
207
100
AcDbEntity
  8
AUGSL0
  6
SOLID
 62
        7
100
AcDbLine
 10
836.765139418
 20
-1899.894453531
 30
0.0
 11
836.765139418
 21
-2019.894453531
 31
0.0
  0
DIMENSION
  5
217
100
AcDbEntity
  8
AUGSL0
  6
SOLID
 62
        3
100
AcDbDimension
  2
*D11
 10
830.765136719
 20
-2315.434082031
 30
0.0
 11
887.84185791
 21
-2309.934082031
 31
0.0
 71
        5
 72
        1
 41
1.0
 42
0.0
  3
12
100
AcDbAlignedDimension
 13
970.765136719
 23
-2320.233642578
 33
0.0
 14
830.765136719
 24
-2192.39453125
 34
0.0
100
AcDbRotatedDimension
  0
ARC
  5
218
100
AcDbEntity
  8
AUGSL0
  6
SOLID
 62
        7
100
AcDbCircle
 10
835.765139418
 20
-2192.394453531
 30
0.0
 40
5.0
100
AcDbArc
 50
180.0
 51
281.536959033
  0
LINE
  5
219
100
AcDbEntity
  8
AUGSL0
  6
SOLID
 62
        7
100
AcDbLine
 10
905.765139418
 20
-1879.394509064
 30
0.0
 11
905.765139418
 21
-1899.894453531
 31
0.0
  0
LINE
  5
21A
100
AcDbEntity
  8
AUGSL0
  6
SOLID
 62
        1
100
AcDbLine
 10
964.265142117
 20
-1899.894453531
 30
0.0
 11
964.265142117
 21
-1893.641754389
 31
0.0
  0
LINE
  5
21B
100
AcDbEntity
  8
AUGSL0
  6
SOLID
 62
        7
100
AcDbLine
 10
830.765139418
 20
-2192.394453531
 30
0.0
 11
830.765139418
 21
-1917.394453531
 31
0.0
  0
CIRCLE
  5
21C
100
AcDbEntity
  8
AUGSL0
  6
SOLID
 62
        7
100
AcDbCircle
 10
970.765139418
 20
-2057.394453531
 30
0.0
 40
56.0
  0
LINE
  5
21D
100
AcDbEntity
  8
AUGSL0
  6
CENTER
 62
        2
100
AcDbLine
 10
970.765139418
 20
-2299.859291581
 30
0.0
 11
970.765139418
 21
-2320.233665177
 31
0.0
  0
DIMENSION
  5
22D
100
AcDbEntity
  8
AUGSL0
  6
SOLID
 62
        3
100
AcDbDimension
  2
*D12
 10
900.76550293
 20
-2249.434082031
 30
0.0
 11
957.842224121
 21
-2243.934082031
 31
0.0
 71
        5
 72
        1
 41
1.0
 42
0.0
  3
13
100
AcDbAlignedDimension
 13
1040.76550293
 23
-2237.39453125
 33
0.0
 14
900.76550293
 24
-2237.39453125
 34
0.0
100
AcDbRotatedDimension
  0
DIMENSION
  5
23D
100
AcDbEntity
  8
AUGSL0
  6
SOLID
 62
        3
100
AcDbDimension
  2
*D13
 10
870.76550293
 20
-2271.434082031
 30
0.0
 11
957.842224121
 21
-2265.934082031
 31
0.0
 71
        5
 72
        1
 41
1.0
 42
0.0
  3
14
100
AcDbAlignedDimension
 13
1070.76550293
 23
-2249.445800781
 33
0.0
 14
870.76550293
 24
-2249.445800781
 34
0.0
100
AcDbRotatedDimension
  0
DIMENSION
  5
24D
100
AcDbEntity
  8
AUGSL0
  6
SOLID
 62
        3
100
AcDbDimension
  2
*D14
 10
840.76550293
 20
-2293.434082031
 30
0.0
 11
957.842224121
 21
-2287.934082031
 31
0.0
 71
        5
 72
        1
 41
1.0
 42
0.0
  3
15
100
AcDbAlignedDimension
 13
1100.76550293
 23
-2237.39453125
 33
0.0
 14
840.76550293
 24
-2237.39453125
 34
0.0
100
AcDbRotatedDimension
  0
LINE
  5
24E
100
AcDbEntity
  8
AUGSL0
  6
L_DASH
 62
        3
100
AcDbLine
 10
1062.765139418
 20
-2197.394453531
 30
0.0
 11
1062.765139418
 21
-2237.394453531
 31
0.0
  0
LINE
  5
24F
100
AcDbEntity
  8
AUGSL0
  6
L_DASH
 62
        3
100
AcDbLine
 10
1064.265139418
 20
-2197.394453531
 30
0.0
 11
1064.265139418
 21
-2237.394453531
 31
0.0
  0
LINE
  5
250
100
AcDbEntity
  8
AUGSL0
  6
L_DASH
 62
        3
100
AcDbLine
 10
1078.765139418
 20
-2197.394453531
 30
0.0
 11
1078.765139418
 21
-2237.394453531
 31
0.0
  0
LINE
  5
251
100
AcDbEntity
  8
AUGSL0
  6
SOLID
 62
        7
100
AcDbLine
 10
1030.765139418
 20
-2217.394453531
 30
0.0
 11
970.765139418
 21
-2217.394453531
 31
0.0
  0
LINE
  5
252
100
AcDbEntity
  8
AUGSL0
  6
CENTER
 62
        2
100
AcDbLine
 10
1070.765139418
 20
-2193.806486277
 30
0.0
 11
1070.765139418
 21
-2249.445760096
 31
0.0
  0
LINE
  5
253
100
AcDbEntity
  8
AUGSL0
  6
SOLID
 62
        7
100
AcDbLine
 10
1100.765139418
 20
-2237.394453531
 30
0.0
 11
1040.765139418
 21
-2237.394453531
 31
0.0
  0
LINE
  5
254
100
AcDbEntity
  8
AUGSL0
  6
SOLID
 62
        7
100
AcDbLine
 10
1040.765139418
 20
-2227.394453531
 30
0.0
 11
1040.765139418
 21
-2237.394453531
 31
0.0
  0
ARC
  5
255
100
AcDbEntity
  8
AUGSL0
  6
SOLID
 62
        7
100
AcDbCircle
 10
1030.765139418
 20
-2227.394453531
 30
0.0
 40
10.0
100
AcDbArc
 50
0.0
 51
90.0
  0
LINE
  5
256
100
AcDbEntity
  8
AUGSL0
  6
SOLID
 62
        7
100
AcDbLine
 10
1100.765139418
 20
-2214.894453531
 30
0.0
 11
1100.765139418
 21
-2237.394453531
 31
0.0
  0
LINE
  5
257
100
AcDbEntity
  8
AUGSL0
  6
L_DASH
 62
        3
100
AcDbLine
 10
1077.265139418
 20
-2197.394453531
 30
0.0
 11
1077.265139418
 21
-2237.394453531
 31
0.0
  0
LINE
  5
258
100
AcDbEntity
  8
AUGSL0
  6
L_DASH
 62
        3
100
AcDbLine
 10
1057.704449647
 20
-2197.394453531
 30
0.0
 11
1091.767858888
 21
-2197.394453531
 31
0.0
  0
LINE
  5
259
100
AcDbEntity
  8
AUGSL0
  6
CENTER
 62
        7
100
AcDbLine
 10
1070.765139418
 20
-2193.806486277
 30
0.0
 11
1070.765139418
 21
-2249.445760096
 31
0.0
  0
LINE
  5
25A
100
AcDbEntity
  8
AUGSL0
  6
SOLID
 62
        7
100
AcDbLine
 10
895.765139418
 20
-1877.394509064
 30
0.0
 11
950.336154541
 21
-1877.394509064
 31
0.0
  0
ARC
  5
25B
100
AcDbEntity
  8
AUGSL0
  6
SOLID
 62
        7
100
AcDbCircle
 10
907.765139418
 20
-1879.394509064
 30
0.0
 40
2.0
100
AcDbArc
 50
90.0
 51
180.0
  0
LINE
  5
25C
100
AcDbEntity
  8
AUGSL0
  6
CENTER
 62
        2
100
AcDbLine
 10
900.839033382
 20
-2057.394453531
 30
0.0
 11
1049.79762365
 21
-2057.394453531
 31
0.0
  0
LINE
  5
25D
100
AcDbEntity
  8
AUGSL0
  6
SOLID
 62
        7
100
AcDbLine
 10
1045.765139418
 20
-1877.394509064
 30
0.0
 11
991.194124295
 21
-1877.394509064
 31
0.0
  0
ARC
  5
25E
100
AcDbEntity
  8
AUGSL0
  6
SOLID
 62
        7
100
AcDbCircle
 10
1033.765139418
 20
-1879.394509064
 30
0.0
 40
2.0
100
AcDbArc
 50
0.0
 51
90.0
  0
LINE
  5
25F
100
AcDbEntity
  8
AUGSL0
  6
SOLID
 62
        7
100
AcDbLine
 10
900.765139418
 20
-2227.394453531
 30
0.0
 11
900.765139418
 21
-2237.394453531
 31
0.0
  0
LINE
  5
260
100
AcDbEntity
  8
AUGSL0
  6
SOLID
 62
        7
100
AcDbLine
 10
840.765139418
 20
-2237.394453531
 30
0.0
 11
900.765139418
 21
-2237.394453531
 31
0.0
  0
LINE
  5
261
100
AcDbEntity
  8
AUGSL0
  6
SOLID
 62
        7
100
AcDbLine
 10
1035.765139418
 20
-1879.394509064
 30
0.0
 11
1035.765139418
 21
-1899.894453531
 31
0.0
  0
LINE
  5
262
100
AcDbEntity
  8
AUGSL0
  6
SOLID
 62
        7
100
AcDbLine
 10
840.765139418
 20
-2214.894453531
 30
0.0
 11
840.765139418
 21
-2237.394453531
 31
0.0
  0
LINE
  5
263
100
AcDbEntity
  8
AUGSL0
  6
L_DASH
 62
        3
100
AcDbLine
 10
878.765139418
 20
-2197.394453531
 30
0.0
 11
878.765139418
 21
-2237.394453531
 31
0.0
  0
LINE
  5
264
100
AcDbEntity
  8
AUGSL0
  6
L_DASH
 62
        3
100
AcDbLine
 10
877.265139418
 20
-2197.394453531
 30
0.0
 11
877.265139418
 21
-2237.394453531
 31
0.0
  0
LINE
  5
265
100
AcDbEntity
  8
AUGSL0
  6
L_DASH
 62
        3
100
AcDbLine
 10
862.765139418
 20
-2197.394453531
 30
0.0
 11
862.765139418
 21
-2237.394453531
 31
0.0
  0
LINE
  5
266
100
AcDbEntity
  8
AUGSL0
  6
SOLID
 62
        7
100
AcDbLine
 10
1110.765139418
 20
-2094.894453531
 30
0.0
 11
1110.765139418
 21
-2057.394453531
 31
0.0
  0
LINE
  5
267
100
AcDbEntity
  8
AUGSL0
  6
SOLID
 62
        7
100
AcDbLine
 10
830.765139418
 20
-1917.394453531
 30
0.0
 11
836.765139418
 21
-1917.394453531
 31
0.0
  0
LINE
  5
268
100
AcDbEntity
  8
AUGSL0
  6
SOLID
 62
        7
100
AcDbLine
 10
910.765139418
 20
-2217.394453531
 30
0.0
 11
970.765139418
 21
-2217.394453531
 31
0.0
  0
LINE
  5
269
100
AcDbEntity
  8
AUGSL0
  6
CENTER
 62
        7
100
AcDbLine
 10
870.765139418
 20
-2193.806486277
 30
0.0
 11
870.765139418
 21
-2249.445760096
 31
0.0
  0
ARC
  5
26A
100
AcDbEntity
  8
AUGSL0
  6
SOLID
 62
        7
100
AcDbCircle
 10
910.765139418
 20
-2227.394453531
 30
0.0
 40
10.0
100
AcDbArc
 50
90.0
 51
180.0
  0
LINE
  5
26B
100
AcDbEntity
  8
AUGSL0
  6
L_DASH
 62
        3
100
AcDbLine
 10
864.265139418
 20
-2197.394453531
 30
0.0
 11
864.265139418
 21
-2237.394453531
 31
0.0
  0
LINE
  5
26C
100
AcDbEntity
  8
AUGSL0
  6
L_DASH
 62
        3
100
AcDbLine
 10
883.825829189
 20
-2197.394453531
 30
0.0
 11
849.762419948
 21
-2197.394453531
 31
0.0
  0
DIMENSION
  5
27C
100
AcDbEntity
  8
AUGSL0
  6
SOLID
 62
        3
100
AcDbDimension
  2
*D15
 10
970.765136719
 20
-2315.434082031
 30
0.0
 11
1030.383178711
 21
-2309.934082031
 31
0.0
 71
        5
 72
        1
 41
1.0
 42
0.0
  3
16
100
AcDbAlignedDimension
 13
1116.765136719
 23
-2214.89453125
 33
0.0
 14
970.765136719
 24
-2320.233642578
 34
0.0
100
AcDbRotatedDimension
  0
ARC
  5
27D
100
AcDbEntity
  8
AUGSL0
  6
SOLID
 62
        7
100
AcDbCircle
 10
1089.765139418
 20
-2133.894453531
 30
0.0
 40
5.0
100
AcDbArc
 50
130.0
 51
70.0
  0
CIRCLE
  5
27E
100
AcDbEntity
  8
AUGSL0
  6
SOLID
 62
        7
100
AcDbCircle
 10
1089.765139418
 20
-2133.894453531
 30
0.0
 40
4.199999809
  0
LINE
  5
27F
100
AcDbEntity
  8
AUGSL0
  6
CENTER
 62
        2
100
AcDbLine
 10
1075.743718572
 20
-2133.894453531
 30
0.0
 11
1105.087117704
 21
-2133.894453531
 31
0.0
  0
LINE
  5
280
100
AcDbEntity
  8
AUGSL0
  6
CENTER
 62
        2
100
AcDbLine
 10
1089.765139418
 20
-2120.57968937
 30
0.0
 11
1089.765139418
 21
-2142.880672711
 31
0.0
  0
ARC
  5
281
100
AcDbEntity
  8
AUGSL0
  6
SOLID
 62
        7
100
AcDbCircle
 10
1089.765139418
 20
-2175.894453531
 30
0.0
 40
5.0
100
AcDbArc
 50
130.0
 51
70.0
  0
CIRCLE
  5
282
100
AcDbEntity
  8
AUGSL0
  6
SOLID
 62
        7
100
AcDbCircle
 10
1089.765139418
 20
-2175.894453531
 30
0.0
 40
4.199999809
  0
LINE
  5
283
100
AcDbEntity
  8
AUGSL0
  6
CENTER
 62
        2
100
AcDbLine
 10
1075.743718572
 20
-2175.894453531
 30
0.0
 11
1105.087117704
 21
-2175.894453531
 31
0.0
  0
LINE
  5
284
100
AcDbEntity
  8
AUGSL0
  6
CENTER
 62
        7
100
AcDbLine
 10
1089.765139418
 20
-2162.57968937
 30
0.0
 11
1089.765139418
 21
-2188.451585704
 31
0.0
  0
DIMENSION
  5
294
100
AcDbEntity
  8
AUGSL0
  6
SOLID
 62
        3
100
AcDbDimension
  2
*D16
 10
830.765136719
 20
-2338.978027344
 30
0.0
 11
960.383239746
 21
-2333.478027344
 31
0.0
 71
        5
 72
        1
 41
1.0
 42
0.0
  3
17
100
AcDbAlignedDimension
 13
1116.765136719
 23
-2214.89453125
 33
0.0
 14
830.765136719
 24
-2192.39453125
 34
0.0
100
AcDbRotatedDimension
  0
LINE
  5
295
100
AcDbEntity
  8
AUGSL0
  6
CENTER
 62
        2
100
AcDbLine
 10
970.765139418
 20
-1863.942747345
 30
0.0
 11
970.765139418
 21
-2224.066621802
 31
0.0
  0
DIMENSION
  5
2A5
100
AcDbEntity
  8
AUGSL0
  6
SOLID
 62
        3
100
AcDbDimension
  2
*D17
 10
1171.531616211
 20
-2237.39453125
 30
0.0
 11
1166.031616211
 21
-2081.971435547
 31
0.0
 71
        5
 72
        1
 41
1.0
 42
0.0
  3
18
100
AcDbAlignedDimension
 13
1116.765136719
 23
-1899.89440918
 33
0.0
 14
1100.765136719
 24
-2237.39453125
 34
0.0
 50
90.0
100
AcDbRotatedDimension
  0
DIMENSION
  5
2B7
100
AcDbEntity
  8
AUGSL0
  6
SOLID
 62
        3
100
AcDbDimension
  2
*D18
 10
1144.881958008
 20
-2237.39453125
 30
0.0
 11
1139.381958008
 21
-2234.209960938
 31
0.0
 71
        5
 72
        1
 41
1.0
 42
0.0
  3
19
100
AcDbAlignedDimension
 13
1116.765136719
 23
-2214.89453125
 33
0.0
 14
1100.765136719
 24
-2237.39453125
 34
0.0
 50
90.0
100
AcDbRotatedDimension
  0
DIMENSION
  5
2C7
100
AcDbEntity
  8
AUGSL0
  6
SOLID
 62
        3
100
AcDbDimension
  2
*D19
 10
1144.881958008
 20
-2214.89453125
 30
0.0
 11
1139.381958008
 21
-2070.317871094
 31
0.0
 71
        5
 72
        1
 41
1.0
 42
0.0
  3
20
100
AcDbAlignedDimension
 13
1116.765136719
 23
-1899.89440918
 33
0.0
 14
1116.765136719
 24
-2214.89453125
 34
0.0
 50
90.0
100
AcDbRotatedDimension
  0
INSERT
  5
2D1
100
AcDbEntity
  8
AUGSL0
100
AcDbBlockReference
  2
*L20
 10
0.0
 20
0.0
 30
0.0
  0
DIMENSION
  5
2E3
100
AcDbEntity
  8
AUGSL0
  6
SOLID
 62
        3
100
AcDbDimension
  2
*D21
 10
802.200683594
 20
-2237.39453125
 30
0.0
 11
796.700683594
 21
-2225.459960938
 31
0.0
 71
        5
 72
        1
 41
1.0
 42
0.0
  3
21
100
AcDbAlignedDimension
 13
849.762390137
 23
-2197.39453125
 33
0.0
 14
840.765136719
 24
-2237.39453125
 34
0.0
 50
90.0
100
AcDbRotatedDimension
  0
ENDSEC
  0
SECTION
  2
OBJECTS
  0
DICTIONARY
  5
19
100
AcDbDictionary
280
        0
281
        1
  3
ACAD_GROUP
350
1A
  3
ACAD_MLINESTYLE
350
1B
  3
ACAD_LAYOUT
350
1E
  3
ACAD_PLOTSETTINGS
350
22
  3
ACAD_PLOTSTYLENAME
350
1F
  0
DICTIONARY
  5
1A
102
{ACAD_REACTORS
330
19
102
}
100
AcDbDictionary
280
        0
281
        1
  0
DICTIONARY
  5
1B
102
{ACAD_REACTORS
330
19
102
}
100
AcDbDictionary
280
        0
281
        1
  3
Standard
350
1C
  0
MLINESTYLE
  5
1C
102
{ACAD_REACTORS
330
1B
102
}
100
AcDbMlineStyle
  2
Standard
 70
        0
  3

 62
        0
 51
90.0
 52
90.0
 71
        2
 49
0.5
 62
      256
  6
BYLAYER
 49
-0.5
 62
      256
  6
BYLAYER
  0
ACDBDICTIONARYWDFLT
  5
1F
102
{ACAD_REACTORS
330
19
102
}
100
AcDbDictionary
281
        1
  3
Normal
350
1D
100
AcDbDictionaryWithDefault
340
1D
  0
ACDBPLACEHOLDER
  5
1D
102
{ACAD_REACTORS
330
1F
102
}
  0
LAYOUT
  5
20
102
{ACAD_REACTORS
330
1E
102
}
100
AcDbPlotSettings
  1

  2

  4

  6

 40
0.0
 41
0.0
 42
0.0
 43
0.0
 44
0.0
 45
0.0
 46
0.0
 47
0.0
 48
0.0
 49
0.0
140
0.0
141
0.0
142
1.0
143
1.0
 70
     1024
 72
        0
 73
        0
 74
        0
  7

 75
        0
147
1.0
148
0.0
149
0.0
100
AcDbLayout
  1
Model
 70
        0
 71
        0
 10
0.0
 20
0.0
 11
0.0
 21
0.0
 12
0.0
 22
0.0
 32
0.0
 14
0.0
 24
0.0
 34
0.0
 15
0.0
 25
0.0
 35
0.0
146
0.0
 13
0.0
 23
0.0
 33
0.0
 16
0.0
 26
0.0
 36
0.0
 17
0.0
 27
0.0
 37
0.0
 76
        0
330
A
331
0
345
0
346
0
  0
LAYOUT
  5
21
102
{ACAD_REACTORS
330
1E
102
}
100
AcDbPlotSettings
  1

  2

  4

  6

 40
0.0
 41
0.0
 42
0.0
 43
0.0
 44
0.0
 45
0.0
 46
0.0
 47
0.0
 48
0.0
 49
0.0
140
0.0
141
0.0
142
1.0
143
1.0
 70
        0
 72
        0
 73
        0
 74
        0
  7

 75
        0
147
1.0
148
0.0
149
0.0
100
AcDbLayout
  1
Layout1
 70
        0
 71
        0
 10
0.0
 20
0.0
 11
0.0
 21
0.0
 12
0.0
 22
0.0
 32
0.0
 14
0.0
 24
0.0
 34
0.0
 15
0.0
 25
0.0
 35
0.0
146
0.0
 13
0.0
 23
0.0
 33
0.0
 16
0.0
 26
0.0
 36
0.0
 17
0.0
 27
0.0
 37
0.0
 76
        0
330
B
331
0
345
0
346
0
  0
DICTIONARY
  5
1E
102
{ACAD_REACTORS
330
19
102
}
100
AcDbDictionary
280
        0
281
        1
  3
Layout1
350
21
  3
Model
350
20
  0
DICTIONARY
  5
22
102
{ACAD_REACTORS
330
19
102
}
100
AcDbDictionary
280
        0
281
        1
  0
ENDSEC
  0
EOF
